osu file format v14

[General]
AudioFilename: audio.mp3
AudioLeadIn: 0
PreviewTime: -1
Countdown: 1
SampleSet: Normal
StackLeniency: 0.7
Mode: 0
LetterboxInBreaks: 0
WidescreenStoryboard: 0

[Editor]
Bookmarks: 151379,153355,153535,255585,267441,271752,272112,272471,273369,273549,273729
DistanceSpacing: 1.5
BeatDivisor: 4
GridSize: 8
TimelineZoom: 1

[Metadata]
Title:Signal
TitleUnicode:Signal
Artist:TK from Ling Tosite Sigure
ArtistUnicode:TK from Ling Tosite Sigure
Creator:nuvasek
Version:Langis
Source:91 Days
Tags:tk from ling tosite sigure 91 days anime
BeatmapID:1060132
BeatmapSetID:498071

[Difficulty]
HPDrainRate:7
CircleSize:4.6
OverallDifficulty:8
ApproachRate:9.4
SliderMultiplier:1.4
SliderTickRate:1

[Events]
//Background and Video events
0,0,"91-Days (1).jpg",0,0
//Break Periods
//Storyboard Layer 0 (Background)
//Storyboard Layer 1 (Fail)
//Storyboard Layer 2 (Pass)
//Storyboard Layer 3 (Foreground)
//Storyboard Sound Samples

[TimingPoints]
14853,359.281437125748,4,1,3,90,1,0
25024,-58.8235294117647,4,1,3,90,0,0
25560,-100,4,1,3,90,0,0
26077,-200,4,1,3,90,0,0
28149,-100,4,1,3,90,0,0
32077,-62.5,4,1,3,90,0,0
32435,-100,4,1,3,90,0,0
34935,-66.6666666666667,4,1,3,90,0,0
35292,-100,4,1,3,90,0,0
36542,-57.1428571428571,4,1,3,90,0,0
36720,-100,4,1,3,90,0,0
57607,-83.3333333333333,4,1,3,90,0,0
58505,-100,4,1,3,90,0,0
61200,-66.6666666666667,4,1,3,90,0,0
61559,-100,4,1,3,90,0,0
70541,-83.3333333333333,4,1,3,90,0,0
70721,-71.4285714285714,4,1,3,90,0,0
71080,-62.5,4,1,3,90,0,0
71439,-66.6666666666667,4,1,3,90,0,0
71978,-100,4,1,3,90,0,0
84553,-80,4,1,3,90,0,1
128026,-58.8235294117647,4,1,3,90,0,1
142038,-66.6666666666667,4,1,3,65,0,1
149403,-133.333333333333,4,2,0,65,0,1
149763,-66.6666666666667,4,1,3,65,0,1
155152,-100,4,1,3,90,0,0
167868,359.281437125748,4,1,3,90,1,0
202359,-100,4,1,3,90,0,1
207388,-66.6666666666667,4,1,3,90,0,1
234747,359.281437125748,4,1,3,90,1,1
234847,-66.6666666666667,4,1,3,90,0,1
250081,-58.8235294117647,4,1,3,90,0,1
251151,-52.6315789473684,4,1,3,90,0,1
253160,-50,4,1,3,90,0,1
254148,-66.6666666666667,4,1,3,90,0,1

[HitObjects]
136,144,15571,6,2,B|272:104|416:144,1,280
136,144,16649,1,0,0:0:0:0:
176,200,16829,1,0,0:0:0:0:
240,168,17008,1,0,0:0:0:0:
256,232,17188,1,0,0:0:0:0:
320,200,17367,1,0,0:0:0:0:
216,104,17727,1,4,0:0:0:0:
168,232,18086,5,0,0:0:0:0:
120,104,18445,2,2,B|208:96|272:176|360:128|384:72,1,280
344,176,19523,1,8,0:0:0:0:
280,144,19703,1,10,0:0:0:0:
112,64,20242,1,0,0:0:0:0:
184,56,20601,2,10,B|264:72|296:136|352:184,1,210,2|2,0:0|0:0,0:0:0:0:
400,144,21320,5,8,0:0:0:0:
128,192,21679,1,8,0:0:0:0:
336,192,22038,1,8,0:0:0:0:
224,104,22397,1,8,0:0:0:0:
96,64,22757,5,10,0:0:0:0:
140,80,22847,1,10,0:0:0:0:
174,113,22936,1,10,0:0:0:0:
201,153,23024,1,10,0:0:0:0:
232,192,23113,1,10,0:0:0:0:
264,232,23202,1,10,0:0:0:0:
304,272,23291,1,10,0:0:0:0:
360,304,23380,1,10,0:0:0:0:
424,328,23469,1,10,0:0:0:0:
320,72,23835,5,0,0:0:0:0:
280,296,24194,2,0,B|248:208|296:144|384:144|424:208|408:280,1,280
200,144,25092,2,0,B|96:80|256:104|296:128|160:64|360:56,1,238.00000453949
240,32,25631,6,0,B|208:88|232:104|224:152|176:128,2,140
264,136,26709,1,0,0:0:0:0:
344,56,27068,2,0,B|392:32|472:120,1,140
392,144,27966,1,0,0:0:0:0:
240,184,28505,5,0,0:0:0:0:
272,96,28864,1,0,0:0:0:0:
120,144,29224,2,10,B|216:136|240:216|320:144,1,210
376,96,29942,1,0,0:0:0:0:
224,136,30302,1,0,0:0:0:0:
352,224,30661,2,0,B|272:200|232:248|264:128|416:96,1,280
264,128,31739,1,0,0:0:0:0:
112,272,32098,6,2,B|128:128|144:168|176:288|184:320|160:168|208:192,1,224
384,168,32817,2,0,B|328:96|256:184|192:96|120:184,1,280
176,192,33894,1,0,0:0:0:0:
224,240,34255,1,0,0:0:0:0:
264,264,34344,1,0,0:0:0:0:
312,272,34433,1,0,0:0:0:0:
368,248,34523,1,0,0:0:0:0:
416,200,34613,1,0,0:0:0:0:
240,88,34972,2,2,P|200:64|24:104,1,210.000008010865
368,312,35691,1,0,0:0:0:0:
344,176,36050,6,0,B|304:128|256:144|240:72,1,140
240,208,36589,2,2,P|240:312|232:312,1,122.500001168251,10|2,0:0|0:0,0:0:0:0:
360,192,37128,2,0,P|320:184|288:88,1,140
208,40,37667,1,8,0:0:0:0:
192,128,37847,1,8,0:0:0:0:
208,224,38026,1,8,0:0:0:0:
280,288,38206,1,8,0:0:0:0:
376,304,38385,1,8,0:0:0:0:
472,280,38565,1,12,0:0:0:0:
344,136,38924,5,0,0:0:0:0:
184,248,39284,1,0,0:0:0:0:
144,56,39643,1,2,0:0:0:0:
288,192,39823,1,8,0:0:0:0:
144,200,40186,1,2,0:0:0:0:
96,152,40361,2,2,B|152:96|200:208|216:96|336:32,1,280
136,184,41439,1,0,0:0:0:0:
304,192,41799,5,8,0:0:0:0:
176,192,41978,1,8,0:0:0:0:
240,80,42158,1,8,0:0:0:0:
240,208,42338,1,8,0:0:0:0:
144,128,42697,2,2,B|240:136|312:80|416:232,1,280
280,248,43595,1,0,0:0:0:0:
144,200,43775,1,0,0:0:0:0:
216,96,43954,1,0,0:0:0:0:
176,344,44314,2,0,P|192:264|248:224,1,140
168,240,44852,5,0,0:0:0:0:
232,152,45032,1,0,0:0:0:0:
272,272,45391,1,0,0:0:0:0:
136,112,45571,1,0,0:0:0:0:
296,192,45751,1,0,0:0:0:0:
448,48,46110,2,0,B|392:128|312:48|224:232,1,280
233,212,47008,1,0,0:0:0:0:
128,184,47547,5,2,0:0:0:0:
336,184,47727,1,2,0:0:0:0:
128,272,48984,2,2,B|168:184|288:240|264:232,1,140
360,144,49703,1,10,0:0:0:0:
112,112,50062,1,0,0:0:0:0:
112,280,50421,5,8,0:0:0:0:
192,216,50601,1,8,0:0:0:0:
216,112,50781,2,0,P|296:88|336:144,1,140
424,168,51320,2,0,P|416:80|400:16,1,140
280,160,51858,1,0,0:0:0:0:
96,264,52218,5,0,0:0:0:0:
192,80,52577,1,0,0:0:0:0:
248,280,52936,2,0,P|264:200|328:208,1,140
344,96,53475,1,0,0:0:0:0:
344,232,53655,1,0,0:0:0:0:
440,176,54014,1,0,0:0:0:0:
160,152,54194,5,0,0:0:0:0:
144,280,54373,1,0,0:0:0:0:
288,80,54553,1,0,0:0:0:0:
336,208,54912,1,0,0:0:0:0:
320,336,55092,1,0,0:0:0:0:
208,168,55272,1,0,0:0:0:0:
240,248,55811,2,0,B|280:224|312:192|344:136|344:136,1,140
336,148,56350,1,0,0:0:0:0:
208,144,56529,1,0,0:0:0:0:
272,264,56709,1,0,0:0:0:0:
144,88,57068,2,0,L|216:104,1,70
432,256,57607,1,0,0:0:0:0:
432,256,57787,6,2,B|304:192|344:32|120:400|312:16|264:80|168:176|120:184,1,335.999989746094
112,80,58685,1,0,0:0:0:0:
288,264,59044,1,0,0:0:0:0:
168,200,59224,1,2,0:0:0:0:
296,160,59403,1,2,0:0:0:0:
168,200,59763,1,8,0:0:0:0:
296,160,59942,1,8,0:0:0:0:
424,112,60122,1,8,0:0:0:0:
168,200,60302,1,8,0:0:0:0:
112,88,60481,1,0,0:0:0:0:
288,288,60841,1,4,0:0:0:0:
128,80,61200,6,2,P|192:80|264:200,1,210.000008010865
384,160,61918,1,0,0:0:0:0:
280,184,62098,1,0,0:0:0:0:
184,144,62278,2,0,P|112:176|128:240,1,140
216,256,62817,1,0,0:0:0:0:
384,136,63176,1,0,0:0:0:0:
176,176,63535,1,0,0:0:0:0:
232,288,63715,1,0,0:0:0:0:
176,176,64074,2,0,P|264:128|320:128,1,140
128,184,64793,5,0,0:0:0:0:
200,256,64972,1,0,0:0:0:0:
288,112,65152,2,0,P|248:184|304:240,1,140
376,192,65691,1,0,0:0:0:0:
168,192,66050,1,0,0:0:0:0:
256,144,66230,1,0,0:0:0:0:
56,296,66589,2,0,P|168:288|208:296,1,140
384,120,67308,1,0,0:0:0:0:
176,192,67667,5,0,0:0:0:0:
280,192,67847,1,0,0:0:0:0:
216,112,68026,1,0,0:0:0:0:
264,296,68206,1,0,0:0:0:0:
384,120,68565,1,0,0:0:0:0:
288,160,68745,2,2,P|240:168|168:240,1,140
128,320,69284,1,0,0:0:0:0:
144,192,69463,1,0,0:0:0:0:
376,128,69823,1,0,0:0:0:0:
224,224,70002,1,0,0:0:0:0:
344,256,70182,1,0,0:0:0:0:
167,114,70541,6,2,L|263:194,1,83.9999974365235
232,168,70900,2,2,L|296:88,1,97.9999970092774
293,91,71260,2,2,L|392:176,1,112
48,208,71619,2,2,B|152:120|152:296|216:240|216:120|264:88|264:304|320:304|320:88|376:120|376:296|448:240,1,420.000016021729
280,296,72517,1,0,0:0:0:0:
280,296,72607,1,0,0:0:0:0:
280,296,72697,1,0,0:0:0:0:
112,208,72876,5,0,0:0:0:0:
216,232,73056,2,0,B|232:160|280:160|280:160,1,70
376,136,73415,1,0,0:0:0:0:
288,80,73595,1,0,0:0:0:0:
288,80,74134,1,2,0:0:0:0:
296,184,74314,2,2,B|264:168|240:192|248:216|256:232|280:232|296:224|296:224|304:216|304:192,1,140
240,128,74852,1,2,0:0:0:0:
173,211,75032,2,2,P|229:171|317:203,1,140
360,264,75571,1,2,0:0:0:0:
248,216,75751,2,2,P|240:144|160:128,1,140
144,232,76290,5,2,0:0:0:0:
384,248,76649,1,0,0:0:0:0:
160,168,77008,2,2,P|200:184|160:272,1,140
384,128,77727,1,10,0:0:0:0:
168,232,78086,1,2,0:0:0:0:
168,112,78625,5,2,0:0:0:0:
256,192,78805,1,2,0:0:0:0:
384,208,78984,1,2,0:0:0:0:
344,128,79523,2,0,P|288:144|200:152,1,140
168,216,80062,5,0,0:0:0:0:
288,216,80242,2,0,B|312:176|200:144|168:144,1,140
136,40,80781,1,0,0:0:0:0:
240,224,81320,1,0,0:0:0:0:
296,144,81499,1,0,0:0:0:0:
72,264,81679,5,2,0:0:0:0:
96,120,81858,1,2,0:0:0:0:
176,272,82038,1,2,0:0:0:0:
224,104,82218,1,2,0:0:0:0:
288,280,82397,1,2,0:0:0:0:
344,96,82577,1,0,0:0:0:0:
392,288,82757,1,0,0:0:0:0:
448,88,82936,1,0,0:0:0:0:
120,192,83475,6,0,P|176:104|192:112,2,140
256,192,84553,5,0,0:0:0:0:
216,64,84733,1,0,0:0:0:0:
216,64,84823,1,0,0:0:0:0:
216,64,84912,6,0,L|304:112,1,87.5
208,264,85272,1,0,0:0:0:0:
216,64,85631,2,0,P|192:144|272:152,1,175
144,200,86350,2,0,B|184:224|240:184|232:144|272:184|288:208|288:208|288:192|288:192|296:200,2,175
144,200,87427,1,0,0:0:0:0:
384,96,87787,1,0,0:0:0:0:
240,256,88146,5,0,0:0:0:0:
160,152,88326,1,0,0:0:0:0:
376,64,88505,2,0,B|304:144|376:320,1,262.5
160,136,89224,1,0,0:0:0:0:
424,320,89583,2,0,P|344:288|264:232,1,175
184,112,90122,2,0,P|192:168|224:160,1,87.5
272,264,90661,1,0,0:0:0:0:
256,176,91020,5,0,0:0:0:0:
112,240,91379,2,0,P|128:168|144:168,1,87.5
264,96,91739,1,0,0:0:0:0:
288,240,92098,1,0,0:0:0:0:
136,200,92278,2,0,P|216:160|312:192,1,175
208,312,92817,1,0,0:0:0:0:
296,184,92996,1,0,0:0:0:0:
416,72,93176,1,0,0:0:0:0:
264,104,93355,1,0,0:0:0:0:
128,184,93535,1,0,0:0:0:0:
432,256,93894,5,0,0:0:0:0:
120,256,94254,2,0,P|200:208|256:256,1,175
240,184,94972,1,0,0:0:0:0:
416,96,95332,1,0,0:0:0:0:
328,224,95511,1,0,0:0:0:0:
192,304,95691,1,0,0:0:0:0:
96,176,95870,1,0,0:0:0:0:
224,80,96050,2,0,B|224:136|208:240|288:264,1,175
160,240,96769,5,0,0:0:0:0:
456,144,97128,1,0,0:0:0:0:
344,288,97487,1,0,0:0:0:0:
144,128,97847,2,0,P|216:144|272:256,1,175
328,240,98565,1,0,0:0:0:0:
80,48,98924,1,0,0:0:0:0:
248,320,99284,2,0,P|192:256|224:160,1,175
368,144,99823,1,0,0:0:0:0:
208,128,100002,2,0,B|88:216|112:200|120:264|120:272,1,175
416,144,100721,1,0,0:0:0:0:
128,272,101080,2,0,P|152:168|200:184,1,175
344,144,101619,1,0,0:0:0:0:
184,160,101799,5,0,0:0:0:0:
160,232,102158,1,0,0:0:0:0:
128,104,102517,1,0,0:0:0:0:
408,248,102876,1,0,0:0:0:0:
248,232,103056,1,0,0:0:0:0:
96,184,103236,1,0,0:0:0:0:
400,112,103595,1,0,0:0:0:0:
248,144,103775,2,0,P|160:208|144:280,1,175
96,120,104314,1,0,0:0:0:0:
200,240,104493,1,0,0:0:0:0:
192,80,104673,1,0,0:0:0:0:
464,72,104852,1,0,0:0:0:0:
320,144,105032,1,0,0:0:0:0:
320,232,105391,5,0,0:0:0:0:
240,280,105751,2,0,P|176:200|96:176,1,175
424,176,106469,1,0,0:0:0:0:
128,72,106829,1,0,0:0:0:0:
288,64,107008,1,0,0:0:0:0:
408,168,107188,1,0,0:0:0:0:
416,328,107367,1,0,0:0:0:0:
280,248,107547,2,0,P|208:192|104:208,1,175
136,152,108266,1,0,0:0:0:0:
448,200,108625,2,0,B|368:184|320:280|240:320|200:320|168:248|304:256,1,350
272,192,109703,5,0,0:0:0:0:
160,232,110062,1,0,0:0:0:0:
152,144,110421,1,0,0:0:0:0:
440,280,110781,2,0,P|328:232|328:232,1,87.5
216,304,111140,1,0,0:0:0:0:
160,152,111320,1,0,0:0:0:0:
232,288,111499,2,0,P|256:224|424:136,1,262.5
264,120,112218,1,0,0:0:0:0:
352,176,112577,2,0,P|368:240|256:296,1,175
184,192,113116,1,0,0:0:0:0:
256,48,113296,5,0,0:0:0:0:
328,248,113655,1,0,0:0:0:0:
408,80,114014,1,0,0:0:0:0:
120,208,114373,2,0,P|208:176|224:88,1,175
368,256,115092,1,0,0:0:0:0:
208,256,115272,2,0,P|136:224|152:112,1,175
288,160,115811,1,0,0:0:0:0:
128,176,115990,2,0,B|160:136|184:160|208:208|224:176|216:128|248:104|264:96,1,175
400,168,116529,1,0,0:0:0:0:
88,120,116888,5,0,0:0:0:0:
368,264,117248,1,0,0:0:0:0:
72,152,117607,2,0,B|160:136|240:40|256:104|256:136|256:128,1,175
144,64,118326,5,0,0:0:0:0:
304,72,118505,1,0,0:0:0:0:
408,192,118685,1,0,0:0:0:0:
336,336,118864,1,0,0:0:0:0:
176,344,119044,2,0,P|136:288|136:176,1,175
424,72,119763,1,0,0:0:0:0:
112,136,120122,2,0,P|168:136|232:240,1,175
360,168,120841,2,2,B|288:96|248:144|248:200|232:240|160:256|120:160|192:248|224:344|232:344,1,350
400,80,121918,5,0,0:0:0:0:
144,272,122278,1,0,0:0:0:0:
456,320,122637,1,0,0:0:0:0:
320,248,122817,1,0,0:0:0:0:
216,120,122996,2,0,B|296:128|328:112|352:176|304:160|392:192,1,175
56,200,123715,1,0,0:0:0:0:
328,40,124074,2,2,B|312:88|280:88|248:72|264:72|256:96|240:120|304:256|400:192,1,262.5
208,208,124793,1,0,0:0:0:0:
456,328,125152,5,0,0:0:0:0:
288,104,125511,1,0,0:0:0:0:
96,312,125870,2,0,P|192:216|248:200,1,175
240,264,126589,1,0,0:0:0:0:
160,144,126769,2,0,B|224:128|240:120|232:64|248:112|264:184|288:72,1,175
384,176,127308,1,0,0:0:0:0:
304,288,127487,2,0,B|264:264|184:320|120:312|128:256|192:288,1,175
200,96,128026,6,0,B|264:152|216:232|296:240|408:208,2,238.00000453949
88,240,129104,1,0,0:0:0:0:
432,72,129463,2,0,P|408:144|248:168,1,238.00000453949
288,80,130182,2,0,B|336:128|320:168|240:216|312:272|400:224|384:160|432:152|424:280|424:240,1,238.00000453949
64,48,130900,5,2,0:0:0:0:
184,48,131080,2,2,L|312:48,1,119.000002269745
80,136,131619,5,2,0:0:0:0:
200,136,131799,2,2,L|328:136,1,119.000002269745
136,288,132338,1,0,0:0:0:0:
152,48,132697,2,0,L|176:104,1,59.5000011348725
232,88,132876,2,0,L|304:72,1,59.5000011348725
336,112,133056,2,0,L|392:144,1,59.5000011348725
336,176,133236,2,0,L|240:224,1,59.5000011348725
264,232,133415,1,0,0:0:0:0:
416,320,133775,6,0,L|360:272,1,59.5000011348725
312,272,133954,2,0,L|288:216,1,59.5000011348725
264,192,134134,1,0,0:0:0:0:
56,232,134493,1,0,0:0:0:0:
32,216,134583,2,0,L|48:152,1,59.5000011348725
136,80,134763,2,0,L|96:136,1,59.5000011348725
304,248,135212,6,0,B|224:304|192:240|240:208|176:288|192:288|232:200|256:200|304:176|384:200|376:232|368:208,1,238.00000453949
112,112,135930,1,0,0:0:0:0:
296,264,136290,1,4,0:0:0:0:
392,80,136649,6,0,L|336:112,1,59.5000011348725
312,128,136829,6,0,L|256:160,1,59.5000011348725
240,176,137008,1,0,0:0:0:0:
80,304,137367,6,0,L|136:272,1,59.5000011348725
160,256,137547,6,0,L|216:224,1,59.5000011348725
232,216,137727,1,0,0:0:0:0:
456,304,138086,1,0,0:0:0:0:
312,112,138445,2,0,L|336:168,1,59.5000011348725
272,160,138625,2,0,L|304:232,1,59.5000011348725
240,208,138805,2,0,L|272:288,1,59.5000011348725
208,248,138984,1,0,0:0:0:0:
88,272,139164,1,0,0:0:0:0:
328,272,139523,2,0,P|400:256|368:200,1,119.000002269745
304,160,139882,2,0,P|232:120|256:64,1,119.000002269745
224,216,140242,1,2,0:0:0:0:
128,80,140601,5,2,0:0:0:0:
368,80,140781,1,2,0:0:0:0:
344,312,140960,1,2,0:0:0:0:
64,232,141320,1,2,0:0:0:0:
272,344,141499,1,2,0:0:0:0:
296,104,141679,1,2,0:0:0:0:
0,192,142038,5,0,0:0:0:0:
14,223,142127,1,0,0:0:0:0:
32,253,142217,1,0,0:0:0:0:
53,281,142307,1,0,0:0:0:0:
78,306,142397,1,0,0:0:0:0:
108,324,142487,1,0,0:0:0:0:
142,332,142576,1,0,0:0:0:0:
176,327,142666,1,0,0:0:0:0:
200,304,142757,5,2,0:0:0:0:
216,264,142846,1,2,0:0:0:0:
232,216,142936,1,2,0:0:0:0:
248,168,143026,1,2,0:0:0:0:
272,120,143116,1,2,0:0:0:0:
304,72,143206,1,2,0:0:0:0:
352,32,143295,1,2,0:0:0:0:
416,8,143385,1,2,0:0:0:0:
488,8,143475,1,2,0:0:0:0:
480,104,143655,5,0,0:0:0:0:
472,138,143745,1,0,0:0:0:0:
462,171,143835,1,0,0:0:0:0:
451,204,143924,1,0,0:0:0:0:
437,237,144014,1,0,0:0:0:0:
422,268,144104,1,0,0:0:0:0:
408,296,144194,5,2,0:0:0:0:
360,288,144283,1,2,0:0:0:0:
320,264,144373,1,2,0:0:0:0:
280,232,144463,1,2,0:0:0:0:
240,192,144553,1,2,0:0:0:0:
192,160,144643,1,2,0:0:0:0:
144,128,144732,1,2,0:0:0:0:
88,96,144822,1,2,0:0:0:0:
32,64,144912,1,2,0:0:0:0:
8,360,145092,5,0,0:0:0:0:
48,352,145181,1,0,0:0:0:0:
83,345,145271,1,0,0:0:0:0:
117,336,145361,1,0,0:0:0:0:
150,326,145451,1,0,0:0:0:0:
183,314,145541,1,0,0:0:0:0:
214,300,145631,5,2,0:0:0:0:
254,276,145720,1,2,0:0:0:0:
288,256,145810,1,2,0:0:0:0:
328,232,145900,1,2,0:0:0:0:
360,208,145990,1,2,0:0:0:0:
400,176,146080,1,2,0:0:0:0:
432,144,146169,1,2,0:0:0:0:
456,88,146259,1,2,0:0:0:0:
480,32,146350,1,2,0:0:0:0:
352,64,146709,5,0,0:0:0:0:
136,240,147068,2,2,B|208:232|232:304|360:312,1,210.000008010865
88,64,147787,5,0,0:0:0:0:
127,82,147876,1,0,0:0:0:0:
159,112,147966,1,0,0:0:0:0:
184,148,148056,1,0,0:0:0:0:
206,186,148146,1,0,0:0:0:0:
229,223,148236,5,2,0:0:0:0:
257,256,148325,1,2,0:0:0:0:
292,282,148415,1,2,0:0:0:0:
332,299,148505,1,2,0:0:0:0:
375,307,148595,1,2,0:0:0:0:
419,301,148685,1,2,0:0:0:0:
453,275,148775,1,2,0:0:0:0:
471,235,148864,1,2,0:0:0:0:
474,192,148954,1,2,0:0:0:0:
464,150,149044,1,2,0:0:0:0:
436,117,149134,1,2,0:0:0:0:
394,110,149224,1,2,0:0:0:0:
352,122,149313,1,2,0:0:0:0:
336,144,149403,2,10,P|312:184|264:208,1,78.7500030040742
128,248,149852,5,0,0:0:0:0:
128,200,149942,1,0,0:0:0:0:
136,144,150031,1,0,0:0:0:0:
175,82,150121,1,0,0:0:0:0:
230,39,150211,1,0,0:0:0:0:
296,17,150301,1,0,0:0:0:0:
365,18,150391,1,0,0:0:0:0:
431,41,150480,1,0,0:0:0:0:
485,85,150570,1,0,0:0:0:0:
480,120,150661,5,2,0:0:0:0:
465,163,150750,1,2,0:0:0:0:
446,204,150840,1,2,0:0:0:0:
420,241,150930,1,2,0:0:0:0:
386,271,151020,1,2,0:0:0:0:
346,294,151110,1,2,0:0:0:0:
304,311,151199,1,2,0:0:0:0:
261,324,151289,1,2,0:0:0:0:
216,320,151379,6,2,L|176:312,3,35
64,56,151739,2,0,L|120:56,3,35
216,296,152098,2,0,L|160:296,3,35
48,352,152457,2,0,L|104:352,10,52.5000020027161
0,352,153445,1,2,0:0:0:0:
8,304,153535,1,0,0:0:0:0:
24,249,153624,1,0,0:0:0:0:
40,194,153714,1,0,0:0:0:0:
56,139,153804,1,10,0:0:0:0:
112,136,153894,1,2,0:0:0:0:
171,136,153983,1,2,0:0:0:0:
230,136,154073,1,2,0:0:0:0:
280,144,154165,5,10,0:0:0:0:
247,172,154254,1,0,0:0:0:0:
237,213,154344,1,0,0:0:0:0:
260,249,154434,1,0,0:0:0:0:
296,273,154524,1,0,0:0:0:0:
337,290,154614,1,0,0:0:0:0:
378,303,154703,1,0,0:0:0:0:
421,312,154793,1,0,0:0:0:0:
465,318,154883,1,4,0:0:0:0:
96,96,155332,6,0,L|168:120,1,70
280,120,155691,1,0,0:0:0:0:
416,312,156050,1,0,0:0:0:0:
192,240,156409,1,4,0:0:0:0:
376,88,156769,2,0,L|296:112,1,70
136,144,157128,1,0,0:0:0:0:
336,272,157487,1,0,0:0:0:0:
152,120,157847,1,4,0:0:0:0:
392,96,158206,2,0,L|296:128,1,70
232,192,158565,5,0,0:0:0:0:
432,320,158924,1,0,0:0:0:0:
200,280,159284,1,4,0:0:0:0:
376,120,159643,2,0,L|296:152,1,70
200,184,160002,1,0,0:0:0:0:
400,304,160361,1,0,0:0:0:0:
200,240,160721,1,4,0:0:0:0:
296,88,161080,2,0,L|280:184,1,70
112,256,161439,1,0,0:0:0:0:
320,136,161799,1,0,0:0:0:0:
96,224,162158,5,4,0:0:0:0:
336,224,162517,2,0,L|240:224,1,70
96,224,162876,1,0,0:0:0:0:
328,160,163236,1,0,0:0:0:0:
104,80,163595,5,8,0:0:0:0:
151,72,163684,1,8,0:0:0:0:
198,77,163774,1,8,0:0:0:0:
243,94,163864,1,8,0:0:0:0:
232,136,163954,1,2,0:0:0:0:
193,170,164043,1,2,0:0:0:0:
185,221,164133,1,2,0:0:0:0:
209,266,164223,1,2,0:0:0:0:
256,287,164313,1,2,0:0:0:0:
440,264,164673,5,0,0:0:0:0:
280,184,165032,1,6,0:0:0:0:
280,184,165212,1,4,0:0:0:0:
224,112,165391,2,0,B|192:112|144:144|144:168|160:224,1,140
320,288,166110,1,0,0:0:0:0:
440,152,166469,1,0,0:0:0:0:
440,152,166559,1,0,0:0:0:0:
440,152,166649,1,0,0:0:0:0:
176,216,167098,5,0,0:0:0:0:
240,152,167367,1,0,0:0:0:0:
392,256,167637,1,0,0:0:0:0:
240,256,167868,5,2,0:0:0:0:
224,312,167957,1,2,0:0:0:0:
168,328,168047,1,2,0:0:0:0:
112,320,168137,1,2,0:0:0:0:
432,192,168586,5,2,0:0:0:0:
416,248,168675,1,2,0:0:0:0:
360,264,168765,1,2,0:0:0:0:
304,256,168855,1,2,0:0:0:0:
192,112,169125,5,0,0:0:0:0:
432,96,169484,1,0,0:0:0:0:
400,208,169664,2,0,P|392:248|312:312,1,140
232,232,170203,1,0,0:0:0:0:
136,160,170382,1,0,0:0:0:0:
64,64,170562,1,0,0:0:0:0:
328,296,170742,1,8,0:0:0:0:
408,72,171101,6,0,P|376:160|320:192,1,140
104,208,171820,1,0,0:0:0:0:
224,192,171999,1,0,0:0:0:0:
344,200,172179,1,0,0:0:0:0:
384,88,172359,2,0,B|440:128|440:248|416:224,1,140
392,328,172897,1,0,0:0:0:0:
288,272,173077,1,0,0:0:0:0:
176,240,173257,1,0,0:0:0:0:
392,136,173616,1,0,0:0:0:0:
232,312,173975,5,0,0:0:0:0:
136,240,174155,1,0,0:0:0:0:
136,120,174335,2,0,L|208:144,1,70
312,176,174694,1,0,0:0:0:0:
256,280,174873,2,0,B|192:296|176:272|184:288,2,70
376,256,175412,1,0,0:0:0:0:
336,144,175592,2,0,B|320:128|296:120|248:136|208:152|232:184,1,140
120,128,176131,1,0,0:0:0:0:
232,240,176311,1,0,0:0:0:0:
360,144,176490,1,0,0:0:0:0:
200,144,176670,1,0,0:0:0:0:
104,280,176850,5,0,0:0:0:0:
144,72,177029,1,0,0:0:0:0:
216,272,177209,1,0,0:0:0:0:
264,72,177388,2,0,P|320:136|360:264,1,210
248,144,178287,1,0,0:0:0:0:
352,152,178646,1,2,0:0:0:0:
240,336,178826,1,2,0:0:0:0:
128,80,179185,5,0,0:0:0:0:
184,208,179365,2,0,B|200:160|240:184|312:200,1,140
448,184,179903,2,2,P|464:240|400:304,1,140,0|0,0:0|0:0,0:0:0:0:
280,280,180442,1,0,0:0:0:0:
352,208,180622,2,0,B|328:152|288:128|160:128|160:128,1,210
72,224,181341,2,0,P|184:256|240:256,1,140
344,224,181879,1,0,0:0:0:0:
160,136,182059,1,0,0:0:0:0:
432,112,182239,1,0,0:0:0:0:
120,192,183676,5,2,0:0:0:0:
392,192,183856,1,2,0:0:0:0:
392,192,184394,5,2,0:0:0:0:
120,192,184574,1,2,0:0:0:0:
368,304,184933,5,0,0:0:0:0:
232,264,185113,2,0,P|160:264|152:264,2,70
280,136,185652,1,0,0:0:0:0:
416,176,185832,1,8,0:0:0:0:
168,168,186370,5,0,0:0:0:0:
304,184,186550,2,0,B|304:240|280:264|256:264|256:264,2,70
200,280,187089,2,0,B|160:296|56:232|56:224,1,140
192,160,187628,1,0,0:0:0:0:
304,80,187808,2,0,B|384:176|384:200|376:216,1,140
296,312,188347,1,0,0:0:0:0:
176,248,188526,1,0,0:0:0:0:
96,128,188706,1,8,0:0:0:0:
376,128,189065,2,0,P|264:144|240:176,1,140
88,296,189784,1,0,0:0:0:0:
456,112,190143,1,0,0:0:0:0:
248,64,190502,5,0,0:0:0:0:
144,112,190682,1,0,0:0:0:0:
160,216,190862,2,0,P|240:240|272:288,1,140
376,304,191400,1,0,0:0:0:0:
384,200,191580,1,0,0:0:0:0:
176,176,191939,1,0,0:0:0:0:
104,56,192119,2,0,P|160:32|216:80,1,140
296,144,192658,1,0,0:0:0:0:
392,192,192838,1,0,0:0:0:0:
424,296,193017,1,0,0:0:0:0:
240,200,193376,2,2,B|192:232|192:264|192:272|168:280|144:264|144:232,1,140
288,88,194095,1,0,0:0:0:0:
112,200,194454,5,0,0:0:0:0:
320,208,194814,1,0,0:0:0:0:
112,208,195173,2,0,B|160:160|144:120|192:128|232:136,1,140
424,160,195891,1,0,0:0:0:0:
320,160,196251,1,0,0:0:0:0:
232,216,196430,5,0,0:0:0:0:
128,240,196610,1,0,0:0:0:0:
72,152,196790,1,0,0:0:0:0:
176,128,196969,2,0,P|264:88|328:104,1,140
176,256,197688,5,0,0:0:0:0:
280,248,197867,1,0,0:0:0:0:
352,168,198047,1,0,0:0:0:0:
168,72,198406,1,0,0:0:0:0:
240,152,198586,2,0,P|320:112|384:112,1,140
320,200,199125,1,0,0:0:0:0:
96,272,199305,1,2,0:0:0:0:
112,64,199484,5,2,0:0:0:0:
128,168,199664,1,2,0:0:0:0:
200,240,199844,1,2,0:0:0:0:
296,288,200023,1,2,0:0:0:0:
400,304,200203,1,2,0:0:0:0:
400,200,200382,1,2,0:0:0:0:
400,96,200562,1,2,0:0:0:0:
296,96,200742,1,2,0:0:0:0:
80,320,201281,5,0,0:0:0:0:
272,232,201640,1,4,0:0:0:0:
160,128,202359,6,0,P|232:112|320:144,1,140
440,280,203077,1,0,0:0:0:0:
240,224,203436,2,0,B|152:192|136:160|128:128|136:120|136:120|136:120,1,140
344,96,204155,2,0,P|256:96|192:136,1,140
336,288,204873,2,0,P|272:248|264:240,1,70
184,200,205233,1,0,0:0:0:0:
176,96,205412,1,0,0:0:0:0:
280,120,205592,1,0,0:0:0:0:
456,232,205951,5,0,0:0:0:0:
320,240,206131,1,0,0:0:0:0:
184,240,206311,2,0,B|128:224|88:184|88:144|96:128,1,140
360,120,207029,1,0,0:0:0:0:
224,288,207388,2,0,B|248:256|288:264|128:168|240:104|272:72,2,210.000008010865
40,32,208466,1,0,0:0:0:0:
328,184,208826,5,0,0:0:0:0:
256,112,209185,2,0,B|208:144|168:192|224:272|272:288,2,210.000008010865
384,264,210083,2,0,P|296:208|176:240,1,210.000008010865
104,48,210622,1,0,0:0:0:0:
296,104,210802,2,0,B|232:128|168:224|136:200|128:184|112:160,1,210.000008010865
296,256,211341,2,0,B|232:288|232:320|232:336|160:320|152:184,1,210.000008010865,2|2,0:0|0:0,0:0:0:0:
504,32,212059,1,0,0:0:0:0:
168,240,212418,1,0,0:0:0:0:
192,128,212778,1,0,0:0:0:0:
512,368,213137,5,0,0:0:0:0:
344,256,213317,1,0,0:0:0:0:
176,152,213496,1,0,0:0:0:0:
360,80,213676,1,0,0:0:0:0:
168,32,213856,1,0,0:0:0:0:
272,248,214215,5,0,0:0:0:0:
176,216,214574,2,0,P|104:160|208:104,2,210.000008010865
384,104,215652,2,0,P|288:144|208:208,1,210.000008010865
152,176,216370,2,0,B|232:200|248:288|104:288|96:288,1,210.000008010865
456,96,217089,1,0,0:0:0:0:
80,232,217448,1,0,0:0:0:0:
280,200,217628,1,0,0:0:0:0:
416,56,217808,2,0,B|384:168|352:208|296:136|264:240,1,210.000008010865
104,168,218526,2,0,B|240:176|232:272|192:304,3,210.000008010865
392,80,219963,5,0,0:0:0:0:
56,296,220323,1,0,0:0:0:0:
456,160,220682,2,0,B|384:128|336:168|272:264,2,210.000008010865
56,168,221760,2,0,B|144:144|192:152|264:200,1,210.000008010865
432,296,222299,1,0,0:0:0:0:
272,184,222478,1,0,0:0:0:0:
440,120,222658,1,0,0:0:0:0:
248,64,222838,2,0,B|184:120|184:144|184:176|208:216|216:288|224:288,2,210.000008010865
320,176,223915,5,0,0:0:0:0:
136,176,224275,1,0,0:0:0:0:
320,256,224454,1,0,0:0:0:0:
160,296,224634,1,0,0:0:0:0:
256,120,224814,1,0,0:0:0:0:
64,72,224993,1,0,0:0:0:0:
264,48,225173,1,0,0:0:0:0:
360,224,225353,1,4,0:0:0:0:
104,200,225712,6,0,B|216:168|248:176|320:176,2,210.000008010865
504,152,226790,1,0,0:0:0:0:
120,256,227149,2,0,B|184:160|256:168|272:144|344:160,1,210.000008010865
304,216,227867,1,0,0:0:0:0:
120,112,228227,1,0,0:0:0:0:
448,336,228586,1,0,0:0:0:0:
96,144,228945,5,0,0:0:0:0:
280,224,229125,1,0,0:0:0:0:
432,96,229305,2,0,P|272:128|264:160,2,210.000008010865
160,200,230382,2,2,B|312:176|384:128,2,210.000008010865
16,80,231460,1,0,0:0:0:0:
392,224,231820,1,0,0:0:0:0:
16,88,232179,5,0,0:0:0:0:
400,192,232538,2,2,B|296:152|232:176|176:208,1,210.000008010865
80,64,233077,2,0,B|176:128|256:112|312:112|312:120,1,210.000008010865
352,280,233616,1,0,0:0:0:0:
176,240,233796,2,0,B|120:168|120:112|240:104,1,210.000008010865
312,272,234335,2,8,P|200:304|168:320,1,105.000004005432
488,240,234927,5,8,0:0:0:0:
435,234,235017,1,8,0:0:0:0:
384,224,235106,1,8,0:0:0:0:
333,209,235196,1,8,0:0:0:0:
284,191,235286,1,8,0:0:0:0:
237,168,235376,1,8,0:0:0:0:
192,142,235465,1,8,0:0:0:0:
48,32,235824,1,4,0:0:0:0:
400,96,236184,5,2,0:0:0:0:
296,160,236363,1,2,0:0:0:0:
192,224,236543,1,2,0:0:0:0:
304,272,236723,1,2,0:0:0:0:
200,328,236902,2,0,P|128:280|72:168,1,210.000008010865
312,128,237621,1,0,0:0:0:0:
80,168,237980,2,0,P|176:184|224:288,1,210.000008010865
208,104,238699,2,0,P|296:144|288:264,2,210.000008010865
440,160,239776,5,0,0:0:0:0:
208,208,240136,1,0,0:0:0:0:
40,40,240495,5,0,0:0:0:0:
152,80,240675,1,0,0:0:0:0:
264,112,240854,2,0,P|352:144|384:256,1,210.000008010865
136,240,241573,1,0,0:0:0:0:
304,72,241932,2,2,P|352:144|336:272,1,210.000008010865
232,208,242471,2,0,P|192:200|120:56,1,210.000008010865
296,88,243010,1,0,0:0:0:0:
368,264,243369,1,0,0:0:0:0:
64,72,243729,6,2,B|176:88|168:40|232:64|192:176,2,210.000008010865
224,216,244627,2,0,B|288:216|320:256|144:264|96:208,1,210.000008010865
136,48,245166,1,8,0:0:0:0:
312,80,245345,2,0,B|352:184|328:192|288:216|208:240,1,210.000008010865
128,88,245884,2,2,P|184:80|224:128,1,105.000004005432
448,112,246244,2,2,B|360:120|352:152|328:176,1,105.000004005432
240,288,246603,2,2,L|344:344,1,105.000004005432
176,248,246962,1,0,0:0:0:0:
128,112,247321,6,2,P|256:96|336:176,2,210.000008010865
480,192,248399,1,0,0:0:0:0:
312,128,248579,1,0,0:0:0:0:
128,120,248758,1,0,0:0:0:0:
160,208,249118,2,2,B|224:208|304:224|344:296,1,210.000008010865,0|0,0:0|0:0,0:0:0:0:
248,144,249657,5,0,0:0:0:0:
64,64,249836,1,0,0:0:0:0:
184,200,250016,1,0,0:0:0:0:
416,136,250196,1,0,0:0:0:0:
80,248,250555,2,2,B|144:176|176:192|176:256|176:304|272:320,1,238.00000453949
192,120,251094,5,0,0:0:0:0:
408,64,251273,1,0,0:0:0:0:
280,248,251453,1,0,0:0:0:0:
72,168,251633,1,0,0:0:0:0:
496,280,251992,2,2,B|432:208|384:160|256:208,1,265.999992897034
104,48,252531,5,0,0:0:0:0:
328,64,252711,1,0,0:0:0:0:
328,288,252890,1,0,0:0:0:0:
128,184,253070,1,0,0:0:0:0:
192,144,253429,2,2,P|288:160|488:136,1,280,0|0,0:0|0:0,0:0:0:0:
128,48,254148,5,0,0:0:0:0:
133,100,254237,1,0,0:0:0:0:
145,151,254327,1,0,0:0:0:0:
186,173,254417,1,0,0:0:0:0:
234,152,254507,1,0,0:0:0:0:
284,135,254597,1,0,0:0:0:0:
336,131,254686,1,0,0:0:0:0:
385,148,254776,1,0,0:0:0:0:
417,188,254866,1,0,0:0:0:0:
409,238,254956,1,0,0:0:0:0:
367,269,255046,1,0,0:0:0:0:
318,287,255136,1,0,0:0:0:0:
267,298,255225,1,0,0:0:0:0:
215,307,255315,1,0,0:0:0:0:
163,315,255405,1,0,0:0:0:0:
111,321,255495,1,0,0:0:0:0:
56,328,255585,1,0,0:0:0:0:
32,280,255675,5,2,0:0:0:0:
27,225,255764,1,2,0:0:0:0:
26,170,255854,1,2,0:0:0:0:
35,115,255944,1,2,0:0:0:0:
52,63,256034,1,2,0:0:0:0:
72,11,256124,1,2,0:0:0:0:
123,3,256213,1,2,0:0:0:0:
177,17,256303,1,2,0:0:0:0:
228,37,256393,1,2,0:0:0:0:
278,60,256483,1,2,0:0:0:0:
325,88,256573,1,2,0:0:0:0:
370,121,256663,1,2,0:0:0:0:
408,160,256752,1,2,0:0:0:0:
432,208,256842,1,2,0:0:0:0:
424,264,256932,5,10,0:0:0:0:
370,282,257021,1,10,0:0:0:0:
313,273,257111,1,10,0:0:0:0:
260,252,257201,1,10,0:0:0:0:
209,225,257291,1,10,0:0:0:0:
161,193,257381,1,10,0:0:0:0:
115,158,257470,1,10,0:0:0:0:
72,119,257560,1,10,0:0:0:0:
33,77,257650,1,10,0:0:0:0:
0,32,257741,1,10,0:0:0:0:
0,152,257920,5,2,0:0:0:0:
136,40,258100,1,2,0:0:0:0:
96,216,258279,1,2,0:0:0:0:
232,104,258459,1,2,0:0:0:0:
208,280,258639,1,2,0:0:0:0:
336,160,258818,1,2,0:0:0:0:
328,336,258998,1,10,0:0:0:0:
448,200,259178,1,10,0:0:0:0:
368,40,259357,1,10,0:0:0:0:
224,160,259537,1,0,0:0:0:0:
48,336,259896,5,0,0:0:0:0:
88,302,259985,1,0,0:0:0:0:
134,277,260075,1,0,0:0:0:0:
183,260,260165,1,0,0:0:0:0:
235,253,260255,1,0,0:0:0:0:
288,255,260345,1,0,0:0:0:0:
339,267,260434,1,0,0:0:0:0:
387,288,260524,1,0,0:0:0:0:
432,256,260615,5,2,0:0:0:0:
419,205,260704,1,2,0:0:0:0:
388,163,260794,1,2,0:0:0:0:
345,132,260884,1,2,0:0:0:0:
297,110,260974,1,2,0:0:0:0:
248,94,261064,1,2,0:0:0:0:
192,80,261153,1,2,0:0:0:0:
128,64,261243,1,2,0:0:0:0:
64,56,261333,1,2,0:0:0:0:
8,136,261513,5,8,0:0:0:0:
23,186,261602,1,8,0:0:0:0:
41,235,261692,1,8,0:0:0:0:
65,282,261782,1,8,0:0:0:0:
97,323,261872,1,8,0:0:0:0:
137,356,261962,1,8,0:0:0:0:
184,328,262052,5,2,0:0:0:0:
232,304,262141,1,2,0:0:0:0:
272,272,262231,1,2,0:0:0:0:
312,232,262321,1,2,0:0:0:0:
344,192,262411,1,2,0:0:0:0:
376,152,262501,1,2,0:0:0:0:
416,112,262590,1,2,0:0:0:0:
456,64,262680,1,2,0:0:0:0:
496,16,262770,1,2,0:0:0:0:
384,40,262950,5,10,0:0:0:0:
409,85,263039,1,10,0:0:0:0:
427,134,263129,1,10,0:0:0:0:
438,186,263219,1,10,0:0:0:0:
441,238,263309,1,10,0:0:0:0:
435,290,263399,1,10,0:0:0:0:
392,320,263489,5,2,0:0:0:0:
342,336,263578,1,2,0:0:0:0:
290,345,263668,1,2,0:0:0:0:
238,345,263758,1,2,0:0:0:0:
186,337,263848,1,2,0:0:0:0:
136,312,263938,1,2,0:0:0:0:
96,256,264027,1,2,0:0:0:0:
80,176,264117,1,2,0:0:0:0:
88,88,264207,1,2,0:0:0:0:
264,64,264387,5,10,0:0:0:0:
416,160,264567,1,10,0:0:0:0:
256,296,264746,1,10,0:0:0:0:
80,184,264926,1,10,0:0:0:0:
240,48,265106,1,10,0:0:0:0:
424,144,265285,5,2,0:0:0:0:
415,195,265374,1,2,0:0:0:0:
389,241,265464,1,2,0:0:0:0:
348,273,265554,1,2,0:0:0:0:
300,294,265644,1,2,0:0:0:0:
249,304,265734,1,2,0:0:0:0:
196,304,265823,1,2,0:0:0:0:
146,289,265913,1,2,0:0:0:0:
105,258,266003,1,2,0:0:0:0:
78,213,266093,1,2,0:0:0:0:
64,162,266183,1,2,0:0:0:0:
60,110,266273,1,2,0:0:0:0:
63,58,266362,1,10,0:0:0:0:
88,16,266453,5,10,0:0:0:0:
140,9,266542,1,10,0:0:0:0:
192,10,266632,1,10,0:0:0:0:
244,16,266722,1,10,0:0:0:0:
295,28,266812,1,10,0:0:0:0:
344,47,266902,1,10,0:0:0:0:
389,75,266991,1,10,0:0:0:0:
425,112,267081,1,10,0:0:0:0:
447,160,267171,1,10,0:0:0:0:
451,212,267261,1,10,0:0:0:0:
439,263,267351,1,10,0:0:0:0:
400,296,267441,5,2,0:0:0:0:
348,305,267530,1,2,0:0:0:0:
296,311,267620,1,2,0:0:0:0:
243,316,267710,1,2,0:0:0:0:
191,319,267800,1,2,0:0:0:0:
136,312,267890,1,2,0:0:0:0:
100,273,267979,1,2,0:0:0:0:
74,227,268069,1,2,0:0:0:0:
55,178,268159,1,2,0:0:0:0:
56,128,268249,1,2,0:0:0:0:
96,95,268338,1,2,0:0:0:0:
144,72,268428,1,2,0:0:0:0:
194,59,268518,1,2,0:0:0:0:
424,64,268878,5,0,0:0:0:0:
352,160,269058,1,8,0:0:0:0:
304,192,269148,1,8,0:0:0:0:
248,216,269238,1,8,0:0:0:0:
192,224,269327,1,8,0:0:0:0:
360,280,269597,1,0,0:0:0:0:
248,312,269776,1,8,0:0:0:0:
192,320,269866,1,8,0:0:0:0:
136,312,269956,1,8,0:0:0:0:
80,296,270046,1,8,0:0:0:0:
96,120,270315,5,0,0:0:0:0:
328,96,270675,2,2,B|264:104|240:184|136:200,1,210.000008010865
376,232,271393,1,0,0:0:0:0:
88,280,271752,6,0,L|128:72,1,210.000008010865
232,64,272291,1,0,0:0:0:0:
336,64,272471,2,0,L|392:280,1,210.000008010865
288,280,273010,1,0,0:0:0:0:
184,272,273190,2,0,L|224:48,1,210.000008010865
40,56,273729,1,0,0:0:0:0:
216,56,273908,2,0,L|272:296,1,210.000008010865
344,104,274447,1,0,0:0:0:0:
504,32,274627,2,0,L|384:240,1,210.000008010865
224,200,275166,1,0,0:0:0:0:
120,56,275345,2,0,L|344:176,1,210.000008010865
144,224,275884,5,0,0:0:0:0:
104,48,276064,2,0,L|328:96,1,210.000008010865
77,323,276782,1,0,0:0:0:0:
248,208,276962,1,0,0:0:0:0:
32,56,277142,5,0,0:0:0:0:
240,56,277321,1,0,0:0:0:0:
392,56,277501,2,0,B|416:168|400:216|352:296,1,210.000008010865
176,328,278040,1,0,0:0:0:0:
72,64,278220,1,0,0:0:0:0:
280,96,278399,1,0,0:0:0:0:
328,312,278579,2,0,B|184:248|152:224|192:192|224:176,1,210.000008010865
392,96,279118,1,0,0:0:0:0:
168,56,279297,1,0,0:0:0:0:
256,248,279477,1,0,0:0:0:0:
152,240,279657,2,0,P|248:136|264:72,1,210.000008010865
88,184,280196,1,0,0:0:0:0:
272,256,280375,1,0,0:0:0:0:
200,56,280555,1,0,0:0:0:0:
376,216,280735,2,0,B|376:344|328:352|224:328,1,210.000008010865
88,208,281273,1,0,0:0:0:0:
56,40,281453,1,0,0:0:0:0:
264,64,281633,1,0,0:0:0:0:
296,304,281812,6,0,B|176:256|96:272|64:272,1,210.000008010865
408,96,282531,1,0,0:0:0:0:
72,216,282890,2,2,P|232:224|272:272,1,210.000008010865
400,136,283609,1,0,0:0:0:0:
56,216,283968,1,0,0:0:0:0:
456,112,284327,6,2,B|432:64|416:72|400:112|392:136|384:168|384:192|392:240,1,210.000008010865
40,304,285046,1,0,0:0:0:0:
384,200,285405,1,0,0:0:0:0:
72,104,285764,2,2,B|160:144|160:200|120:256|80:272,1,210.000008010865
440,168,286483,1,0,0:0:0:0:
88,224,286842,1,0,0:0:0:0:
416,80,287202,2,2,B|416:160|416:208|400:256|368:280|424:288,1,210.000008010865
304,96,287741,1,0,0:0:0:0:
48,40,287920,1,2,0:0:0:0:
96,248,288100,1,0,0:0:0:0:
440,312,288279,2,2,P|400:248|264:248,1,210.000008010865
