osu file format v14

[General]
AudioFilename: audio.mp3
AudioLeadIn: 0
PreviewTime: -1
Countdown: 0
SampleSet: None
StackLeniency: 0.8
Mode: 0
LetterboxInBreaks: 0
WidescreenStoryboard: 0

[Editor]
DistanceSpacing: 0.8
BeatDivisor: 4
GridSize: 32
TimelineZoom: 1

[Metadata]
Title:Tokyo Ghoul:re OP 2 - Katharsis
TitleUnicode:Tokyo Ghoul:re OP 2 - Katharsis
Artist:TK
ArtistUnicode:TK
Creator:King_29
Version:Owl
Source:Tokyo Ghoul:re Season 2
Tags:Tokyo Ghoul re Re season 2 TK Ling Tosite Sigure katharsis anime tv
BeatmapID:1804614
BeatmapSetID:862727

[Difficulty]
HPDrainRate:6.5
CircleSize:4.5
OverallDifficulty:6
ApproachRate:9.5
SliderMultiplier:1.39999990463257
SliderTickRate:1

[Events]
//Background and Video events
0,0,"tg.jpg",0,0
//Break Periods
2,76019,78134
//Storyboard Layer 0 (Background)
//Storyboard Layer 1 (Fail)
//Storyboard Layer 2 (Pass)
//Storyboard Layer 3 (Foreground)
//Storyboard Sound Samples

[TimingPoints]
225.265255901708,416.494423276041,4,1,0,100,1,0
35000,-45.4545454545455,4,1,0,100,0,0

[HitObjects]
91,251,225,6,0,B|127:149|191:242|171:143|167:103|166:69|339:173|342:23|342:10,1,349.999976158142
423,172,1891,1,0,0:0:0:0:
307,49,3557,2,0,B|387:145|254:102|381:206|271:123|381:234|234:231|357:324|159:259|293:164|279:122,1,349.999976158142
160,256,5223,5,0,0:0:0:0:
430,277,6264,1,0,0:0:0:0:
320,128,7097,5,0,0:0:0:0:
160,224,7305,1,0,0:0:0:0:
352,192,7513,1,0,0:0:0:0:
192,64,7722,5,0,0:0:0:0:
320,256,7930,1,0,0:0:0:0:
384,96,8138,1,0,0:0:0:0:
224,256,8346,1,0,0:0:0:0:
162,101,8763,2,0,B|244:101|200:152|321:147,1,139.999990463257
32,32,10429,5,0,0:0:0:0:
160,192,10637,1,0,0:0:0:0:
186,31,10845,5,0,0:0:0:0:
80,148,11054,1,0,0:0:0:0:
266,128,11262,1,0,0:0:0:0:
108,74,11470,1,0,0:0:0:0:
189,246,11678,1,0,0:0:0:0:
359,119,11887,1,0,0:0:0:0:
336,30,12199,1,0,0:0:0:0:
216,153,12545,1,0,0:0:0:0:
96,96,13761,5,0,0:0:0:0:
264,95,13969,2,0,B|262:152|197:91|214:194,1,104.999992847443
224,256,14386,1,0,0:0:0:0:
224,256,14594,1,0,0:0:0:0:
224,256,14802,1,0,0:0:0:0:
416,320,15010,2,0,B|448:160|352:224|480:192|384:96|512:160|352:128|352:64|448:96|480:96,1,279.999980926514
160,224,17093,5,0,0:0:0:0:
320,64,17301,1,0,0:0:0:0:
224,288,17509,1,0,0:0:0:0:
256,32,17718,1,0,0:0:0:0:
288,224,17926,1,0,0:0:0:0:
160,96,18134,1,0,0:0:0:0:
96,256,18342,6,0,B|160:128|192:224|256:96|224:96,1,209.999985694885
128,288,20216,5,8,0:0:0:0:
192,64,20425,1,8,0:0:0:0:
320,320,20633,1,8,0:0:0:0:
160,128,20841,1,8,0:0:0:0:
383,185,21258,1,0,0:0:0:0:
64,288,21674,1,8,0:0:0:0:
160,160,23132,5,0,0:0:0:0:
281,70,23340,2,0,B|370:80|378:178|378:178|380:179,1,139.999990463257
114,311,24173,1,0,0:0:0:0:
146,113,24590,1,0,0:0:0:0:
352,96,25006,1,0,0:0:0:0:
224,320,25214,1,0,0:0:0:0:
384,192,25423,1,0,0:0:0:0:
256,192,26464,12,0,28546,0:0:0:0:
196,249,29588,5,0,0:0:0:0:
242,95,29796,1,0,0:0:0:0:
283,251,30004,1,0,0:0:0:0:
233,201,30212,2,0,L|304:273,1,69.9999952316285
468,238,30629,1,0,0:0:0:0:
350,51,30837,5,0,0:0:0:0:
151,212,31045,1,0,0:0:0:0:
160,352,31462,5,0,0:0:0:0:
0,256,31670,1,0,0:0:0:0:
384,160,32087,1,0,0:0:0:0:
128,128,32711,5,0,0:0:0:0:
128,128,32808,1,0,0:0:0:0:
191,198,32920,2,0,B|181:146|260:130|355:133,1,174.999988079071
288,64,33544,5,0,0:0:0:0:
256,288,33857,1,0,0:0:0:0:
128,64,34169,1,0,0:0:0:0:
384,160,34377,1,0,0:0:0:0:
96,256,34695,1,0,0:0:0:0:
384,320,35114,2,0,B|192:288|640:96|0:384|128:256|704:64|288:160|-64:224|224:224|288:128|288:128,1,359.999990463257
192,64,35835,5,0,0:0:0:0:
96,192,36043,2,0,B|160:128|160:160|-32:32|32:64|88:98|282:181|387:136|64:64|64:64|160:32|96:64,1,461.999982627869
128,32,36876,5,0,0:0:0:0:
224,256,37193,1,0,0:0:0:0:
320,128,37501,5,0,0:0:0:0:
256,320,37709,2,0,B|416:320|0:128|288:192|448:384|256:192|480:224|352:192|291:172|32:96|352:96|406:130|544:224|416:224|384:96|384:64|224:128,1,461.999982627869
224,64,38542,5,0,0:0:0:0:
64,352,38858,1,0,0:0:0:0:
416,128,39167,1,0,0:0:0:0:
288,288,39375,1,0,0:0:0:0:
448,352,39583,6,0,B|192:288|448:192|448:64|320:96|224:128|320:96,1,307.999988418579
288,192,40208,1,0,0:0:0:0:
152,51,40507,5,0,0:0:0:0:
254,314,40833,1,0,0:0:0:0:
97,288,41041,5,0,0:0:0:0:
338,73,41346,1,0,0:0:0:0:
224,288,41666,1,0,0:0:0:0:
160,32,41874,1,0,0:0:0:0:
83,124,42082,1,0,0:0:0:0:
110,127,42182,1,0,0:0:0:0:
140,134,42291,1,0,0:0:0:0:
232,83,42499,1,0,0:0:0:0:
156,238,42707,5,0,0:0:0:0:
186,231,42806,1,0,0:0:0:0:
224,229,42915,1,0,0:0:0:0:
256,240,43027,1,0,0:0:0:0:
279,260,43124,1,0,0:0:0:0:
285,297,43234,1,0,0:0:0:0:
317,309,43332,1,0,0:0:0:0:
121,82,43540,6,0,B|92:182|64:269|152:269|152:269|136:217|136:217,1,153.99999420929
102,240,43848,1,0,0:0:0:0:
320,64,44165,5,0,0:0:0:0:
224,288,44373,1,0,0:0:0:0:
416,32,44686,1,0,0:0:0:0:
416,352,44998,1,0,0:0:0:0:
128,352,45206,6,0,B|352:256|32:256|64:256|320:256|320:224|352:224|288:192|256:192|224:192|192:192|192:192|160:192|160:192|128:224|96:224|96:224,1,461.999982627869
352,64,46039,2,0,P|416:128|352:256,1,153.99999420929
160,256,47080,1,0,0:0:0:0:
256,64,47289,2,0,P|332:55|379:113,1,153.99999420929
428,317,47705,1,0,0:0:0:0:
274,206,47913,1,0,0:0:0:0:
421,142,48122,1,0,0:0:0:0:
329,69,48330,6,0,B|204:240|191:192|154:232|99:307|99:307|89:308,1,307.999988418579
26,35,49163,1,0,0:0:0:0:
124,132,50412,5,0,0:0:0:0:
239,62,50621,1,0,0:0:0:0:
145,305,50829,1,0,0:0:0:0:
437,295,51037,5,0,0:0:0:0:
167,150,51245,1,0,0:0:0:0:
389,155,51454,1,0,0:0:0:0:
233,260,51662,1,0,0:0:0:0:
166,204,53744,6,0,P|210:295|274:310,1,153.99999420929
442,86,54161,1,0,0:0:0:0:
166,50,54369,2,0,L|24:174,1,153.99999420929
418,317,54786,1,0,0:0:0:0:
164,119,54994,1,0,0:0:0:0:
320,260,55410,2,0,B|179:327|116:199|-29:303,1,307.999988418579
107,166,57076,5,0,0:0:0:0:
296,113,57285,1,0,0:0:0:0:
257,224,57493,1,0,0:0:0:0:
296,113,57597,1,0,0:0:0:0:
105,285,57909,5,0,0:0:0:0:
446,329,58326,2,0,B|476:205|325:190|325:233|437:64|240:62,1,307.999988418579
121,104,59367,5,0,0:0:0:0:
370,159,59575,1,0,0:0:0:0:
122,217,59783,1,0,0:0:0:0:
372,115,59992,1,0,0:0:0:0:
63,88,60200,5,0,0:0:0:0:
64,94,60408,6,0,L|64:202,1,76.9999971046448
243,314,60883,1,0,0:0:0:0:
352,61,61295,1,0,0:0:0:0:
213,145,61714,1,0,0:0:0:0:
111,275,62907,5,0,0:0:0:0:
336,76,63115,1,0,0:0:0:0:
236,348,63324,1,0,0:0:0:0:
121,120,63532,5,0,0:0:0:0:
183,74,63740,2,0,L|93:140,1,76.9999971046448
400,87,64157,1,0,0:0:0:0:
185,304,64573,1,0,0:0:0:0:
266,111,64990,1,0,0:0:0:0:
135,248,65614,5,0,0:0:0:0:
135,248,65719,2,0,L|246:301,1,76.9999971046448
271,139,66031,1,0,0:0:0:0:
127,165,66239,1,0,0:0:0:0:
317,150,66343,1,0,0:0:0:0:
136,51,66552,1,0,0:0:0:0:
311,64,66656,1,0,0:0:0:0:
135,301,67072,6,0,P|176:322|281:307,1,153.99999420929,0|0,2:2|2:2,2:2:0:0:
296,267,67697,1,0,2:2:0:0:
332,46,67905,1,0,2:2:0:0:
220,172,68113,1,0,2:2:0:0:
435,72,68322,1,0,2:2:0:0:
65,104,68530,5,0,0:0:0:0:
176,284,68842,2,0,P|302:261|383:180,1,230.999991313934
147,73,70404,5,0,0:0:0:0:
398,143,70612,1,0,0:0:0:0:
281,243,70821,2,0,L|427:117,1,153.99999420929
174,284,71654,5,0,0:0:0:0:
241,110,71862,1,0,0:0:0:0:
313,202,72174,2,0,B|388:95|309:9|247:-18,1,230.999991313934
92,59,73528,5,0,0:0:0:0:
207,239,73736,1,0,0:0:0:0:
252,152,73944,2,0,P|251:70|188:113,1,153.99999420929
91,290,74361,1,0,0:0:0:0:
335,334,74569,1,0,0:0:0:0:
286,54,74777,1,0,0:0:0:0:
107,227,74986,5,0,0:0:0:0:
294,212,75402,1,0,0:0:0:0:
198,49,75819,1,0,0:0:0:0:
199,145,78734,5,0,0:0:0:0:
199,145,78834,1,0,0:0:0:0:
199,145,78942,1,0,0:0:0:0:
199,145,79042,1,0,0:0:0:0:
199,145,79150,1,0,0:0:0:0:
471,24,79567,5,0,0:0:0:0:
162,329,79775,1,0,0:0:0:0:
114,38,79983,5,0,0:0:0:0:
298,182,80192,1,0,0:0:0:0:
239,44,80400,1,0,0:0:0:0:
239,44,80511,1,0,0:0:0:0:
239,44,80608,1,0,0:0:0:0:
169,314,80816,5,0,0:0:0:0:
409,46,81025,1,0,0:0:0:0:
367,344,81329,1,0,0:0:0:0:
155,67,81700,1,0,0:0:0:0:
320,192,82066,2,0,B|427:137|608:320|512:320,1,307.999988418579
0,0,82899,5,0,0:0:0:0:
224,192,83107,1,0,0:0:0:0:
480,0,83315,5,0,0:0:0:0:
192,352,83524,1,0,0:0:0:0:
128,32,83836,1,0,0:0:0:0:
384,288,84148,1,0,0:0:0:0:
320,0,84357,5,0,0:0:0:0:
96,320,84671,1,0,0:0:0:0:
416,64,84981,1,0,0:0:0:0:
32,96,85190,1,0,0:0:0:0:
352,352,85606,5,0,0:0:0:0:
224,64,86023,1,0,0:0:0:0:
32,384,86439,1,0,0:0:0:0:
288,96,86856,1,0,0:0:0:0:
128,256,87272,2,0,B|32:96|96:160|96:128,1,153.99999420929
288,192,87689,2,0,B|192:352|224:320|224:352,1,153.99999420929
192,96,88105,5,0,0:0:0:0:
86,231,88313,1,0,0:0:0:0:
32,160,88522,2,0,P|64:320|96:320,1,153.99999420929
160,320,88938,5,0,0:0:0:0:
288,256,89146,1,0,0:0:0:0:
384,320,89355,1,0,0:0:0:0:
480,256,89563,1,0,0:0:0:0:
192,32,89771,5,0,0:0:0:0:
352,288,89979,1,0,0:0:0:0:
320,32,90188,1,0,0:0:0:0:
288,288,90396,1,0,0:0:0:0:
448,64,90604,1,0,0:0:0:0:
192,256,90812,1,0,0:0:0:0:
256,128,91021,6,0,P|160:128|32:256,1,153.99999420929
416,64,91437,1,0,0:0:0:0:
288,288,91645,1,0,0:0:0:0:
64,64,91854,1,0,0:0:0:0:
160,224,92062,5,0,0:0:0:0:
192,192,92161,1,0,0:0:0:0:
224,192,92270,1,0,0:0:0:0:
352,160,92478,5,0,0:0:0:0:
352,128,92574,1,0,0:0:0:0:
320,96,92687,1,0,0:0:0:0:
192,96,92895,5,0,0:0:0:0:
146,94,92990,1,0,0:0:0:0:
116,125,93103,1,0,0:0:0:0:
64,320,93311,5,0,0:0:0:0:
256,224,93520,1,0,0:0:0:0:
192,320,93841,1,0,0:0:0:0:
192,320,93936,1,0,0:0:0:0:
64,96,94144,5,0,0:0:0:0:
192,32,94353,1,0,0:0:0:0:
352,256,94769,1,0,0:0:0:0:
64,128,94977,1,0,0:0:0:0:
401,190,95394,2,0,P|305:190|305:318,1,153.99999420929
36,88,96227,6,0,P|163:210|163:213,1,153.99999420929
178,251,96643,2,0,B|80:232|54:159|54:159|48:164|42:165,1,153.99999420929
375,91,97164,1,0,0:0:0:0:
192,352,97476,1,0,0:0:0:0:
32,64,97684,5,0,0:0:0:0:
256,352,97992,1,0,0:0:0:0:
448,96,98309,1,0,0:0:0:0:
352,256,98517,1,0,0:0:0:0:
448,96,98726,1,0,0:0:0:0:
256,192,98934,1,0,0:0:0:0:
448,96,99142,1,0,0:0:0:0:
416,224,99350,1,0,0:0:0:0:
184,137,99767,5,0,0:0:0:0:
64,320,99975,2,0,L|224:192,1,153.99999420929
251,76,100392,5,0,0:0:0:0:
250,199,100600,1,0,0:0:0:0:
310,41,100808,1,0,0:0:0:0:
183,264,101016,1,0,0:0:0:0:
385,82,101225,1,0,0:0:0:0:
95,221,101433,1,0,0:0:0:0:
448,161,101641,1,0,0:0:0:0:
45,159,101849,1,0,0:0:0:0:
384,160,102058,1,0,0:0:0:0:
96,160,102266,1,0,0:0:0:0:
320,160,102474,1,0,0:0:0:0:
160,160,102682,1,0,0:0:0:0:
416,32,103099,5,0,0:0:0:0:
416,320,103515,1,0,0:0:0:0:
64,32,103932,2,0,L|192:160,3,153.99999420929
153,211,104765,2,0,B|271:232|239:104|239:104|271:72,1,153.99999420929
416,32,105181,5,0,0:0:0:0:
256,320,105482,1,0,0:0:0:0:
64,96,105806,2,0,B|160:64|160:64|192:160|192:160|256:64|256:64|320:96|320:96|288:160|288:160|341:170|384:96|384:96|416:192|448:192,1,615.999976837158
64,320,106847,5,0,0:0:0:0:
384,32,107156,1,0,0:0:0:0:
288,288,107472,1,0,0:0:0:0:
64,64,108513,5,0,0:0:0:0:
224,352,108822,1,0,0:0:0:0:
320,32,109138,1,0,0:0:0:0:
64,64,110179,5,0,0:0:0:0:
384,160,110596,2,0,B|352:96|288:160|288:64|235:63|192:224|160:32|160:32|0:256|0:128|0:128|64:64,1,615.999976837158
32,288,111845,1,0,0:0:0:0:
224,96,112153,1,0,0:0:0:0:
334,327,112470,1,0,0:0:0:0:
147,197,112787,2,0,L|364:155,1,153.99999420929
149,232,113303,5,0,0:0:0:0:
350,232,113511,1,0,0:0:0:0:
120,153,113615,1,0,0:0:0:0:
359,152,113719,1,0,0:0:0:0:
127,204,113824,1,0,0:0:0:0:
353,160,113928,1,0,0:0:0:0:
124,141,114032,1,0,0:0:0:0:
351,194,114136,1,0,0:0:0:0:
133,172,114240,1,0,0:0:0:0:
357,132,114344,1,0,0:0:0:0:
196,187,114657,5,0,0:0:0:0:
256,230,114969,1,0,0:0:0:0:
384,145,115073,1,0,0:0:0:0:
223,155,115177,1,0,0:0:0:0:
362,214,115281,1,0,0:0:0:0:
305,84,115385,1,0,0:0:0:0:
227,201,115490,1,0,0:0:0:0:
387,157,115594,1,0,0:0:0:0:
229,113,115698,1,0,0:0:0:0:
345,211,115802,1,0,0:0:0:0:
84,146,116843,5,0,0:0:0:0:
272,148,116947,1,0,0:0:0:0:
84,189,117051,1,0,0:0:0:0:
272,188,117156,1,0,0:0:0:0:
84,146,117260,1,0,0:0:0:0:
272,148,117364,1,0,0:0:0:0:
84,189,117468,1,0,0:0:0:0:
272,188,117572,1,0,0:0:0:0:
84,146,117676,1,0,0:0:0:0:
111,207,118093,5,0,0:0:0:0:
398,276,118301,1,0,0:0:0:0:
131,229,118509,2,0,P|293:241|335:175,1,153.99999420929
347,193,118926,2,0,P|267:161|147:233,1,153.99999420929
106,323,119342,2,0,B|257:359|223:245|317:347|217:155|416:384|102:-10|-12:19|-104:68|4:267|389:373|523:195|201:3|30:-4|14:36|129:155|225:160|317:173|302:134|237:55|64:43|64:61|171:95|209:90|220:80|234:65|212:66|211:42|219:30|229:9|231:7|232:5|238:0|241:-2|262:-16|265:-18|272:-26|272:-26|272:-21,1,461.999982627869
78,111,120175,5,0,0:0:0:0:
96,141,120279,1,0,0:0:0:0:
136,167,120383,1,0,0:0:0:0:
175,177,120488,1,0,0:0:0:0:
216,173,120592,1,0,0:0:0:0:
254,155,120696,1,0,0:0:0:0:
291,136,120800,1,0,0:0:0:0:
329,140,120904,1,0,0:0:0:0:
360,158,121008,1,0,0:0:0:0:
376,187,121112,1,0,0:0:0:0:
181,291,121425,1,0,0:0:0:0:
65,69,121737,5,0,0:0:0:0:
96,142,121841,1,0,0:0:0:0:
177,193,121945,1,0,0:0:0:0:
287,203,122049,1,0,0:0:0:0:
388,187,122154,1,0,0:0:0:0:
434,97,122258,1,0,0:0:0:0:
373,29,122362,1,0,0:0:0:0:
282,65,122466,1,0,0:0:0:0:
240,148,122570,1,0,0:0:0:0:
96,96,122882,2,0,B|104:219|153:14|202:16|320:96|289:70|64:160|253:188,1,307.999988418579
110,328,123507,5,0,0:0:0:0:
190,327,123611,1,0,0:0:0:0:
277,293,123715,1,0,0:0:0:0:
330,227,123819,1,0,0:0:0:0:
326,149,123924,1,0,0:0:0:0:
273,92,124028,1,0,0:0:0:0:
200,73,124132,1,0,0:0:0:0:
137,84,124236,1,0,0:0:0:0:
96,117,124340,1,0,0:0:0:0:
83,151,124444,1,0,0:0:0:0:
134,256,124757,6,0,B|79:133|231:210|334:274|-22:-46|277:100|242:136,1,153.99999420929
355,89,125173,1,0,0:0:0:0:
98,333,125381,1,0,0:0:0:0:
48,212,125590,2,0,B|123:140|271:183|271:183|245:154|245:154|184:142|197:147,1,307.999988418579
432,40,126214,2,0,B|470:158|99:27|623:290|117:194|181:275,1,307.999988418579
210,66,126926,2,0,B|178:20|159:19|143:0|34:56,1,153.99999420929
142,93,127256,5,0,0:0:0:0:
142,93,127293,1,0,0:0:0:0:
171,192,127464,1,0,0:0:0:0:
171,192,127520,1,0,0:0:0:0:
300,96,127781,1,0,0:0:0:0:
300,96,127838,1,0,0:0:0:0:
117,278,128089,1,0,0:0:0:0:
126,278,128164,1,0,0:0:0:0:
299,185,128400,1,0,0:0:0:0:
299,191,128455,1,0,0:0:0:0:
