osu file format v14

[General]
AudioFilename: audio.mp3
AudioLeadIn: 0
PreviewTime: 68597
Countdown: 0
SampleSet: Soft
StackLeniency: 0.7
Mode: 0
LetterboxInBreaks: 0
WidescreenStoryboard: 0

[Editor]
Bookmarks: 71172
DistanceSpacing: 1
BeatDivisor: 4
GridSize: 32
TimelineZoom: 2.4

[Metadata]
Title:Kamui
TitleUnicode:神威
Artist:TJ.hangneil
ArtistUnicode:TJ.hangneil
Creator:Cellina
Version:SHD
Source:Ez2Dj 7th TraX Class R Codename : Violet
Tags:video game sasakure.uk electronic instrumental ez2ac ez2on reboot:r chunithm air plus super star world's end ongeki オンゲキ groove coaster sabin sound star beomsan deviouspanda _epreus molang luscent dailycare atipir
BeatmapID:4178730
BeatmapSetID:2008761

[Difficulty]
HPDrainRate:5
CircleSize:4
OverallDifficulty:8.8
ApproachRate:9.6
SliderMultiplier:1.8
SliderTickRate:1

[Events]
//Background and Video events
0,0,"maxresdefault_2.jpg",0,0
//Break Periods
2,66440,68088
//Storyboard Layer 0 (Background)
//Storyboard Layer 1 (Fail)
//Storyboard Layer 2 (Pass)
//Storyboard Layer 3 (Foreground)
//Storyboard Layer 4 (Overlay)
//Storyboard Sound Samples

[TimingPoints]
2312,285.714285714286,4,2,1,40,1,0
11454,-100,4,2,1,60,0,0
19454,-83.3333333333333,4,2,1,60,0,0
20597,-100,4,2,1,60,0,0
29740,-100,4,2,1,70,0,0
34026,-83.3333333333333,4,2,1,70,0,0
34312,-100,4,2,1,70,0,0
37740,-83.3333333333333,4,2,1,70,0,0
38883,-100,4,2,1,70,0,0
52312,-83.3333333333333,4,2,1,70,0,0
52597,-100,4,2,1,70,0,0
68597,-83.3333333333333,4,2,1,70,0,0
70883,-83.3333333333333,4,2,1,75,0,0
75169,-71.4285714285714,4,2,1,75,0,0
75454,-83.3333333333333,4,2,1,75,0,0
78883,-71.4285714285714,4,2,1,75,0,0
84597,-83.3333333333333,4,2,1,75,0,0
88454,-71.4285714285714,4,2,1,75,0,0
89169,-83.3333333333333,4,2,1,75,0,0
93454,-71.4285714285714,4,2,1,75,0,0
97169,-83.3333333333333,4,2,1,75,0,0
98026,-76.9230769230769,4,2,1,75,0,0
98883,-83.3333333333333,4,2,1,75,0,0
100597,-76.9230769230769,4,2,1,75,0,0
101026,-83.3333333333333,4,2,1,75,0,0
102883,-76.9230769230769,4,2,1,75,0,0
103312,-83.3333333333333,4,2,1,75,0,0
107454,-83.3333333333333,4,2,1,85,0,1
111740,-71.4285714285714,4,2,1,85,0,1
112026,-83.3333333333333,4,2,1,85,0,1
115454,-71.4285714285714,4,2,1,85,0,1
116597,-83.3333333333333,4,2,1,85,0,1
123169,-71.4285714285714,4,2,1,85,0,1
123454,-76.9230769230769,4,2,1,85,0,1
123883,-83.3333333333333,4,2,1,85,0,1
144026,-83.3333333333333,4,2,1,85,0,0

[Colours]
Combo1 : 245,150,150
Combo2 : 249,91,91
Combo3 : 255,219,125
Combo4 : 145,98,255

[HitObjects]
256,192,2312,5,2,0:0:0:0:
173,142,2597,5,0,0:0:0:0:
173,142,2740,1,2,0:0:0:0:
339,242,3026,5,2,0:0:0:0:
107,253,3312,5,2,0:0:0:0:
405,131,3597,5,2,0:0:0:0:
170,358,3883,5,2,0:0:0:0:
342,26,4169,5,2,0:0:0:0:
256,192,4597,5,2,0:0:0:0:
366,188,4883,5,0,0:0:0:0:
366,188,5026,1,2,0:0:0:0:
146,196,5312,5,2,0:0:0:0:
387,292,5597,5,2,0:0:0:0:
125,92,5883,5,2,0:0:0:0:
307,362,6169,5,2,0:0:0:0:
205,22,6454,5,2,0:0:0:0:
256,192,6883,5,2,0:0:0:0:
154,220,7169,5,0,0:0:0:0:
154,220,7312,1,2,0:0:0:0:
358,164,7597,5,2,0:0:0:0:
76,193,7883,5,2,0:0:0:0:
436,191,8169,5,2,0:0:0:0:
31,125,8454,5,2,0:0:0:0:
481,259,8740,5,2,0:0:0:0:
256,192,9169,5,2,0:0:0:0:
301,270,9454,5,0,0:0:0:0:
211,114,9597,1,2,0:0:0:0:
173,209,9883,5,2,0:0:0:0:
256,192,10026,1,0,0:0:0:0:
339,175,10169,1,2,0:0:0:0:
256,192,10312,12,0,11169,0:0:0:0:
109,38,11454,6,0,P|76:43|61:136,1,135,6|0,1:2|0:0,0:0:0:0:
49,138,11740,1,8,0:0:0:0:
167,347,11883,5,2,0:0:0:0:
167,347,11954,1,0,0:0:0:0:
167,347,12026,2,0,P|151:293|144:237,1,90,0|2,0:0|1:2,0:0:0:0:
70,318,12312,5,8,0:0:0:0:
223,220,12454,1,2,0:0:0:0:
223,220,12526,1,0,0:0:0:0:
223,220,12597,1,0,1:2:0:0:
129,158,12740,1,2,0:0:0:0:
263,351,12883,6,0,P|319:337|371:331,1,90,8|2,0:0|0:0,0:0:0:0:
350,332,13097,1,0,0:0:0:0:
350,332,13169,1,0,0:0:0:0:
329,115,13312,5,2,1:2:0:0:
480,225,13454,2,0,P|435:218|392:206,1,90,8|0,0:0|0:0,0:0:0:0:
366,28,13740,6,0,P|451:38|493:130,1,180,2|8,1:2|0:0,0:0:0:0:
321,128,14169,2,0,L|262:113,2,45,2|0|0,0:0|0:0|0:0,0:0:0:0:
382,198,14454,1,2,1:2:0:0:
259,372,14597,6,0,P|252:327|242:283,1,90,8|2,0:0|0:0,0:0:0:0:
242,283,14812,1,0,0:0:0:0:
242,283,14883,1,0,1:2:0:0:
163,106,15026,5,2,0:0:0:0:
16,294,15169,6,0,P|71:302|108:280,1,90,8|2,0:0|0:0,0:0:0:0:
108,298,15383,1,0,0:0:0:0:
120,299,15454,1,0,0:0:0:0:
107,265,15526,1,0,0:0:0:0:
112,229,15597,1,2,1:2:0:0:
135,201,15669,1,0,0:0:0:0:
166,188,15740,1,8,0:0:0:0:
145,26,15883,5,2,0:0:0:0:
145,26,15954,1,0,0:0:0:0:
145,26,16026,2,0,P|44:48|60:143,1,180,2|8,1:2|0:0,0:0:0:0:
255,234,16454,5,2,0:0:0:0:
255,234,16526,1,0,0:0:0:0:
255,234,16597,2,0,P|264:176|278:126,1,90,0|2,0:0|1:2,0:0:0:0:
135,111,16883,5,8,0:0:0:0:
329,60,17026,1,2,0:0:0:0:
329,60,17097,1,0,0:0:0:0:
329,60,17169,1,0,1:2:0:0:
224,3,17312,1,2,0:0:0:0:
450,172,17454,6,0,P|392:181|341:197,1,90,8|2,0:0|0:0,0:0:0:0:
361,189,17669,1,0,0:0:0:0:
361,189,17740,1,0,0:0:0:0:
188,332,17883,5,2,1:2:0:0:
257,373,18026,2,0,P|307:328|274:253,1,135,8|0,0:0|0:0,0:0:0:0:
284,271,18312,5,2,1:2:0:0:
30,221,18454,2,0,P|39:277|45:319,1,90,0|8,0:0|0:0,0:0:0:0:
177,166,18740,5,2,0:0:0:0:
177,166,18812,1,0,0:0:0:0:
177,166,18883,1,0,0:0:0:0:
128,278,19026,1,2,1:2:0:0:
103,83,19169,1,8,0:0:0:0:
262,180,19312,1,2,0:0:0:0:
32,137,19454,5,2,1:2:0:0:
32,137,19526,1,0,0:0:0:0:
32,137,19597,2,0,P|22:108|22:80,1,53.9999983520508,2|0,0:0|0:0,0:0:0:0:
169,0,19740,5,10,0:0:0:0:
169,0,19812,1,0,0:0:0:0:
169,0,19883,2,0,P|179:29|179:57,1,53.9999983520508,2|0,0:0|0:0,0:0:0:0:
158,205,20026,5,2,0:0:0:0:
155,220,20097,1,0,0:0:0:0:
152,236,20169,1,2,1:2:0:0:
149,251,20240,1,0,0:0:0:0:
128,278,20312,5,10,0:0:0:0:
131,293,20383,1,0,0:0:0:0:
134,309,20455,1,2,0:0:0:0:
137,324,20526,1,0,0:0:0:0:
161,355,20597,6,0,P|215:345|267:340,1,90,4|0,1:2|0:0,0:0:0:0:
316,162,20883,1,8,0:0:0:0:
442,249,21026,5,0,0:0:0:0:
442,249,21097,1,0,0:0:0:0:
442,249,21169,2,0,P|429:313|423:354,1,90,2|0,0:0|1:2,0:0:0:0:
224,185,21454,6,0,P|237:121|243:80,1,90,8|0,0:0|0:0,0:0:0:0:
240,96,21669,1,0,0:0:0:0:
240,96,21740,1,2,1:2:0:0:
477,124,21883,5,0,0:0:0:0:
477,124,21954,1,0,0:0:0:0:
477,124,22026,1,8,0:0:0:0:
354,242,22169,1,0,0:0:0:0:
318,46,22312,6,0,P|358:64|413:80,1,90,2|0,0:0|1:2,0:0:0:0:
239,279,22597,2,0,P|199:261|144:245,1,90,8|0,0:0|0:0,0:0:0:0:
109,40,22883,6,0,P|72:39|42:124,1,135,2|0,1:2|0:0,0:0:0:0:
35,135,23169,1,8,0:0:0:0:
203,153,23312,5,0,0:0:0:0:
203,153,23383,1,0,0:0:0:0:
203,153,23454,1,2,0:0:0:0:
51,256,23597,1,0,1:2:0:0:
175,346,23740,1,8,0:0:0:0:
144,254,23883,6,0,L|137:204,2,45,0|0|2,0:0|0:0|1:2,0:0:0:0:
306,163,24169,5,0,0:0:0:0:
306,163,24240,1,0,0:0:0:0:
306,163,24312,2,0,P|314:102|327:46,1,90,8|0,0:0|0:0,0:0:0:0:
320,65,24526,1,0,0:0:0:0:
318,56,24597,1,2,0:0:0:0:
345,79,24669,1,0,0:0:0:0:
378,91,24740,1,0,1:2:0:0:
414,91,24812,1,0,0:0:0:0:
447,77,24883,1,8,0:0:0:0:
342,295,25026,5,0,0:0:0:0:
416,348,25169,5,0,1:2:0:0:
428,343,25264,2,0,P|439:315|427:281,1,60,2|0,0:1|0:0,0:0:0:0:
479,224,25454,5,8,0:0:0:0:
478,211,25549,2,0,P|455:191|419:190,1,60,2|0,0:1|0:0,0:0:0:0:
239,215,25740,5,0,0:0:0:0:
234,202,25835,1,2,0:1:0:0:
237,191,25931,1,0,0:0:0:0:
246,184,26026,2,0,P|290:164|327:180,2,60,8|2|0,0:0|0:1|0:0,0:0:0:0:
136,319,26312,5,0,1:2:0:0:
131,332,26407,1,2,0:1:0:0:
134,343,26503,1,0,0:0:0:0:
143,350,26598,2,0,P|187:369|224:353,2,60,8|2|0,0:0|0:1|0:0,0:0:0:0:
34,231,26883,5,0,0:0:0:0:
34,231,26954,1,2,0:0:0:0:
34,231,27026,2,0,P|84:225|149:210,1,90,2|8,1:2|0:0,0:0:0:0:
258,297,27312,5,2,0:0:0:0:
241,12,27454,5,0,1:2:0:0:
239,28,27525,1,0,0:0:0:0:
237,45,27596,1,0,0:0:0:0:
236,62,27668,1,0,0:0:0:0:
234,79,27739,1,0,0:0:0:0:
232,95,27811,1,0,0:0:0:0:
231,112,27882,1,0,0:0:0:0:
229,129,27954,1,0,0:0:0:0:
227,149,28026,2,0,L|222:205,7,45,8|0|0|0|0|0|8|0,0:0|0:0|0:0|0:0|0:0|0:0|0:0|0:0,0:0:0:0:
289,266,28597,5,0,1:2:0:0:
289,266,28669,1,0,0:0:0:0:
289,266,28740,2,0,P|300:239|303:207,1,45
147,115,28883,5,0,1:2:0:0:
147,115,28955,1,0,0:0:0:0:
147,115,29026,2,0,P|136:142|135:174,1,45
144,348,29169,5,0,1:2:0:0:
116,375,29240,1,0,1:2:0:0:
78,384,29311,1,0,1:2:0:0:
41,372,29383,1,0,1:2:0:0:
16,343,29454,1,8,1:2:0:0:
10,304,29526,1,8,1:2:0:0:
25,268,29597,1,8,1:2:0:0:
56,246,29669,1,8,1:2:0:0:
95,243,29740,6,0,P|160:258|197:264,1,90,6|0,1:2|0:0,0:0:0:0:
441,229,30026,5,8,0:0:0:0:
271,307,30169,1,2,0:0:0:0:
271,307,30240,1,0,0:0:0:0:
271,307,30312,1,0,0:0:0:0:
393,377,30454,1,2,1:2:0:0:
352,127,30597,6,0,P|341:178|337:238,1,90,8|2,0:0|0:0,0:0:0:0:
105,351,30883,5,0,1:2:0:0:
264,283,31026,1,2,0:0:0:0:
105,195,31169,1,8,0:0:0:0:
159,32,31312,5,2,0:0:0:0:
159,32,31383,1,0,0:0:0:0:
159,32,31454,2,0,P|176:92|178:141,1,90,0|2,0:0|1:2,0:0:0:0:
96,360,31740,6,0,P|39:334|42:267,1,135,10|0,0:0|0:0,0:0:0:0:
32,257,32026,1,2,1:2:0:0:
232,295,32169,6,0,P|219:376|217:417,1,90,0|8,0:0|0:0,0:0:0:0:
155,216,32454,5,2,0:0:0:0:
155,216,32526,1,0,0:0:0:0:
155,216,32597,1,0,0:0:0:0:
313,258,32740,1,2,1:2:0:0:
196,128,32883,1,8,0:0:0:0:
145,296,33026,1,2,0:0:0:0:
379,369,33169,6,0,P|431:330|394:244,1,135,2|0,1:1|0:0,0:0:0:0:
435,259,33454,1,10,0:0:0:0:
370,137,33597,5,2,0:1:0:0:
370,137,33669,1,0,0:0:0:0:
370,137,33740,2,0,L|364:202,1,45,2|0,0:0|0:0,0:0:0:0:
446,175,33883,1,2,1:1:0:0:
308,268,34026,6,0,P|294:242|291:184,1,53.9999983520508,10|0,0:0|0:0,0:0:0:0:
430,40,34169,2,0,P|444:66|447:124,1,53.9999983520508,2|0,0:1|0:0,0:0:0:0:
248,98,34312,6,0,P|168:37|83:54,1,180,0|8,1:2|0:0,0:0:0:0:
19,287,34740,5,2,0:0:0:0:
19,287,34812,1,0,0:0:0:0:
19,287,34883,2,0,P|72:274|122:267,1,90,0|2,0:0|1:2,0:0:0:0:
320,270,35169,5,8,0:0:0:0:
185,355,35312,1,2,0:0:0:0:
185,355,35383,1,0,0:0:0:0:
185,355,35454,1,0,1:2:0:0:
225,176,35597,1,2,0:0:0:0:
457,344,35740,6,0,P|400:353|341:367,1,90,8|2,0:0|0:0,0:0:0:0:
344,380,35954,1,0,0:0:0:0:
361,353,36026,1,0,0:0:0:0:
359,321,36097,1,0,0:0:0:0:
340,295,36169,1,2,1:2:0:0:
349,145,36312,5,8,0:0:0:0:
265,340,36454,1,2,0:0:0:0:
446,220,36597,6,0,P|500:152|451:92,1,135,2|0,1:2|0:0,0:0:0:0:
496,112,36883,1,8,0:0:0:0:
249,17,37026,5,2,0:0:0:0:
249,17,37097,1,0,0:0:0:0:
249,17,37169,2,0,P|263:77|267:110,1,90,0|2,0:0|1:2,0:0:0:0:
183,193,37454,5,8,0:0:0:0:
37,82,37597,1,2,0:0:0:0:
74,255,37740,5,0,1:2:0:0:
69,266,37835,2,0,P|38:247|34:203,1,71.9999978027344,2|0,0:1|0:0,0:0:0:0:
135,35,38026,5,8,0:0:0:0:
140,24,38121,2,0,P|171:43|175:87,1,71.9999978027344,2|0,0:1|0:0,0:0:0:0:
106,145,38312,5,0,0:0:0:0:
109,156,38407,2,0,P|151:166|182:181,1,71.9999978027344,2|0,0:1|0:0,0:0:0:0:
293,254,38597,5,8,0:0:0:0:
289,265,38692,2,2,P|256:279|220:287,1,71.9999978027344,0|0,0:0|0:0,0:1:0:0:
362,359,38883,6,0,P|451:328|435:223,1,180,6|8,1:2|0:0,0:0:0:0:
289,98,39312,5,2,0:0:0:0:
289,98,39383,1,0,0:0:0:0:
289,98,39454,2,0,P|337:92|389:78,1,90,0|2,0:0|1:2,0:0:0:0:
196,61,39740,5,8,0:0:0:0:
380,173,39883,1,2,0:0:0:0:
380,173,39954,1,0,0:0:0:0:
380,173,40026,1,0,1:2:0:0:
232,270,40169,1,2,0:0:0:0:
278,185,40312,5,8,0:0:0:0:
403,272,40454,6,0,L|454:265,2,45,2|0|0,0:0|0:0|0:0,0:0:0:0:
459,186,40740,5,2,1:2:0:0:
290,376,40883,2,0,P|244:353|258:263,1,135,8|0,0:0|0:0,0:0:0:0:
232,270,41169,5,2,1:2:0:0:
378,355,41312,1,0,0:0:0:0:
387,163,41454,1,8,0:0:0:0:
197,353,41597,5,2,0:0:0:0:
197,353,41669,1,0,0:0:0:0:
197,353,41740,2,0,P|150:339|89:329,1,90,0|2,0:0|1:2,0:0:0:0:
42,124,42026,5,8,0:0:0:0:
166,218,42169,1,2,0:0:0:0:
40,373,42312,6,0,P|11:326|28:281,1,90,0|2,1:2|0:0,0:0:0:0:
192,43,42597,2,0,P|221:90|204:135,1,90,8|2,0:0|0:0,0:0:0:0:
232,158,42812,1,0,0:0:0:0:
203,129,42883,1,0,0:0:0:0:
163,123,42954,1,0,0:0:0:0:
125,138,43026,1,2,1:2:0:0:
276,372,43169,5,8,0:0:0:0:
317,237,43312,1,0,0:0:0:0:
116,367,43454,5,2,1:2:0:0:
94,371,43525,1,0,0:0:0:0:
71,370,43596,1,0,0:0:0:0:
50,362,43668,1,0,0:0:0:0:
33,348,43739,1,8,0:0:0:0:
19,330,43811,1,0,0:0:0:0:
12,309,43882,1,2,0:0:0:0:
11,286,43954,1,0,0:0:0:0:
17,265,44025,1,0,0:0:0:0:
28,246,44096,1,0,0:0:0:0:
45,230,44168,1,2,1:2:0:0:
65,221,44239,1,0,0:0:0:0:
87,217,44312,2,0,L|150:233,3,45,8|0|2|0,0:0|0:0|0:0|0:0,0:0:0:0:
212,223,44597,5,0,1:2:0:0:
234,219,44669,1,0,0:0:0:0:
254,210,44740,1,2,0:0:0:0:
271,194,44812,1,0,0:0:0:0:
282,175,44883,1,8,0:0:0:0:
288,154,44954,1,0,0:0:0:0:
287,131,45026,1,2,0:0:0:0:
280,110,45097,1,0,0:0:0:0:
266,92,45169,1,0,0:0:0:0:
249,78,45240,1,0,0:0:0:0:
228,70,45312,1,2,1:2:0:0:
205,69,45383,1,0,0:0:0:0:
183,73,45454,2,0,L|120:89,3,45,8|0|0|0,0:0|0:0|0:0|0:0,0:0:0:0:
48,38,45740,5,2,1:2:0:0:
37,69,45811,1,0,0:0:0:0:
37,103,45882,1,0,0:0:0:0:
49,135,45954,1,0,0:0:0:0:
70,161,46025,1,8,0:0:0:0:
98,178,46097,1,0,0:0:0:0:
131,186,46168,1,2,0:0:0:0:
165,182,46240,1,0,0:0:0:0:
195,167,46311,1,0,0:0:0:0:
225,152,46383,1,0,0:0:0:0:
259,148,46455,1,2,1:2:0:0:
292,156,46526,1,0,0:0:0:0:
320,173,46598,1,8,0:0:0:0:
341,199,46669,1,0,0:0:0:0:
353,231,46741,1,2,0:0:0:0:
353,265,46812,1,0,0:0:0:0:
343,297,46883,6,2,P|274:308|185:325,1,135,2|0,1:1|0:0,0:1:0:0:
201,328,47169,1,10,0:1:0:0:
75,169,47312,5,2,0:1:0:0:
75,169,47383,1,0,0:0:0:0:
75,169,47454,1,0,1:2:0:0:
39,133,47525,1,0,1:2:0:0:
30,84,47596,1,0,1:2:0:0:
48,38,47668,1,0,1:2:0:0:
90,10,47739,1,8,1:2:0:0:
140,10,47811,1,8,1:2:0:0:
181,37,47882,1,8,1:2:0:0:
201,83,47954,1,8,1:2:0:0:
192,132,48026,6,0,P|176:223|165:286,1,135,6|0,1:2|0:0,0:0:0:0:
178,277,48312,1,8,0:0:0:0:
78,353,48454,5,2,0:0:0:0:
78,353,48526,1,0,0:0:0:0:
78,353,48597,2,0,P|65:298|46:250,1,90,0|0,0:0|1:2,0:0:0:0:
27,73,48883,6,0,P|70:84|114:94,1,90,8|2,0:0|0:0,0:0:0:0:
114,94,49097,1,0,0:0:0:0:
114,94,49169,1,0,1:2:0:0:
351,218,49312,5,0,0:0:0:0:
351,218,49383,1,0,0:0:0:0:
351,218,49454,1,10,0:0:0:0:
178,277,49597,1,0,0:0:0:0:
319,347,49740,1,2,0:0:0:0:
265,113,49883,5,0,1:2:0:0:
265,113,49954,1,0,0:0:0:0:
265,113,50026,2,0,P|249:179|245:225,1,90,8|2,0:0|0:0,0:0:0:0:
266,285,50312,5,0,1:2:0:0:
361,93,50454,1,2,0:0:0:0:
156,174,50597,1,8,0:0:0:0:
402,307,50740,5,0,0:0:0:0:
402,307,50812,1,0,0:0:0:0:
402,307,50883,2,0,P|468:292|511:286,1,90,0|2,0:0|1:2,0:0:0:0:
341,205,51169,5,8,0:0:0:0:
439,155,51312,5,0,0:0:0:0:
395,0,51454,2,0,P|352:18|366:111,1,135,2|0,1:1|0:0,0:0:0:0:
361,93,51740,1,10,0:0:0:0:
241,255,51883,5,2,0:1:0:0:
241,255,51954,1,0,0:0:0:0:
241,255,52026,2,0,L|168:241,1,45,2|0,0:0|0:0,0:0:0:0:
144,179,52169,1,2,1:1:0:0:
132,342,52312,6,0,P|116:311|117:261,1,53.9999983520508,10|0,0:0|0:0,0:0:0:0:
244,100,52454,2,0,P|260:131|259:181,1,53.9999983520508,2|0,0:1|0:0,0:0:0:0:
148,183,52597,6,0,P|85:118|-8:127,1,180,4|8,1:2|0:0,0:0:0:0:
253,10,53026,5,2,0:0:0:0:
253,10,53097,1,0,0:0:0:0:
253,10,53169,2,0,P|238:71|236:111,1,90,0|0,0:0|1:2,0:0:0:0:
328,285,53454,5,8,0:0:0:0:
477,196,53597,1,2,0:0:0:0:
477,196,53669,1,0,0:0:0:0:
477,196,53740,1,0,1:2:0:0:
349,146,53883,1,0,0:0:0:0:
416,379,54026,6,0,P|425:320|437:268,1,90,10|0,0:0|0:0,0:0:0:0:
229,106,54312,5,2,0:0:0:0:
235,122,54383,1,0,0:0:0:0:
240,138,54454,1,0,1:2:0:0:
244,155,54526,1,0,0:0:0:0:
248,172,54597,1,8,0:0:0:0:
121,264,54740,5,2,0:0:0:0:
243,366,54883,6,0,P|230:313|220:244,1,90,0|2,1:2|0:0,0:0:0:0:
0,118,55169,6,0,P|13:171|23:240,1,90,8|0,0:0|0:0,0:0:0:0:
19,205,55383,1,0,0:0:0:0:
19,205,55454,1,0,0:0:0:0:
131,367,55597,5,2,1:2:0:0:
319,249,55740,1,8,0:0:0:0:
165,175,55883,1,0,0:0:0:0:
319,47,56026,5,2,1:2:0:0:
319,47,56097,1,0,0:0:0:0:
319,47,56169,2,0,P|341:69|354:105,1,45,2|0,0:0|0:0,0:0:0:0:
431,111,56312,5,10,0:0:0:0:
431,111,56383,1,0,0:0:0:0:
431,111,56455,2,0,P|428:141|409:175,1,45,2|0,0:0|0:0,0:0:0:0:
345,344,56597,5,2,0:0:0:0:
322,329,56669,1,0,0:0:0:0:
311,304,56740,1,2,1:2:0:0:
315,277,56812,1,0,0:0:0:0:
333,257,56883,2,0,P|353:248|384:254,3,45,10|0|2|0,0:0|0:0|0:0|0:0,0:0:0:0:
352,349,57169,5,0,1:2:0:0:
324,343,57240,1,0,0:0:0:0:
296,338,57311,1,0,0:0:0:0:
268,334,57383,1,0,0:0:0:0:
241,330,57454,1,0,0:0:0:0:
213,327,57526,1,0,0:0:0:0:
185,324,57597,1,0,0:0:0:0:
157,323,57669,1,0,0:0:0:0:
128,321,57740,2,0,P|96:319|58:323,7,45,10|0|0|0|0|0|8|0,0:0|0:0|0:0|0:0|0:0|0:0|0:0|0:0,0:0:0:0:
58,126,58312,5,2,1:2:0:0:
32,136,58383,1,0,0:0:0:0:
16,159,58454,1,0,0:0:0:0:
14,187,58526,1,0,0:0:0:0:
25,212,58597,2,0,P|42:229|84:227,3,45,0|0|0|0,1:2|0:0|0:0|0:0,0:0:0:0:
160,94,58883,5,10,0:0:0:0:
142,72,58954,1,0,0:0:0:0:
140,44,59025,1,0,1:2:0:0:
153,19,59097,1,0,0:0:0:0:
176,4,59168,2,0,P|199:-1|234:21,3,45
277,61,59454,5,2,1:2:0:0:
270,88,59525,1,0,0:0:0:0:
264,115,59596,1,0,0:0:0:0:
259,143,59668,1,0,0:0:0:0:
255,171,59739,1,0,0:0:0:0:
251,198,59811,1,0,0:0:0:0:
248,226,59882,1,0,0:0:0:0:
246,254,59954,1,0,0:0:0:0:
244,283,60026,2,0,P|241:318|242:350,7,45,10|0|0|0|0|0|8|0,0:0|0:0|0:0|0:0|0:0|0:0|0:0|0:0,0:0:0:0:
326,261,60597,5,2,1:2:0:0:
349,245,60668,1,0,0:0:0:0:
363,221,60739,1,0,0:0:0:0:
364,193,60811,1,0,0:0:0:0:
352,168,60882,1,0,1:2:0:0:
330,151,60954,1,0,0:0:0:0:
303,145,61025,1,0,0:0:0:0:
276,153,61097,1,0,0:0:0:0:
255,171,61169,5,10,0:0:0:0:
234,190,61240,1,0,0:0:0:0:
207,198,61312,1,0,1:2:0:0:
180,193,61383,1,0,0:0:0:0:
158,176,61455,1,0,0:0:0:0:
146,150,61526,1,0,0:0:0:0:
147,123,61598,1,0,0:0:0:0:
161,98,61669,1,0,0:0:0:0:
184,82,61740,5,0,1:2:0:0:
189,89,61812,1,0,0:0:0:0:
194,95,61883,1,0,0:0:0:0:
199,102,61954,1,0,0:0:0:0:
204,109,62026,2,0,L|188:162,3,45
111,219,62312,5,8,0:0:0:0:
106,226,62384,1,0,0:0:0:0:
101,232,62455,1,0,0:0:0:0:
96,239,62526,1,0,0:0:0:0:
91,246,62598,2,0,L|107:299,3,45,0|0|8|0,0:0|0:0|0:0|0:0,0:0:0:0:
67,382,62883,5,0,1:2:0:0:
102,384,62954,1,0,0:0:0:0:
137,375,63025,1,0,0:0:0:0:
166,354,63097,1,0,0:0:0:0:
186,325,63168,1,0,1:2:0:0:
206,296,63240,1,0,0:0:0:0:
235,275,63312,1,2,0:0:0:0:
270,266,63383,1,0,0:0:0:0:
305,268,63454,5,8,0:0:0:0:
313,278,63526,1,2,0:0:0:0:
321,288,63597,2,0,L|401:303,1,45,2|0,1:2|0:0,0:0:0:0:
425,232,63740,6,0,L|470:299,1,45
456,384,63883,2,0,L|410:316,1,45,2|0,0:0|0:0,0:0:0:0:
430,222,64026,5,0,1:2:0:0:
443,179,64097,1,0,0:0:0:0:
435,135,64168,1,0,0:0:0:0:
407,102,64240,1,0,0:0:0:0:
365,86,64311,1,0,0:0:0:0:
321,92,64383,1,0,0:0:0:0:
287,120,64454,1,0,0:0:0:0:
269,161,64526,1,0,0:0:0:0:
276,205,64597,1,8,0:0:0:0:
283,249,64669,1,0,0:0:0:0:
265,290,64741,1,0,0:0:0:0:
230,318,64812,1,0,0:0:0:0:
186,325,64884,1,0,0:0:0:0:
145,309,64955,1,0,0:0:0:0:
117,275,65027,1,8,0:0:0:0:
109,232,65098,1,0,0:0:0:0:
122,189,65169,5,0,1:2:0:0:
127,196,65240,1,0,0:0:0:0:
132,203,65312,1,0,0:0:0:0:
137,210,65383,1,0,0:0:0:0:
142,217,65454,1,0,1:2:0:0:
147,224,65526,1,0,0:0:0:0:
152,231,65597,1,0,0:0:0:0:
157,238,65669,1,0,0:0:0:0:
162,245,65741,5,8,1:2:0:0:
219,198,65812,1,8,1:2:0:0:
233,126,65883,1,8,1:2:0:0:
198,61,65955,1,8,1:2:0:0:
129,34,66026,1,8,1:2:0:0:
59,57,66098,1,8,1:2:0:0:
20,120,66169,1,8,1:2:0:0:
30,193,66240,1,8,1:2:0:0:
71,248,68597,5,0,0:0:0:0:
65,240,68669,1,2,0:0:0:0:
63,231,68740,1,0,0:0:0:0:
66,222,68812,1,2,0:0:0:0:
72,215,68883,2,0,P|102:201|128:214,3,53.9999983520508
210,328,69169,5,0,0:0:0:0:
204,336,69241,1,2,0:0:0:0:
202,345,69312,1,0,0:0:0:0:
205,354,69384,1,2,0:0:0:0:
211,361,69455,2,0,P|241:375|267:362,3,53.9999983520508
123,376,69740,5,2,0:0:0:0:
84,384,69811,1,0,0:0:0:0:
45,374,69882,1,0,0:0:0:0:
16,347,69954,1,0,0:0:0:0:
3,309,70025,1,2,0:0:0:0:
11,269,70097,1,0,0:0:0:0:
36,237,70168,1,0,0:0:0:0:
73,222,70239,1,0,0:0:0:0:
113,226,70311,1,0,3:0:0:0:
153,230,70383,1,0,3:0:0:0:
189,214,70454,1,0,3:0:0:0:
215,183,70525,1,0,3:0:0:0:
222,143,70597,1,2,3:0:0:0:
209,105,70668,1,2,3:0:0:0:
180,78,70740,2,0,P|151:73|121:66,1,53.9999983520508,2|2,3:0|3:0,3:0:0:0:
261,37,70883,5,6,1:2:0:0:
52,115,71026,1,0,0:0:0:0:
257,262,71169,1,10,0:0:0:0:
211,361,71312,5,2,0:0:0:0:
350,242,71454,1,0,0:0:0:0:
134,150,71597,1,2,1:2:0:0:
347,0,71740,6,0,P|325:57|316:131,1,107.999996704102,8|2,0:0|0:0,0:0:0:0:
192,223,72026,5,2,1:2:0:0:
0,159,72169,1,0,0:0:0:0:
130,370,72312,1,10,0:0:0:0:
199,86,72454,1,2,0:0:0:0:
461,183,72597,5,0,0:0:0:0:
345,382,72740,1,2,1:2:0:0:
252,153,72883,1,10,0:0:0:0:
456,297,73026,1,2,0:0:0:0:
113,279,73169,6,0,P|46:296|11:314,1,107.999996704102,2|2,1:2|0:0,0:0:0:0:
243,384,73454,5,8,0:0:0:0:
353,266,73597,1,2,0:0:0:0:
32,115,73740,5,2,0:0:0:0:
194,63,73883,1,2,1:2:0:0:
97,198,74026,1,8,0:0:0:0:
89,24,74169,1,2,0:0:0:0:
300,144,74312,6,0,P|364:91|312:5,1,161.999995056153,2|0,1:1|0:0,0:0:0:0:
337,29,74597,1,10,0:0:0:0:
244,238,74740,5,2,0:1:0:0:
244,238,74812,1,0,0:0:0:0:
244,238,74883,2,0,L|259:316,1,53.9999983520508,2|0,0:0|0:0,0:0:0:0:
319,341,75026,1,2,1:1:0:0:
174,366,75169,6,0,P|162:337|156:281,1,62.9999980773926,10|0,0:0|0:0,0:0:0:0:
316,148,75312,2,0,P|328:177|334:233,1,62.9999980773926,2|0,0:1|0:0,0:0:0:0:
398,280,75454,5,2,1:2:0:0:
238,91,75597,1,0,0:0:0:0:
449,169,75740,1,10,0:0:0:0:
172,375,75883,5,2,0:0:0:0:
252,232,76026,1,0,0:0:0:0:
63,306,76169,1,2,1:2:0:0:
110,0,76312,6,0,P|134:49|149:106,1,107.999996704102,8|2,0:0|0:0,0:0:0:0:
205,166,76597,5,2,1:2:0:0:
27,18,76740,1,0,0:0:0:0:
234,87,76883,1,10,0:0:0:0:
51,194,77026,1,2,0:0:0:0:
229,308,77169,5,0,0:0:0:0:
375,161,77312,1,0,1:2:0:0:
170,244,77454,1,10,0:0:0:0:
371,348,77597,1,2,0:0:0:0:
343,0,77740,6,0,P|322:60|311:125,1,107.999996704102,2|2,1:2|0:0,0:0:0:0:
465,283,78026,5,8,0:0:0:0:
345,256,78169,1,2,0:0:0:0:
69,347,78312,5,2,0:0:0:0:
252,221,78454,1,2,1:2:0:0:
31,106,78597,1,10,0:0:0:0:
175,249,78740,1,0,0:0:0:0:
212,26,78883,5,0,1:2:0:0:
202,32,78978,2,0,P|176:72|178:118,1,83.9999974365235,2|0,0:1|0:0,0:0:0:0:
297,343,79169,5,8,0:0:0:0:
307,337,79264,2,0,P|333:297|331:251,1,83.9999974365235,2|0,0:1|0:0,0:0:0:0:
325,131,79454,5,0,0:0:0:0:
340,136,79550,2,0,P|383:120|428:108,1,83.9999974365235,2|0,0:1|0:0,0:0:0:0:
175,249,79740,5,8,0:0:0:0:
164,261,79836,2,0,P|123:272|84:287,1,83.9999974365235,2|0,0:1|0:0,0:0:0:0:
313,52,80026,5,2,1:2:0:0:
276,26,80097,1,0,0:0:0:0:
232,28,80168,1,0,0:0:0:0:
199,56,80240,1,0,0:0:0:0:
189,98,80311,1,0,0:0:0:0:
207,138,80383,1,0,0:0:0:0:
244,159,80454,1,0,0:0:0:0:
287,153,80525,1,0,0:0:0:0:
325,131,80597,1,10,0:0:0:0:
368,125,80668,1,0,0:0:0:0:
405,145,80739,1,0,0:0:0:0:
424,186,80811,1,0,0:0:0:0:
414,228,80882,1,0,0:0:0:0:
380,255,80954,1,0,0:0:0:0:
337,258,81025,1,8,0:0:0:0:
301,233,81096,1,0,0:0:0:0:
309,227,81169,6,0,P|315:202|320:154,7,62.9999980773926,2|0|0|0|0|0|0|0,1:2|0:0|0:0|0:0|1:2|0:0|0:0|0:0,0:0:0:0:
227,269,81740,5,10,0:0:0:0:
223,275,81811,1,0,0:0:0:0:
219,282,81882,1,0,1:2:0:0:
216,289,81954,1,0,0:0:0:0:
212,297,82025,1,0,0:0:0:0:
210,304,82097,1,0,0:0:0:0:
207,311,82168,1,0,0:0:0:0:
204,319,82239,1,0,0:0:0:0:
202,327,82312,5,2,1:2:0:0:
170,359,82383,1,0,0:0:0:0:
126,370,82454,1,0,0:0:0:0:
83,356,82526,1,0,0:0:0:0:
55,321,82597,1,0,0:0:0:0:
49,277,82669,1,0,0:0:0:0:
69,236,82740,1,0,0:0:0:0:
107,211,82811,1,0,0:0:0:0:
153,212,82883,1,10,0:0:0:0:
198,213,82955,1,0,0:0:0:0:
237,189,83026,1,0,0:0:0:0:
257,148,83097,1,0,0:0:0:0:
251,104,83169,1,0,0:0:0:0:
223,69,83240,1,0,0:0:0:0:
180,55,83312,1,8,0:0:0:0:
135,65,83383,1,0,0:0:0:0:
143,78,83454,6,0,P|101:87|65:98,7,62.9999980773926,2|0|0|0|0|0|0|0,1:2|0:0|0:0|0:0|1:2|0:0|0:0|0:0,0:0:0:0:
186,145,84026,5,10,1:2:0:0:
229,149,84097,1,0,1:2:0:0:
273,153,84169,1,0,1:2:0:0:
316,157,84240,1,0,1:2:0:0:
360,161,84312,1,0,1:2:0:0:
403,165,84383,1,0,1:2:0:0:
446,169,84454,1,8,1:2:0:0:
490,173,84526,1,0,1:2:0:0:
502,167,84597,5,6,1:2:0:0:
363,268,84740,1,0,0:0:0:0:
416,61,84883,1,10,0:0:0:0:
456,263,85026,5,2,0:0:0:0:
264,228,85169,1,0,0:0:0:0:
349,383,85312,1,2,1:2:0:0:
489,99,85454,6,0,P|507:152|513:207,1,107.999996704102,8|2,0:0|0:0,0:0:0:0:
156,384,85740,6,0,P|127:328|198:253,1,161.999995056153,2|0,1:1|0:0,0:0:0:0:
188,261,86026,1,10,0:0:0:0:
257,320,86169,5,2,0:1:0:0:
107,192,86312,1,2,0:0:0:0:
107,192,86383,1,0,0:0:0:0:
107,192,86454,1,2,1:1:0:0:
415,34,86597,1,10,0:0:0:0:
395,126,86740,5,2,0:1:0:0:
326,55,86883,5,2,1:1:0:0:
326,55,86954,1,0,0:0:0:0:
326,55,87026,1,0,0:0:0:0:
326,55,87097,1,0,0:0:0:0:
326,55,87169,1,8,0:0:0:0:
344,219,87312,1,2,0:1:0:0:
485,91,87454,1,0,0:0:0:0:
248,175,87597,5,2,1:2:0:0:
210,168,87669,1,0,0:0:0:0:
183,141,87740,1,8,0:0:0:0:
176,103,87812,1,0,0:0:0:0:
192,69,87883,1,2,0:1:0:0:
261,269,88026,5,0,1:2:0:0:
254,277,88097,1,0,0:0:0:0:
247,286,88169,1,0,0:0:0:0:
241,295,88240,1,0,0:0:0:0:
235,304,88312,2,0,L|247:367,1,53.9999983520508,10|0,0:1|0:0,0:0:0:0:
94,245,88454,5,0,0:0:0:0:
94,245,88526,1,0,0:0:0:0:
94,245,88597,2,0,P|134:256|171:275,1,62.9999980773926,2|0,0:1|0:0,0:0:0:0:
380,353,88740,2,0,P|351:365|320:372,1,62.9999980773926,2|0,1:1|0:0,0:0:0:0:
59,376,88883,6,0,P|121:367|167:348,1,62.9999980773926,10|0,0:1|0:0,0:0:0:0:
420,228,89026,2,0,P|389:221|357:218,1,62.9999980773926,2|0,0:1|0:0,0:0:0:0:
35,114,89169,5,6,1:2:0:0:
260,21,89312,1,0,0:0:0:0:
164,253,89454,1,10,0:0:0:0:
350,225,89597,5,2,0:0:0:0:
138,168,89740,1,0,0:0:0:0:
241,367,89883,1,2,1:2:0:0:
264,106,90026,6,0,P|242:166|233:216,1,107.999996704102,8|2,0:0|0:0,0:0:0:0:
455,309,90312,5,2,1:2:0:0:
338,145,90454,1,0,0:0:0:0:
376,371,90597,1,10,0:0:0:0:
491,169,90740,1,2,0:0:0:0:
229,340,90883,5,2,0:0:0:0:
42,278,91026,1,0,1:2:0:0:
42,278,91097,1,0,0:0:0:0:
42,278,91169,1,10,0:0:0:0:
247,113,91312,1,2,0:0:0:0:
42,12,91454,6,0,P|63:77|74:127,1,107.999996704102,2|2,1:2|0:0,0:0:0:0:
71,373,91740,5,8,0:0:0:0:
194,256,91883,1,2,0:0:0:0:
36,191,92026,5,2,0:0:0:0:
236,349,92169,1,2,1:2:0:0:
236,349,92240,1,0,0:0:0:0:
236,349,92312,1,10,0:0:0:0:
417,194,92454,5,0,0:0:0:0:
402,113,92597,6,0,P|341:144|348:238,1,161.999995056153,2|0,1:1|0:0,0:0:0:0:
332,238,92883,1,10,0:0:0:0:
396,384,93025,5,2,0:1:0:0:
396,384,93097,1,0,0:0:0:0:
396,384,93168,2,0,P|404:356|409:317,1,53.9999983520508,2|0,0:0|0:0,0:0:0:0:
238,188,93312,2,0,P|230:216|225:255,1,53.9999983520508,2|0,1:1|0:0,0:0:0:0:
252,366,93454,6,0,P|221:372|191:381,1,62.9999980773926,10|0,0:0|0:0,0:0:0:0:
425,198,93597,2,0,P|455:192|486:183,1,62.9999980773926,2|0,0:1|0:0,0:0:0:0:
486,183,93740,5,2,1:2:0:0:
323,324,93883,1,0,0:0:0:0:
321,121,94026,1,10,0:0:0:0:
153,109,94169,5,2,0:0:0:0:
340,229,94312,1,0,0:0:0:0:
123,331,94454,1,2,1:2:0:0:
253,30,94597,5,8,0:0:0:0:
253,30,94669,1,0,0:0:0:0:
253,30,94740,2,0,P|240:87|238:122,1,62.9999980773926,2|0,0:0|0:0,0:0:0:0:
182,273,94883,5,2,1:2:0:0:
50,212,95026,1,0,0:0:0:0:
190,381,95169,1,10,0:0:0:0:
265,186,95312,1,2,0:0:0:0:
392,380,95455,5,2,0:0:0:0:
407,379,95526,2,0,P|456:318|417:257,1,125.999996154785
492,218,95740,5,10,0:0:0:0:
302,36,95883,5,2,0:0:0:0:
302,36,95954,1,0,0:0:0:0:
302,36,96026,1,2,1:2:0:0:
464,125,96169,1,0,0:0:0:0:
271,197,96312,1,10,0:0:0:0:
404,44,96454,1,2,0:0:0:0:
305,272,96597,5,0,0:0:0:0:
80,179,96740,1,2,1:2:0:0:
80,179,96812,1,0,0:0:0:0:
80,179,96883,1,10,0:0:0:0:
169,384,97026,1,2,0:0:0:0:
196,275,97169,6,0,P|124:280|67:354,1,161.999995056153,0|0,1:2|0:0,0:0:0:0:
53,350,97454,1,10,0:0:0:0:
262,183,97597,5,2,0:0:0:0:
264,172,97669,1,0,0:0:0:0:
266,161,97740,1,2,0:0:0:0:
269,150,97812,1,0,0:0:0:0:
272,140,97883,1,2,1:2:0:0:
225,14,98026,6,0,P|204:47|207:88,1,58.4999973220826,10|0,0:0|0:0,0:0:0:0:
353,198,98169,2,0,P|388:215|423:211,1,58.4999973220826,2|0,0:0|0:0,0:0:0:0:
499,26,98312,6,0,P|408:33|367:102,1,175.499991966248,0|0,1:2|0:0,0:0:0:0:
355,95,98597,1,8,0:0:0:0:
169,185,98740,1,0,0:0:0:0:
116,113,98883,6,0,P|84:155|84:208,1,107.999996704102,2|0,0:0|1:2,0:0:0:0:
253,382,99169,2,0,P|284:339|284:286,1,107.999996704102,8|0,0:0|0:0,0:0:0:0:
284,286,99383,1,0,0:0:0:0:
284,286,99454,1,2,1:2:0:0:
385,10,99597,5,0,0:0:0:0:
246,212,99740,1,8,0:0:0:0:
470,132,99883,1,0,0:0:0:0:
224,12,100026,5,2,0:0:0:0:
242,19,100097,2,0,P|259:77|268:135,1,107.999996704102
329,184,100312,5,8,0:0:0:0:
264,384,100454,1,0,0:0:0:0:
59,276,100597,6,0,P|-6:219|36:130,1,175.499991966248,2|0,1:2|0:0,0:0:0:0:
29,147,100883,1,8,0:0:0:0:
167,268,101026,1,0,0:0:0:0:
145,27,101169,6,0,P|136:88|120:144,1,107.999996704102,2|0,0:0|1:2,0:0:0:0:
264,384,101454,2,0,P|273:323|289:267,1,107.999996704102,8|0,0:0|0:0,0:0:0:0:
285,278,101669,1,0,0:0:0:0:
285,278,101740,1,2,1:2:0:0:
337,56,101883,5,0,0:0:0:0:
445,51,102026,1,8,0:0:0:0:
499,148,102169,1,0,0:0:0:0:
240,179,102312,5,2,0:0:0:0:
32,111,102454,1,0,1:2:0:0:
32,111,102526,1,0,0:0:0:0:
32,111,102597,1,8,0:0:0:0:
139,343,102740,1,0,0:0:0:0:
295,109,102883,6,0,P|255:55|129:63,1,175.499991966248,2|0,1:2|0:0,0:0:0:0:
142,43,103169,1,10,0:0:0:0:
19,272,103312,5,2,0:0:0:0:
19,272,103383,1,0,0:0:0:0:
19,272,103454,2,0,P|97:254|161:249,1,107.999996704102,0|2,0:0|1:2,0:0:0:0:
425,348,103740,6,0,P|488:310|453:222,1,161.999995056153,8|0,0:0|0:0,0:0:0:0:
484,224,104026,1,2,1:1:0:0:
218,151,104169,5,0,0:0:0:0:
218,151,104240,1,0,0:0:0:0:
218,151,104312,1,10,0:0:0:0:
340,268,104454,1,2,0:1:0:0:
389,192,104597,5,2,0:0:0:0:
389,192,104669,1,0,0:0:0:0:
389,192,104740,1,2,1:1:0:0:
243,282,104883,1,8,0:0:0:0:
317,27,105026,1,2,0:1:0:0:
411,95,105169,5,2,1:2:0:0:
411,95,105240,1,0,0:0:0:0:
411,95,105312,1,0,0:0:0:0:
411,95,105383,1,0,0:0:0:0:
411,95,105454,1,10,0:0:0:0:
153,204,105597,5,2,0:0:0:0:
241,384,105740,2,0,P|265:293|258:250,1,107.999996704102,0|2,0:0|1:2,0:0:0:0:
86,28,106026,2,0,P|65:77|62:131,1,107.999996704102,8|2,0:0|0:0,0:0:0:0:
58,141,106240,1,0,0:0:0:0:
51,149,106312,5,0,1:2:0:0:
97,137,106383,1,0,0:0:0:0:
144,148,106454,1,0,0:0:0:0:
182,179,106526,1,0,0:0:0:0:
201,222,106597,1,8,0:0:0:0:
220,266,106669,1,0,0:0:0:0:
258,296,106741,1,0,0:0:0:0:
305,306,106812,1,0,0:0:0:0:
351,295,106883,5,0,1:2:0:0:
395,265,106954,1,0,1:2:0:0:
424,220,107025,1,0,1:2:0:0:
431,167,107097,1,0,1:2:0:0:
415,115,107168,1,8,1:2:0:0:
379,75,107240,1,8,1:2:0:0:
330,54,107311,1,8,1:2:0:0:
277,55,107382,1,8,1:2:0:0:
228,78,107454,6,0,P|135:67|89:18,1,161.999995056153,6|0,1:1|0:0,0:0:0:0:
78,23,107740,1,10,0:0:0:0:
202,376,107883,5,2,0:1:0:0:
202,376,107954,1,0,0:0:0:0:
202,376,108026,2,0,P|215:312|234:260,1,107.999996704102,0|2,0:1|1:2,0:0:0:0:
22,126,108312,5,10,0:1:0:0:
78,273,108454,1,0,0:0:0:0:
367,198,108597,5,2,1:2:0:0:
175,143,108740,1,0,0:0:0:0:
175,143,108812,1,0,0:0:0:0:
175,143,108883,1,10,0:0:0:0:
303,350,109026,1,2,0:0:0:0:
354,111,109169,5,2,0:1:0:0:
240,277,109312,1,0,1:2:0:0:
326,13,109454,6,0,P|271:34|277:132,1,161.999995056153,10|0,0:0|0:0,0:0:0:0:
263,138,109740,5,2,1:1:0:0:
451,263,109883,1,0,0:0:0:0:
423,40,110026,1,8,0:0:0:0:
361,284,110169,5,2,0:1:0:0:
361,284,110240,1,0,0:0:0:0:
361,284,110312,2,0,P|296:265|250:260,1,107.999996704102,2|2,0:0|1:2,0:0:0:0:
17,197,110597,5,10,0:1:0:0:
158,125,110740,1,2,0:0:0:0:
116,11,110883,6,0,P|61:33|74:133,1,161.999995056153,2|0,1:1|0:0,0:0:0:0:
74,120,111169,1,10,0:0:0:0:
177,323,111312,5,2,0:1:0:0:
177,323,111383,1,0,0:0:0:0:
177,323,111454,2,0,L|100:315,1,53.9999983520508,2|0,0:0|0:0,0:0:0:0:
155,235,111597,1,2,1:1:0:0:
48,368,111740,6,0,P|36:332|41:285,1,62.9999980773926,10|0,0:0|0:0,0:0:0:0:
244,199,111883,2,0,P|256:235|251:282,1,62.9999980773926,2|0,0:1|0:0,0:0:0:0:
17,197,112026,6,0,P|67:139|170:141,1,161.999995056153,2|0,1:1|0:0,0:0:0:0:
160,125,112312,1,10,0:0:0:0:
436,78,112454,5,2,0:1:0:0:
436,78,112526,1,0,0:0:0:0:
436,78,112597,2,0,P|377:62|315:42,1,107.999996704102,0|2,0:0|1:2,0:0:0:0:
243,277,112883,5,10,0:1:0:0:
405,197,113026,1,2,0:0:0:0:
309,129,113169,5,2,1:2:0:0:
249,370,113312,1,0,0:0:0:0:
140,178,113454,1,10,0:0:0:0:
321,323,113597,1,2,0:0:0:0:
94,378,113740,6,0,P|35:328|65:254,1,161.999995056153,2|0,0:1|0:0,0:0:0:0:
71,264,114026,1,10,0:1:0:0:
225,94,114169,5,0,0:0:0:0:
56,39,114312,5,2,1:1:0:0:
148,186,114454,1,0,0:0:0:0:
159,9,114597,1,10,0:0:0:0:
49,150,114740,1,2,0:1:0:0:
131,96,114883,5,0,0:0:0:0:
375,251,115026,5,2,1:2:0:0:
233,372,115169,1,10,0:1:0:0:
313,123,115312,1,2,0:0:0:0:
340,340,115454,5,0,1:2:0:0:
344,349,115550,2,0,P|369:373|424:370,1,83.9999974365235,2|0,0:1|0:0,0:0:0:0:
494,200,115740,5,8,0:0:0:0:
490,191,115836,2,0,P|465:167|410:170,1,83.9999974365235,2|0,0:1|0:0,0:0:0:0:
273,34,116026,5,0,0:0:0:0:
285,38,116121,2,0,P|296:81|302:120,1,83.9999974365235,2|0,0:1|0:0,0:0:0:0:
167,320,116312,5,8,0:0:0:0:
155,316,116407,2,0,P|144:273|138:234,1,83.9999974365235,2|0,0:1|0:0,0:0:0:0:
198,114,116597,6,0,P|118:30|1:77,1,215.999993408203,6|10,1:1|0:0,0:0:0:0:
241,380,117026,5,2,0:1:0:0:
241,380,117097,1,0,0:0:0:0:
241,380,117169,2,0,P|250:309|266:259,1,107.999996704102,2|2,0:0|1:2,0:0:0:0:
13,289,117454,5,10,0:1:0:0:
146,240,117597,1,2,0:0:0:0:
38,149,117740,5,0,1:2:0:0:
393,146,117883,5,2,0:0:0:0:
254,280,118026,1,10,0:0:0:0:
323,39,118169,1,0,0:0:0:0:
482,207,118312,1,2,0:1:0:0:
482,207,118383,1,0,0:0:0:0:
482,207,118454,1,2,1:2:0:0:
199,126,118597,6,0,P|173:92|239:5,1,161.999995056153,10|0,0:0|0:0,0:0:0:0:
238,16,118883,1,2,1:1:0:0:
392,245,119026,5,0,0:0:0:0:
411,57,119169,1,10,0:0:0:0:
268,191,119312,1,2,0:1:0:0:
432,384,119454,6,0,P|466:319|456:260,1,107.999996704102,2|2,0:0|1:2,0:0:0:0:
345,11,119740,2,0,P|311:76|321:135,1,107.999996704102,10|2,0:1|0:0,0:0:0:0:
158,373,120026,5,2,1:2:0:0:
158,373,120097,1,0,0:0:0:0:
158,373,120169,1,2,0:0:0:0:
308,292,120312,5,10,0:1:0:0:
102,212,120454,1,2,0:0:0:0:
102,212,120526,1,0,0:0:0:0:
102,212,120597,1,2,0:1:0:0:
178,156,120740,5,0,1:2:0:0:
254,374,120883,1,10,0:1:0:0:
30,273,121026,1,2,0:0:0:0:
285,166,121169,6,0,P|321:142|296:36,1,161.999995056153,2|0,1:1|0:0,0:0:0:0:
312,30,121454,1,10,0:0:0:0:
6,240,121597,5,2,0:1:0:0:
6,240,121669,1,0,0:0:0:0:
6,240,121740,2,0,P|78:223|149:214,1,107.999996704102,2|0,0:0|1:2,0:0:0:0:
166,35,122026,5,10,0:1:0:0:
216,256,122169,1,2,0:0:0:0:
155,148,122312,6,0,P|92:91|-14:107,1,161.999995056153,2|0,1:1|0:0,0:0:0:0:
13,78,122597,1,10,0:0:0:0:
200,342,122740,5,2,0:1:0:0:
200,319,122812,1,0,0:0:0:0:
203,297,122883,1,2,0:0:0:0:
208,276,122954,1,0,0:0:0:0:
216,256,123026,1,2,1:1:0:0:
119,384,123169,6,0,P|106:348|118:301,1,62.9999980773926,10|0,0:0|0:0,0:0:0:0:
293,211,123312,2,0,P|306:247|294:294,1,62.9999980773926,2|0,0:1|0:0,0:0:0:0:
415,384,123454,6,0,P|455:368|456:247,1,175.499991966248,2|0,1:1|0:0,0:0:0:0:
474,245,123740,1,8,0:0:0:0:
243,30,123883,5,2,0:1:0:0:
243,30,123954,1,0,0:0:0:0:
243,30,124026,2,0,P|256:96|262:149,1,107.999996704102,0|0,0:0|1:2,0:0:0:0:
317,357,124312,5,8,0:0:0:0:
471,137,124454,5,0,0:0:0:0:
479,129,124526,2,0,P|445:85|336:95,1,161.999995056153,2|0,0:1|0:0,0:0:0:0:
89,331,124883,2,0,P|51:287|58:214,1,107.999996704102,10|0,0:1|0:0,0:0:0:0:
0,61,125169,5,2,1:1:0:0:
52,50,125240,1,0,1:2:0:0:
102,67,125311,1,0,1:2:0:0:
138,107,125383,1,0,1:2:0:0:
150,159,125454,1,8,1:2:0:0:
162,210,125526,1,8,1:2:0:0:
198,250,125598,1,8,1:2:0:0:
248,268,125669,1,8,1:2:0:0:
301,257,125740,6,0,P|344:226|315:114,1,161.999995056153,6|0,1:1|0:0,0:0:0:0:
345,120,126026,1,10,0:0:0:0:
477,371,126169,6,0,P|415:354|357:347,1,107.999996704102,2|0,0:1|0:0,0:0:0:0:
20,230,126454,5,2,1:2:0:0:
20,230,126526,1,0,0:0:0:0:
20,230,126597,2,0,P|52:164|148:173,1,161.999995056153,10|0,0:1|0:0,0:0:0:0:
150,159,126883,5,0,1:2:0:0:
305,265,127026,1,2,0:1:0:0:
236,47,127169,1,10,0:0:0:0:
222,236,127312,5,2,0:0:0:0:
222,236,127383,1,0,0:0:0:0:
222,236,127454,1,2,0:1:0:0:
185,368,127597,1,2,1:2:0:0:
415,246,127740,1,10,0:0:0:0:
294,179,127883,5,2,0:1:0:0:
371,19,128026,6,0,P|416:19|429:135,1,161.999995056153,2|0,1:2|0:0,0:0:0:0:
459,125,128312,1,10,0:1:0:0:
107,57,128454,6,0,P|164:41|220:19,1,107.999996704102,2|0,0:0|0:0,0:0:0:0:
115,222,128740,5,2,1:1:0:0:
115,222,128812,1,0,0:0:0:0:
115,222,128883,2,0,P|63:245|73:346,1,161.999995056153,10|0,0:0|0:0,0:0:0:0:
58,351,129169,5,2,1:1:0:0:
253,244,129312,1,2,0:0:0:0:
63,135,129454,1,10,0:0:0:0:
370,384,129597,5,2,0:1:0:0:
370,384,129669,1,0,0:0:0:0:
370,384,129740,1,2,0:0:0:0:
178,284,129883,1,2,1:2:0:0:
379,158,130026,1,10,0:1:0:0:
232,347,130169,1,2,0:0:0:0:
455,378,130312,6,0,P|517:314|492:245,1,161.999995056153,2|0,1:2|0:0,0:0:0:0:
509,242,130597,1,10,0:0:0:0:
253,21,130740,6,0,P|272:91|277:162,1,107.999996704102,2|2,0:0|0:1,0:0:0:0:
478,110,131026,5,0,1:2:0:0:
478,110,131097,1,0,0:0:0:0:
478,110,131169,1,10,0:0:0:0:
417,288,131312,1,2,0:1:0:0:
191,122,131454,5,0,1:2:0:0:
350,233,131597,1,2,0:0:0:0:
216,349,131740,1,10,0:1:0:0:
263,246,131883,1,2,0:0:0:0:
93,373,132026,6,0,P|51:313|68:261,1,107.999996704102,2|2,0:0|1:1,0:0:0:0:
148,14,132312,6,0,P|211:45|201:132,1,161.999995056153,10|0,0:0|0:0,0:0:0:0:
191,122,132597,5,2,1:1:0:0:
31,66,132740,1,2,0:0:0:0:
177,247,132883,1,10,0:0:0:0:
0,204,133026,5,2,0:1:0:0:
0,204,133097,1,0,0:0:0:0:
0,204,133169,2,0,P|58:194|112:178,1,107.999996704102,2|0,0:0|1:2,0:0:0:0:
266,323,133454,5,10,0:1:0:0:
261,338,133526,1,0,0:0:0:0:
257,353,133597,1,2,0:0:0:0:
253,369,133669,1,0,0:0:0:0:
251,384,133740,1,2,1:2:0:0:
149,343,133883,5,2,0:1:0:0:
407,218,134026,1,10,0:0:0:0:
206,95,134169,1,2,0:0:0:0:
206,95,134240,1,0,0:0:0:0:
206,95,134312,1,2,0:1:0:0:
409,370,134454,5,0,1:2:0:0:
189,236,134597,1,10,0:1:0:0:
454,74,134740,1,2,0:0:0:0:
400,16,134883,6,0,P|356:27|357:148,1,161.999995056153,6|0,1:1|0:0,0:0:0:0:
329,139,135169,1,10,0:0:0:0:
408,372,135312,5,2,0:1:0:0:
414,384,135383,2,0,P|458:373|457:252,1,161.999995056153,2|0,0:0|1:2,0:0:0:0:
189,236,135740,5,10,0:1:0:0:
335,283,135883,1,2,0:0:0:0:
163,358,136026,5,0,1:2:0:0:
42,112,136169,1,2,0:1:0:0:
42,112,136240,1,0,0:0:0:0:
42,112,136312,1,10,0:0:0:0:
255,183,136454,1,2,0:0:0:0:
7,305,136597,6,0,P|71:284|121:270,1,107.999996704102,2|2,0:1|1:2,0:0:0:0:
183,12,136883,5,10,0:0:0:0:
114,189,137026,1,2,0:1:0:0:
270,375,137169,6,0,P|340:340|310:197,1,215.999993408203,2|10,1:2|0:1,0:0:0:0:
120,66,137597,5,2,0:0:0:0:
120,66,137669,1,0,0:0:0:0:
120,66,137740,1,2,0:0:0:0:
227,243,137883,1,2,1:1:0:0:
254,8,138026,1,8,0:0:0:0:
110,195,138169,1,2,0:0:0:0:
349,39,138312,6,0,P|397:59|401:167,1,161.999995056153,2|0,1:1|0:0,0:0:0:0:
418,164,138597,1,10,0:0:0:0:
67,326,138740,5,2,0:1:0:0:
67,326,138812,1,0,0:0:0:0:
67,326,138883,1,2,0:0:0:0:
312,128,139026,1,2,1:2:0:0:
15,47,139169,1,10,0:1:0:0:
332,238,139312,1,2,0:0:0:0:
178,31,139454,5,0,1:1:0:0:
129,31,139526,1,0,0:0:0:0:
94,65,139597,1,2,0:1:0:0:
94,113,139669,1,0,0:0:0:0:
126,149,139740,6,0,P|156:165|172:197,3,53.9999983520508,8|0|0|0,0:0|0:0|0:0|0:0,0:0:0:0:
243,169,140026,2,0,P|244:202|224:232,3,53.9999983520508,2|0|0|0,0:1|0:0|1:2|0:0,0:0:0:0:
292,277,140312,2,0,P|263:294|227:292,3,53.9999983520508,8|0|2|0,0:0|0:0|0:1|0:0,0:0:0:0:
482,272,140597,5,0,1:2:0:0:
496,237,140668,1,0,0:0:0:0:
489,199,140739,1,0,0:0:0:0:
462,173,140811,1,0,0:0:0:0:
424,166,140882,1,10,0:1:0:0:
390,182,140954,1,0,0:0:0:0:
370,215,141025,1,0,0:0:0:0:
373,253,141097,1,0,0:0:0:0:
392,285,141169,5,0,0:0:0:0:
394,322,141241,1,0,0:0:0:0:
374,355,141312,1,2,1:1:0:0:
340,371,141384,1,0,0:0:0:0:
302,364,141455,1,8,0:1:0:0:
275,338,141527,1,0,0:0:0:0:
268,300,141598,1,0,0:0:0:0:
283,266,141669,1,0,0:0:0:0:
292,277,141740,5,2,1:1:0:0:
248,273,141812,1,0,0:0:0:0:
209,292,141883,1,0,0:0:0:0:
183,326,141954,1,0,0:0:0:0:
175,368,142026,6,0,P|147:362|125:337,3,53.9999983520508,8|0|2|0,0:0|0:0|0:1|0:0,0:0:0:0:
54,342,142312,2,0,P|55:313|75:287,3,53.9999983520508,0|0|0|0,0:0|0:0|1:2|0:0,0:0:0:0:
97,107,142597,5,10,0:1:0:0:
107,126,142669,1,0,0:0:0:0:
110,147,142740,1,0,0:0:0:0:
105,168,142812,1,0,0:0:0:0:
92,186,142883,5,0,1:0:0:0:
53,140,142954,1,0,0:0:0:0:
49,80,143025,1,2,0:1:0:0:
79,29,143097,1,0,0:0:0:0:
134,5,143168,1,8,0:0:0:0:
193,15,143240,1,0,0:0:0:0:
234,58,143311,1,0,0:0:0:0:
243,117,143383,1,0,0:0:0:0:
216,171,143454,5,2,1:1:0:0:
182,239,143525,1,0,1:2:0:0:
194,314,143597,1,0,1:2:0:0:
246,369,143668,1,0,1:2:0:0:
322,384,143740,1,10,1:1:0:0:
392,351,143811,1,8,1:2:0:0:
430,286,143883,1,8,1:2:0:0:
425,209,143954,1,8,1:2:0:0:
375,150,144025,5,12,1:0:0:0:
