osu file format v14

[General]
AudioFilename: audio.mp3
AudioLeadIn: 0
PreviewTime: 68597
Countdown: 0
SampleSet: Soft
StackLeniency: 0.7
Mode: 0
LetterboxInBreaks: 0
WidescreenStoryboard: 1

[Editor]
Bookmarks: 30029,68886,107743
DistanceSpacing: 0.3
BeatDivisor: 4
GridSize: 4
TimelineZoom: 2.4

[Metadata]
Title:Kamui
TitleUnicode:神威
Artist:TJ.hangneil
ArtistUnicode:TJ.hangneil
Creator:Cellina
Version:Collab Insane
Source:Ez2Dj 7th TraX Class R Codename : Violet
Tags:video game sasakure.uk electronic instrumental ez2ac ez2on reboot:r chunithm air plus super star world's end ongeki オンゲキ groove coaster sabin sound star beomsan deviouspanda _epreus molang luscent dailycare atipir
BeatmapID:4290927
BeatmapSetID:2008761

[Difficulty]
HPDrainRate:5
CircleSize:4
OverallDifficulty:7.5
ApproachRate:9
SliderMultiplier:1.6
SliderTickRate:1

[Events]
//Background and Video events
0,0,"maxresdefault_2.jpg",0,0
//Break Periods
2,66440,67997
//Storyboard Layer 0 (Background)
//Storyboard Layer 1 (Fail)
//Storyboard Layer 2 (Pass)
//Storyboard Layer 3 (Foreground)
//Storyboard Layer 4 (Overlay)
//Storyboard Sound Samples

[TimingPoints]
2312,285.714285714286,4,2,1,40,1,0
2312,-125,4,2,1,40,0,0
11454,-100,4,2,1,60,0,0
29740,-100,4,2,1,70,0,0
70883,-100,4,2,1,75,0,0
107454,-90.9090909090909,4,2,1,85,0,1
144026,-90.9090909090909,4,2,1,85,0,0

[Colours]
Combo1 : 245,150,150
Combo2 : 249,91,91
Combo3 : 255,219,125
Combo4 : 145,98,255

[HitObjects]
57,62,2312,6,0,P|147:82|202:177,1,192,2|2,0:0|0:0,0:0:0:0:
147,276,3026,1,2,0:0:0:0:
262,328,3312,1,2,0:0:0:0:
314,213,3597,1,2,0:0:0:0:
199,161,3883,1,2,0:0:0:0:
262,328,4169,6,0,P|318:327|369:264,1,128,2|0,0:0|0:0,0:0:0:0:
465,253,4597,6,0,P|428:196|382:62,1,192,2|2,0:0|0:0,0:0:0:0:
254,24,5312,1,2,0:0:0:0:
199,161,5597,1,2,0:0:0:0:
330,217,5883,1,2,0:0:0:0:
385,80,6169,1,2,0:0:0:0:
199,161,6454,6,0,P|134:173|75:211,1,128,2|0,0:0|0:0,0:0:0:0:
44,3,6883,6,0,P|35:91|-4:194,1,192,2|2,0:0|0:0,0:0:0:0:
51,317,7597,1,2,0:0:0:0:
181,266,7883,1,2,0:0:0:0:
130,136,8169,1,2,0:0:0:0:
0,187,8454,1,2,0:0:0:0:
181,266,8740,6,0,P|239:256|261:197,1,128,2|0,0:0|0:0,0:0:0:0:
297,96,9169,6,0,P|326:34|448:14,1,192,2|2,0:0|0:0,0:0:0:0:
512,120,9883,1,2,0:0:0:0:
379,182,10169,5,2,0:0:0:0:
399,273,10312,1,0,0:0:0:0:
399,273,11454,6,0,P|316:289|219:331,1,160,6|8,1:2|0:0,0:0:0:0:
170,253,11883,1,2,0:0:0:0:
278,209,12026,1,0,0:0:0:0:
278,209,12169,2,0,P|232:189|211:151,1,80,2|8,1:2|0:0,0:0:0:0:
143,56,12454,2,0,P|133:98|95:123,1,80,2|0,0:0|1:2,0:0:0:0:
15,161,12740,5,2,0:0:0:0:
15,161,12883,1,8,0:0:0:0:
100,219,13026,2,0,P|70:259|56:304,1,80,2|0,0:0|0:0,0:0:0:0:
59,286,13240,1,0,0:0:0:0:
59,286,13312,1,2,1:2:0:0:
153,376,13454,2,0,P|205:335|273:312,1,120,8|0,0:0|0:0,0:0:0:0:
271,319,13740,6,0,B|321:335|321:335|353:200,1,160,2|8,1:2|0:0,0:0:0:0:
405,125,14169,2,0,L|425:172,2,40,2|0|0,0:0|0:0|0:0,0:0:0:0:
352,53,14454,2,0,L|306:120,1,80,2|8,1:2|0:0,0:0:0:0:
236,66,14740,5,2,0:0:0:0:
170,23,14883,2,0,P|205:90|224:186,1,160,0|8,1:2|0:0,0:0:0:0:
174,253,15312,1,2,0:0:0:0:
174,253,15383,1,0,0:0:0:0:
174,253,15454,1,0,0:0:0:0:
97,166,15597,2,0,P|79:209|53:232,1,80,2|8,1:2|0:0,0:0:0:0:
131,352,15883,5,2,0:0:0:0:
52,324,16026,2,0,L|224:278,1,160,2|8,1:2|0:0,0:0:0:0:
292,233,16454,1,2,0:0:0:0:
195,164,16597,1,0,0:0:0:0:
195,164,16740,2,0,P|212:127|243:103,1,80,2|8,1:2|0:0,0:0:0:0:
338,37,17026,2,0,P|291:29|256:9,1,80,2|0,0:0|1:2,0:0:0:0:
360,135,17312,5,2,0:0:0:0:
431,68,17454,2,0,L|458:179,1,80,8|2,0:0|0:0,0:0:0:0:
415,244,17740,1,0,0:0:0:0:
415,244,17883,1,2,1:2:0:0:
492,311,18026,2,0,P|428:332|378:368,1,120,8|0,0:0|0:0,0:0:0:0:
374,376,18312,6,0,P|340:313|260:287,1,160,2|8,1:2|0:0,0:0:0:0:
168,225,18740,2,0,P|121:217|98:182,1,80,2|0,0:0|0:0,0:0:0:0:
26,331,19026,2,0,P|73:310|76:274,1,80,2|8,1:2|0:0,0:0:0:0:
12,197,19312,1,2,0:0:0:0:
119,117,19454,6,0,L|164:133,7,40,2|0|2|0|10|0|2|0,1:2|0:0|0:0|0:0|0:0|0:0|0:0|0:0,0:0:0:0:
110,83,20026,2,0,L|81:47,7,40,2|0|2|0|10|0|2|0,0:0|0:0|1:2|0:0|0:0|0:0|0:0|0:0,0:0:0:0:
168,32,20597,6,0,P|235:39|296:127,1,160,4|8,1:2|0:0,0:0:0:0:
346,176,21026,1,0,0:0:0:0:
483,119,21169,1,2,0:0:0:0:
483,119,21312,2,0,P|438:142|431:181,1,80,0|8,1:2|0:0,0:0:0:0:
479,280,21597,5,0,0:0:0:0:
391,247,21740,2,0,P|314:264|236:315,1,160,2|8,1:2|0:0,0:0:0:0:
154,367,22169,2,0,P|143:344|125:328,2,40,0|0|2,0:0|0:0|0:0,0:0:0:0:
189,253,22454,1,0,1:2:0:0:
77,281,22597,2,0,P|106:225|123:161,1,120,8|0,0:0|0:0,0:0:0:0:
142,157,22883,6,0,P|97:125|92:17,1,160,2|8,1:2|0:0,0:0:0:0:
176,48,23312,1,0,0:0:0:0:
268,121,23454,1,2,0:0:0:0:
268,121,23597,2,0,P|227:153|222:202,1,80,0|8,1:2|0:0,0:0:0:0:
358,68,23883,5,0,0:0:0:0:
331,173,24026,2,0,P|341:238|405:318,1,160,2|8,1:2|0:0,0:0:0:0:
462,243,24454,2,0,P|484:259|508:262,2,40,0|0|2,0:0|0:0|0:0,0:0:0:0:
339,370,24740,1,0,1:2:0:0:
396,312,24883,2,0,P|349:281|277:260,1,120,8|0,0:0|0:0,0:0:0:0:
272,251,25169,6,0,P|251:224|254:189,5,53.3333333333333,0|2|0|8|2|0,1:2|0:1|0:0|0:0|0:1|0:0,0:0:0:0:
195,300,25740,6,0,P|214:317|240:323,5,53.3333333333333,0|2|0|8|2|0,0:0|0:1|0:0|0:0|0:1|0:0,0:0:0:0:
122,268,26312,6,0,P|102:292|97:323,5,53.3333333333333,0|2|0|8|2|0,1:2|0:1|0:0|0:0|0:1|0:0,0:0:0:0:
74,199,26883,6,0,P|97:186|123:182,5,53.3333333333333,0|2|0|8|2|0,0:0|0:1|0:0|0:0|0:1|0:0,0:0:0:0:
91,68,27454,6,0,L|82:107,15,40,0|0|0|0|0|0|0|0|8|0|0|0|0|0|8|0,1:2|0:0|0:0|0:0|0:0|0:0|0:0|0:0|0:0|0:0|0:0|0:0|0:0|0:0|0:0|0:0,0:0:0:0:
58,125,28597,6,0,L|68:169,7,40,0|0|0|0|0|0|0|0,1:2|0:0|0:0|0:0|1:2|0:0|0:0|0:0,0:0:0:0:
87,192,29169,5,0,1:2:0:0:
106,190,29240,1,0,1:2:0:0:
126,192,29311,1,0,1:2:0:0:
145,199,29383,1,0,1:2:0:0:
162,209,29454,1,8,1:2:0:0:
177,222,29526,1,8,1:2:0:0:
189,238,29597,1,8,1:2:0:0:
198,256,29669,1,8,1:2:0:0:
202,275,29740,6,0,P|290:296|369:321,1,160,6|8,1:2|0:0,0:0:0:0:
461,271,30169,1,2,0:0:0:0:
461,271,30312,2,0,P|451:222|445:186,1,80,0|2,0:0|1:2,0:0:0:0:
376,30,30597,6,0,P|454:35|493:115,2,160,8|0|8,0:0|1:2|0:0,0:0:0:0:
296,149,31312,1,2,0:0:0:0:
296,149,31454,2,0,P|339:163|373:177,1,80,0|2,0:0|1:2,0:0:0:0:
261,25,31740,2,0,P|231:63|202:89,1,80,10|0,0:0|0:0,0:0:0:0:
131,141,32026,6,0,P|69:102|90:21,1,160,2|8,1:2|0:0,0:0:0:0:
205,79,32454,2,0,P|174:160|162:259,1,160,2|2,0:0|1:2,0:0:0:0:
121,312,32883,2,0,P|53:333|28:346,1,80,8|2,0:0|0:0,0:0:0:0:
211,319,33169,6,0,B|293:332|278:358|362:366,1,160,2|10,1:1|0:0,0:0:0:0:
466,322,33597,1,2,0:1:0:0:
466,322,33669,1,0,0:0:0:0:
466,322,33740,2,0,P|455:272|450:239,1,80,2|2,0:0|1:1,0:0:0:0:
362,126,34026,2,0,P|335:176|331:223,1,80,10|2,0:0|0:1,0:0:0:0:
286,92,34312,6,0,P|367:93|413:12,1,160,0|8,1:2|0:0,0:0:0:0:
240,23,34740,2,0,P|181:47|155:67,1,80,2|0,0:0|0:0,0:0:0:0:
107,141,35026,1,2,1:2:0:0:
192,205,35169,2,0,P|209:147|229:107,1,80,8|2,0:0|0:0,0:0:0:0:
55,0,35454,6,0,P|88:108|103:186,1,160,0|8,1:2|0:0,0:0:0:0:
90,253,35883,1,2,0:0:0:0:
90,253,35954,1,0,0:0:0:0:
90,253,36026,2,0,P|36:275|11:292,1,80,0|2,0:0|1:2,0:0:0:0:
177,297,36312,2,0,P|153:336|136:377,1,80,8|2,0:0|0:0,0:0:0:0:
286,273,36597,6,0,P|375:297|409:372,1,160,2|8,1:2|0:0,0:0:0:0:
452,250,37026,2,0,P|458:200|474:144,2,80,2|0|2,0:0|0:0|1:2,0:0:0:0:
294,187,37454,2,0,P|289:226|281:265,1,80,8|2,0:0|0:0,0:0:0:0:
199,372,37740,6,0,L|133:360,5,53.3333333333333,0|2|0|8|2|0,1:2|0:1|0:0|0:0|0:1|0:0,0:0:0:0:
132,349,38312,2,0,L|79:358,5,53.3333333333333,0|2|0|8|2|0,0:0|0:1|0:0|0:0|0:1|0:0,0:0:0:0:
60,374,38883,6,0,P|36:277|46:192,1,160,6|8,1:2|0:0,0:0:0:0:
157,124,39312,1,2,0:0:0:0:
220,172,39454,2,0,P|234:213|234:259,1,80,0|2,0:0|1:2,0:0:0:0:
77,122,39740,6,0,P|158:106|193:22,1,160,8|0,0:0|1:2,0:0:0:0:
281,73,40169,1,2,0:0:0:0:
281,73,40312,2,0,P|340:85|369:87,1,80,8|2,0:0|0:0,0:0:0:0:
320,192,40597,2,0,B|409:196|388:233|471:237,1,160,0|8,0:0|0:0,0:0:0:0:
471,237,41026,1,0,0:0:0:0:
353,354,41169,6,0,P|341:298|350:253,1,80,2|0,1:2|0:0,0:0:0:0:
463,117,41454,1,8,0:0:0:0:
463,117,41597,2,0,P|488:188|485:281,1,160,2|2,0:0|1:2,0:0:0:0:
277,202,42026,2,0,P|319:185|376:187,1,80,8|2,0:0|0:0,0:0:0:0:
341,350,42312,6,0,P|284:331|229:323,1,80,0|2,1:2|0:0,0:0:0:0:
97,304,42597,1,8,0:0:0:0:
166,370,42740,1,2,0:0:0:0:
166,370,42811,1,0,0:0:0:0:
166,370,42883,2,0,P|177:322|192:284,1,80,0|2,0:0|1:2,0:0:0:0:
12,187,43169,2,0,P|13:232|26:275,1,80,8|0,0:0|0:0,0:0:0:0:
127,199,43454,6,0,L|176:179,7,40,2|0|0|0|8|0|2|0,1:2|0:0|0:0|0:0|0:0|0:0|0:0|0:0,0:0:0:0:
179,192,44026,2,0,L|210:139,7,40,0|0|2|0|8|0|2|0,0:0|0:0|1:2|0:0|0:0|0:0|0:0|0:0,0:0:0:0:
219,72,44597,5,0,1:2:0:0:
219,72,44669,1,0,0:0:0:0:
219,72,44740,1,2,0:0:0:0:
219,72,44812,1,0,0:0:0:0:
219,72,44883,2,0,L|268:87,3,40,8|0|2|0,0:0|0:0|0:0|0:0,0:0:0:0:
316,165,45169,5,0,0:0:0:0:
316,165,45241,1,0,0:0:0:0:
316,165,45312,1,2,1:2:0:0:
316,165,45384,1,0,0:0:0:0:
316,165,45455,2,0,L|365:150,3,40,8|0|0|0,0:0|0:0|0:0|0:0,0:0:0:0:
389,88,45740,5,2,1:2:0:0:
256,192,45812,12,8,47740,1:2:0:0:
129,47,48026,6,0,P|86:128|79:202,1,160,6|8,1:2|0:0,0:0:0:0:
133,281,48454,1,2,0:0:0:0:
133,281,48526,1,0,0:0:0:0:
133,281,48597,2,0,P|71:314|40:332,1,80,0|0,0:0|1:2,0:0:0:0:
225,286,48883,2,0,P|221:353|222:384,1,80,8|2,0:0|0:0,0:0:0:0:
334,283,49169,6,0,P|398:298|441:317,1,80,0|0,1:2|0:0,0:0:0:0:
475,227,49454,2,0,P|483:155|424:136,1,120,10|0,0:0|0:0,0:0:0:0:
456,117,49740,2,0,P|401:102|355:88,1,80,2|0,0:0|1:2,0:0:0:0:
265,38,50026,1,8,0:0:0:0:
293,156,50169,1,2,0:0:0:0:
209,111,50312,5,0,1:2:0:0:
209,111,50454,2,0,P|192:167|190:204,2,80,2|8|0,0:0|0:0|0:0,0:0:0:0:
358,254,50883,1,0,0:0:0:0:
358,254,51025,2,0,P|375:198|377:161,2,80,2|8|0,1:2|0:0|0:0,0:0:0:0:
408,328,51454,6,0,P|340:268|248:282,1,160,2|10,1:1|0:0,0:0:0:0:
174,376,51883,1,2,0:1:0:0:
174,376,51954,1,0,0:0:0:0:
174,376,52026,2,0,P|236:359|266:356,1,80,2|2,0:0|1:1,0:0:0:0:
124,227,52312,2,0,P|111:289|98:327,1,80,10|2,0:0|0:1,0:0:0:0:
272,277,52597,6,0,P|239:188|228:111,1,160,4|8,1:2|0:0,0:0:0:0:
127,30,53026,2,0,P|50:65|58:143,1,160,2|0,0:0|1:2,0:0:0:0:
129,221,53454,2,0,P|136:173|147:133,1,80,8|2,0:0|0:0,0:0:0:0:
218,39,53740,6,0,P|259:52|314:78,1,80,0|0,1:2|0:0,0:0:0:0:
353,163,54026,2,0,B|417:177|400:196|464:205,1,120,10|0,0:0|0:0,0:0:0:0:
484,222,54312,2,0,P|494:165|504:130,1,80,2|0,0:0|1:2,0:0:0:0:
428,16,54597,2,0,P|418:73|408:108,1,80,8|2,0:0|0:0,0:0:0:0:
355,183,54883,5,0,1:2:0:0:
355,183,55026,2,0,P|309:205|276:227,1,80,2|8,0:0|0:0,0:0:0:0:
279,314,55312,1,0,0:0:0:0:
279,314,55383,1,0,0:0:0:0:
279,314,55454,2,0,P|329:335|360:355,1,80,0|2,0:0|1:2,0:0:0:0:
192,374,55740,2,0,P|175:326|173:284,1,80,8|0,0:0|0:0,0:0:0:0:
127,201,56026,6,0,L|74:187,3,40,2|0|2|0,1:2|0:0|0:0|0:0,0:0:0:0:
69,202,56312,2,0,L|44:152,3,40,10|0|2|0,0:0|0:0|0:0|0:0,0:0:0:0:
71,86,56597,1,2,0:0:0:0:
71,86,56669,1,0,0:0:0:0:
71,86,56740,1,2,1:2:0:0:
71,86,56812,1,0,0:0:0:0:
71,86,56883,2,0,L|128:72,3,40,10|0|2|0,0:0|0:0|0:0|0:0,0:0:0:0:
205,38,57169,6,0,L|217:89,7,40,0|0|0|0|0|0|0|0,1:2|0:0|0:0|0:0|0:0|0:0|0:0|0:0,0:0:0:0:
236,95,57740,2,0,L|226:133,7,40,10|0|0|0|0|0|8|0,0:0|0:0|0:0|0:0|0:0|0:0|0:0|0:0,0:0:0:0:
274,201,58312,6,0,L|320:213,7,40,2|0|0|0|0|0|0|0,1:2|0:0|0:0|0:0|1:2|0:0|0:0|0:0,0:0:0:0:
335,234,58883,2,0,L|381:222,7,40,10|0|0|0|0|0|0|0,0:0|0:0|1:2|0:0|0:0|0:0|0:0|0:0,0:0:0:0:
468,272,59454,5,2,1:2:0:0:
468,272,59526,1,0,0:0:0:0:
468,272,59597,1,0,0:0:0:0:
468,272,59669,1,0,0:0:0:0:
468,272,59740,2,0,L|452:334,3,40
471,338,60026,2,0,L|420:355,7,40,10|0|0|0|0|0|8|0,0:0|0:0|0:0|0:0|0:0|0:0|0:0|0:0,0:0:0:0:
332,340,60597,6,0,L|291:333,7,40,2|0|0|0|0|0|0|0,1:2|0:0|0:0|0:0|1:2|0:0|0:0|0:0,0:0:0:0:
275,350,61169,2,0,L|234:357,7,40,10|0|0|0|0|0|0|0,0:0|0:0|1:2|0:0|0:0|0:0|0:0|0:0,0:0:0:0:
135,320,61740,6,0,L|115:276,7,40,0|0|0|0|0|0|0|0,1:2|0:0|0:0|0:0|0:0|0:0|0:0|0:0,0:0:0:0:
90,282,62312,2,0,L|104:227,7,40,8|0|0|0|0|0|8|0,0:0|0:0|0:0|0:0|0:0|0:0|0:0|0:0,0:0:0:0:
162,169,62883,5,0,1:2:0:0:
162,169,62954,1,0,0:0:0:0:
162,169,63026,1,0,0:0:0:0:
162,169,63097,1,0,0:0:0:0:
162,169,63169,2,0,L|101:152,3,40,0|0|2|0,1:2|0:0|0:0|0:0,0:0:0:0:
105,143,63454,2,0,L|37:157,7,40,8|2|2|0|0|0|2|0,0:0|0:0|1:2|0:0|0:0|0:0|0:0|0:0,0:0:0:0:
210,105,64026,6,0,L|219:59,7,40,0|0|0|0|0|0|0|0,1:2|0:0|0:0|0:0|0:0|0:0|0:0|0:0,0:0:0:0:
228,125,64597,2,0,L|235:164,7,40,8|0|0|0|0|0|8|0,0:0|0:0|0:0|0:0|0:0|0:0|0:0|0:0,0:0:0:0:
320,143,65169,5,0,1:2:0:0:
320,143,65240,1,0,0:0:0:0:
320,143,65312,1,0,0:0:0:0:
320,143,65383,1,0,0:0:0:0:
320,143,65454,2,0,L|376:153,3,40,0|0|0|0,1:2|0:0|0:0|0:0,0:0:0:0:
438,240,65740,5,8,1:2:0:0:
438,240,65812,1,8,1:2:0:0:
438,240,65883,1,8,1:2:0:0:
438,240,65954,1,8,1:2:0:0:
438,240,66026,1,8,1:2:0:0:
438,240,66097,1,8,1:2:0:0:
438,240,66169,1,8,1:2:0:0:
438,240,66240,1,8,1:2:0:0:
175,92,68597,6,0,P|162:171|120:255,1,160,2|2,0:0|0:0,0:0:0:0:
337,292,69026,1,0,0:0:0:0:
337,292,69169,2,0,P|350:213|392:129,1,160,2|2,0:0|0:0,0:0:0:0:
256,192,69597,1,0,0:0:0:0:
256,192,69740,6,0,L|241:242,15,40,2|0|0|0|2|0|0|0|0|0|0|0|2|2|2|2,0:0|0:0|0:0|0:0|0:0|0:0|0:0|0:0|3:0|3:0|3:0|3:0|3:0|3:0|3:0|3:0,0:0:0:0:
253,263,70883,6,0,P|179:287|140:378,1,160,6|10,1:2|0:0,0:0:0:0:
4,226,71312,1,2,0:0:0:0:
28,300,71454,2,0,P|74:288|94:248,1,80,0|2,0:0|1:2,0:0:0:0:
156,155,71740,1,8,0:0:0:0:
156,155,71883,1,2,0:0:0:0:
59,68,72026,6,0,B|87:22|87:22|203:56,1,160,2|10,1:2|0:0,0:0:0:0:
268,142,72454,1,2,0:0:0:0:
403,112,72597,2,0,P|360:136|351:175,1,80,0|2,0:0|1:2,0:0:0:0:
326,284,72883,5,10,0:0:0:0:
412,230,73026,1,2,0:0:0:0:
326,284,73169,2,0,P|419:323|454:376,1,160,2|8,1:2|0:0,0:0:0:0:
474,175,73597,1,2,0:0:0:0:
474,175,73740,2,0,P|518:207|514:252,1,80,2|2,0:0|1:2,0:0:0:0:
403,112,74026,2,0,P|443:84|446:54,1,80,8|2,0:0|0:0,0:0:0:0:
195,75,74312,6,0,L|364:23,1,160,2|10,1:1|0:0,0:0:0:0:
220,170,74740,2,0,L|138:143,1,80,2|2,0:1|0:0,0:0:0:0:
35,99,75026,5,2,1:1:0:0:
59,201,75169,1,10,0:0:0:0:
144,144,75312,1,2,0:1:0:0:
241,251,75454,6,0,P|208:322|113:343,1,160,2|10,1:2|0:0,0:0:0:0:
324,268,75883,1,2,0:0:0:0:
324,268,76026,2,0,P|328:310|363:336,1,80,0|2,0:0|1:2,0:0:0:0:
487,296,76312,1,8,0:0:0:0:
487,296,76454,1,2,0:0:0:0:
389,207,76597,6,0,P|425:137|440:42,1,160,2|10,1:2|0:0,0:0:0:0:
334,0,77026,1,2,0:0:0:0:
268,84,77169,2,0,P|307:100|333:141,1,80,0|0,0:0|1:2,0:0:0:0:
396,222,77454,1,10,0:0:0:0:
492,186,77597,1,2,0:0:0:0:
416,119,77740,6,0,L|237:179,1,160,2|8,1:2|0:0,0:0:0:0:
154,261,78169,1,2,0:0:0:0:
154,261,78312,2,0,P|195:278|209:314,1,80,2|2,0:0|1:2,0:0:0:0:
18,268,78597,2,0,P|59:247|71:196,1,80,10|0,0:0|0:0,0:0:0:0:
194,119,78883,6,0,P|169:135|153:165,5,53.3333333333333,0|2|0|8|2|0,1:2|0:1|0:0|0:0|0:1|0:0,0:0:0:0:
71,217,79454,6,0,P|110:242|119:273,5,53.3333333333333,0|2|0|8|2|0,0:0|0:1|0:0|0:0|0:1|0:0,0:0:0:0:
65,355,80026,6,0,P|54:336|33:323,7,40,2|0|0|0|0|0|0|0,1:2|0:0|0:0|0:0|0:0|0:0|0:0|0:0,0:0:0:0:
4,242,80597,5,10,0:0:0:0:
9,225,80669,1,0,0:0:0:0:
20,211,80740,1,0,0:0:0:0:
35,201,80812,1,0,0:0:0:0:
52,196,80883,2,0,P|77:201|91:217,3,40,0|0|8|0,0:0|0:0|0:0|0:0,0:0:0:0:
183,253,81169,5,2,1:2:0:0:
183,253,81240,1,0,0:0:0:0:
183,253,81312,2,0,L|200:205,1,40
288,144,81454,2,0,L|308:201,3,40,0|0|0|0,1:2|0:0|0:0|0:0,0:0:0:0:
390,123,81740,6,0,L|359:85,1,40,10|0,0:0|0:0,0:0:0:0:
265,0,81883,2,0,L|239:43,5,40,0|0|0|0|0|0,1:2|0:0|0:0|0:0|0:0|0:0,0:0:0:0:
155,125,82312,5,2,1:2:0:0:
137,127,82383,1,0,0:0:0:0:
120,121,82454,1,0,0:0:0:0:
107,108,82526,1,0,0:0:0:0:
100,91,82597,2,0,P|111:68|131:51,3,40
10,161,82883,5,10,0:0:0:0:
9,179,82954,1,0,0:0:0:0:
15,195,83025,1,0,0:0:0:0:
30,207,83097,1,0,0:0:0:0:
47,212,83168,2,0,P|68:198|93:197,3,40,0|0|8|0,0:0|0:0|0:0|0:0,0:0:0:0:
144,264,83454,6,0,L|203:246,7,40,2|0|0|0|0|0|0|0,1:2|0:0|0:0|0:0|1:2|0:0|0:0|0:0,0:0:0:0:
238,193,84026,2,0,L|276:205,7,40,10|0|0|0|0|0|8|0,1:2|1:2|1:2|1:2|1:2|1:2|1:2|1:2,0:0:0:0:
336,270,84597,6,0,P|401:259|460:157,1,160,6|10,1:2|0:0,0:0:0:0:
393,99,85026,1,2,0:0:0:0:
439,26,85169,2,0,P|480:35|502:76,1,80,0|2,0:0|1:2,0:0:0:0:
335,158,85454,1,8,0:0:0:0:
335,158,85597,1,2,0:0:0:0:
254,71,85740,6,0,P|191:104|92:131,1,160,2|10,1:1|0:0,0:0:0:0:
36,221,86169,1,2,0:1:0:0:
36,221,86312,2,0,P|81:240|98:279,1,80,2|2,0:0|1:1,0:0:0:0:
95,265,86526,1,0,0:0:0:0:
95,265,86597,1,10,0:0:0:0:
185,218,86740,1,2,0:1:0:0:
253,298,86883,6,0,P|189:315|87:389,1,160,2|8,1:1|0:0,0:0:0:0:
256,315,87312,2,0,P|288:269|327:240,1,80,2|0,0:1|0:0,0:0:0:0:
391,178,87597,1,2,1:2:0:0:
419,277,87740,1,8,0:0:0:0:
503,217,87883,1,2,0:1:0:0:
391,178,88026,6,0,P|328:144|322:52,1,160,0|10,1:2|0:1,0:0:0:0:
403,18,88454,2,0,P|425:14|440:1,2,40,0|0|2,0:0|0:0|0:1,0:0:0:0:
255,9,88740,5,2,1:1:0:0:
199,83,88883,1,10,0:1:0:0:
106,65,89026,1,2,0:1:0:0:
33,129,89169,6,0,P|65:188|92:312,1,160,6|10,1:2|0:0,0:0:0:0:
239,367,89597,1,2,0:0:0:0:
201,298,89740,2,0,P|162:316|149:365,1,80,0|2,0:0|1:2,0:0:0:0:
323,291,90026,1,8,0:0:0:0:
323,291,90169,1,2,0:0:0:0:
265,196,90312,6,0,P|189:197|102:237,1,160,2|10,1:2|0:0,0:0:0:0:
168,99,90740,2,0,P|118:87|102:51,1,80,2|2,0:0|0:0,0:0:0:0:
283,38,91026,2,0,P|263:72|252:111,1,80,0|10,1:2|0:0,0:0:0:0:
389,75,91312,5,2,0:0:0:0:
351,157,91454,2,0,P|380:219|440:300,1,160,2|8,1:2|0:0,0:0:0:0:
296,360,91883,1,2,0:0:0:0:
296,360,92026,2,0,P|316:306|344:294,1,80,2|2,0:0|1:2,0:0:0:0:
464,199,92312,1,10,0:0:0:0:
464,199,92454,1,0,0:0:0:0:
351,157,92597,6,0,P|309:190|195:224,1,160,2|10,1:1|0:0,0:0:0:0:
219,107,93026,2,0,P|175:95|143:72,1,80,2|2,0:1|0:0,0:0:0:0:
30,45,93312,1,2,1:1:0:0:
85,126,93454,1,10,0:0:0:0:
0,172,93597,1,2,0:1:0:0:
123,211,93740,6,0,P|180:251|191:361,1,160,2|10,1:2|0:0,0:0:0:0:
295,370,94169,1,2,0:0:0:0:
295,370,94312,2,0,P|323:336|366:328,1,80,0|2,0:0|1:2,0:0:0:0:
303,246,94597,1,8,0:0:0:0:
303,246,94740,1,2,0:0:0:0:
414,270,94883,6,0,P|392:190|356:119,1,160,2|10,1:2|0:0,0:0:0:0:
270,149,95312,1,2,0:0:0:0:
222,71,95454,2,0,P|201:85|190:108,3,40,2|0|0|0,0:0|0:0|0:0|0:0,0:0:0:0:
170,106,95740,5,10,0:0:0:0:
106,24,95883,1,2,0:0:0:0:
79,143,96026,6,0,P|40:203|9:299,1,160,2|10,1:2|0:0,0:0:0:0:
145,276,96454,2,0,P|156:314|187:356,1,80,2|0,0:0|0:0,0:0:0:0:
259,239,96740,1,2,1:2:0:0:
350,265,96883,1,10,0:0:0:0:
372,168,97026,1,2,0:0:0:0:
474,207,97169,6,0,P|495:136|443:71,1,160,0|10,1:2|0:0,0:0:0:0:
349,5,97597,2,0,P|338:26|318:39,2,40,2|0|2,0:0|0:0|0:0,0:0:0:0:
235,66,97883,2,0,P|274:92|297:132,1,80,2|10,1:2|0:0,0:0:0:0:
372,168,98169,1,2,0:0:0:0:
252,212,98312,6,0,P|219:272|201:370,1,160,0|8,1:2|0:0,0:0:0:0:
115,359,98740,1,0,0:0:0:0:
69,283,98883,2,0,P|102:258|148:241,1,80,2|0,0:0|1:2,0:0:0:0:
103,156,99169,2,0,P|60:144|31:116,1,80,8|0,0:0|0:0,0:0:0:0:
130,5,99454,6,0,P|151:68|213:159,1,160,2|8,1:2|0:0,0:0:0:0:
312,93,99883,1,0,0:0:0:0:
358,173,100026,2,0,P|286:187|242:271,1,160,2|8,0:0|0:0,0:0:0:0:
423,373,100597,6,0,P|466:350|507:341,1,80,2|0,1:2|0:0,0:0:0:0:
460,247,100883,2,0,P|417:270|376:279,1,80,8|0,0:0|0:0,0:0:0:0:
289,327,101169,2,0,P|222:292|137:265,1,160,2|8,0:0|0:0,0:0:0:0:
58,200,101597,1,0,0:0:0:0:
62,306,101740,6,0,P|74:321|78:340,2,40,2|0|0,1:2|0:0|0:0,0:0:0:0:
186,246,102026,1,8,0:0:0:0:
186,246,102169,1,0,0:0:0:0:
125,160,102312,2,0,P|163:96|189:4,1,160,2|8,0:0|0:0,0:0:0:0:
473,12,102883,6,0,P|453:75|352:116,1,160,2|10,1:2|0:0,0:0:0:0:
306,52,103312,1,2,0:0:0:0:
255,152,103454,2,0,P|296:169|324:213,1,80,0|2,0:0|1:2,0:0:0:0:
414,295,103740,2,0,P|451:275|460:240,1,80,8|0,0:0|0:0,0:0:0:0:
312,273,104026,6,0,L|252:288,5,40,2|0|0|0|10|0,1:1|0:0|0:0|0:0|0:0|0:0,0:0:0:0:
256,305,104454,1,2,0:1:0:0:
137,272,104597,1,2,0:0:0:0:
137,272,104669,1,0,0:0:0:0:
137,272,104740,2,0,P|137:318|161:343,1,80,2|8,1:1|0:0,0:0:0:0:
82,179,105026,6,0,P|51:248|-8:336,1,160,2|0,0:1|0:0,0:0:0:0:
74,163,105454,2,0,P|124:151|159:132,1,80,10|2,0:0|0:0,0:0:0:0:
195,47,105740,1,0,0:0:0:0:
195,47,105883,1,2,1:2:0:0:
55,5,106026,2,0,P|91:29|106:67,1,80,8|2,0:0|0:0,0:0:0:0:
218,193,106312,6,0,P|280:152|366:120,1,160,0|8,1:2|0:0,0:0:0:0:
405,225,106740,1,0,0:0:0:0:
300,274,106883,2,0,P|305:255|315:238,7,40,0|0|0|0|8|8|8|8,1:2|1:2|1:2|1:2|1:2|1:2|1:2|1:2,0:0:0:0:
296,213,107454,6,0,P|276:116|241:23,1,176.000005371094,6|10,1:1|0:0,0:0:0:0:
129,26,107883,2,0,P|105:62|77:133,1,88.000002685547,2|0,0:1|0:1,0:0:0:0:
170,129,108169,1,2,1:2:0:0:
29,224,108312,2,0,P|77:195|143:182,1,88.000002685547,10|0,0:1|0:0,0:0:0:0:
160,346,108597,6,0,P|225:298|195:207,2,176.000005371094,2|10|2,1:2|0:0|0:1,0:0:0:0:
76,384,109312,1,0,1:2:0:0:
76,384,109454,2,0,P|61:338|54:285,1,88.000002685547,10|0,0:0|0:0,0:0:0:0:
115,222,109740,6,0,P|228:241|313:281,1,176.000005371094,2|8,1:1|0:0,0:0:0:0:
377,357,110169,2,0,P|458:323|447:236,1,176.000005371094,2|2,0:1|1:2,0:0:0:0:
378,113,110597,2,0,P|361:159|355:212,1,88.000002685547,10|2,0:1|0:0,0:0:0:0:
311,49,110883,6,0,B|414:75|372:92|472:115,1,176.000005371094,2|10,1:1|0:0,0:0:0:0:
292,140,111312,1,2,0:1:0:0:
292,140,111383,1,0,0:0:0:0:
292,140,111454,2,0,P|236:158|203:176,1,88.000002685547,2|2,0:0|1:1,0:0:0:0:
51,108,111740,2,0,P|41:76|70:27,1,88.000002685547,10|2,0:0|0:1,0:0:0:0:
174,24,112026,6,0,P|141:95|126:199,1,176.000005371094,2|10,1:1|0:0,0:0:0:0:
147,313,112454,2,0,P|117:353|53:370,1,88.000002685547,2|0,0:1|0:0,0:0:0:0:
0,231,112740,1,2,1:2:0:0:
0,231,112883,2,0,P|42:248|91:264,1,88.000002685547,10|2,0:1|0:0,0:0:0:0:
221,374,113169,6,0,B|324:348|282:331|382:307,2,176.000005371094,2|10|2,1:2|0:0|0:1,0:0:0:0:
320,224,113883,1,0,1:0:0:0:
249,261,114026,2,0,P|216:218|236:162,1,88.000002685547,10|0,0:1|0:0,0:0:0:0:
326,49,114312,6,0,P|420:62|443:136,1,176.000005371094,2|10,1:1|0:0,0:0:0:0:
490,213,114740,2,0,P|455:289|371:293,1,176.000005371094,2|2,0:1|1:2,0:0:0:0:
336,220,115169,2,0,P|325:165|336:116,1,88.000002685547,10|2,0:1|0:0,0:0:0:0:
253,59,115454,6,0,L|187:73,5,58.6666684570313,0|2|0|8|2|0,1:2|0:1|0:0|0:0|0:1|0:0,0:0:0:0:
175,87,116026,2,0,L|109:73,5,58.6666684570313,0|2|0|8|2|0,0:0|0:1|0:0|0:0|0:1|0:0,0:0:0:0:
106,54,116597,6,0,P|28:98|28:218,1,176.000005371094,6|10,1:1|0:0,0:0:0:0:
161,254,117026,2,0,P|170:201|187:154,1,88.000002685547,2|2,0:1|0:0,0:0:0:0:
299,55,117312,1,2,1:2:0:0:
299,55,117454,2,0,P|220:80|198:82,1,88.000002685547,10|2,0:1|0:0,0:0:0:0:
281,160,117740,6,0,P|373:171|432:77,1,176.000005371094,0|10,1:2|0:0,0:0:0:0:
407,251,118169,1,0,0:0:0:0:
477,201,118312,2,0,P|488:243|483:295,1,88.000002685547,2|2,0:1|1:2,0:0:0:0:
338,366,118597,2,0,P|327:324|332:272,1,88.000002685547,10|0,0:0|0:0,0:0:0:0:
235,328,118883,6,0,B|139:331|164:364|65:368,1,176.000005371094,2|10,1:1|0:0,0:0:0:0:
51,208,119312,2,0,P|79:257|91:295,1,88.000002685547,2|2,0:1|0:0,0:0:0:0:
170,147,119597,1,2,1:2:0:0:
170,147,119740,2,0,P|106:126|62:100,1,88.000002685547,10|2,0:1|0:0,0:0:0:0:
229,228,120026,6,0,P|292:168|255:78,2,176.000005371094,2|10|2,1:2|0:1|0:1,0:0:0:0:
289,315,120740,1,0,1:2:0:0:
289,315,120812,1,0,0:0:0:0:
289,315,120883,2,0,P|343:326|392:338,1,88.000002685547,10|2,0:1|0:0,0:0:0:0:
441,274,121169,6,0,P|456:173|440:88,1,176.000005371094,2|10,1:1|0:0,0:0:0:0:
238,34,121597,2,0,P|226:120|241:207,1,176.000005371094,2|0,0:1|1:2,0:0:0:0:
331,171,122026,1,10,0:1:0:0:
309,281,122169,5,2,0:0:0:0:
309,281,122241,1,0,0:0:0:0:
309,281,122312,2,0,P|205:300|136:332,1,176.000005371094,2|10,1:1|0:0,0:0:0:0:
45,251,122740,1,2,0:1:0:0:
45,251,122883,2,0,P|30:203|28:151,1,88.000002685547,2|2,0:0|1:1,0:0:0:0:
174,71,123169,2,0,P|189:119|191:171,1,88.000002685547,10|2,0:0|0:1,0:0:0:0:
154,234,123454,6,0,P|197:181|305:178,1,176.000005371094,2|8,1:1|0:0,0:0:0:0:
414,285,123883,2,0,P|371:338|263:341,1,176.000005371094,2|0,0:1|1:2,0:0:0:0:
137,367,124312,5,8,0:0:0:0:
137,367,124383,1,0,0:0:0:0:
137,367,124454,2,0,P|119:264|122:170,1,176.000005371094,2|0,0:1|0:0,0:0:0:0:
260,74,124883,2,0,P|276:133|274:182,1,88.000002685547,10|0,0:1|0:0,0:0:0:0:
361,271,125169,5,2,1:1:0:0:
361,271,125240,1,0,1:2:0:0:
361,271,125312,1,0,1:2:0:0:
361,271,125383,1,0,1:2:0:0:
361,271,125454,2,0,L|423:284,3,44.0000013427735,8|8|8|8,1:2|1:2|1:2|1:2,0:0:0:0:
422,302,125740,6,0,P|470:263|456:157,1,176.000005371094,6|10,1:1|0:0,0:0:0:0:
374,51,126169,2,0,P|362:102|359:155,2,88.000002685547,2|0|2,0:1|0:0|1:2,0:0:0:0:
248,158,126597,2,0,P|287:184|328:219,1,88.000002685547,10|0,0:1|0:0,0:0:0:0:
305,337,126883,5,0,1:2:0:0:
305,337,127026,2,0,P|206:354|94:344,1,176.000005371094,2|2,0:1|0:0,0:0:0:0:
62,174,127454,2,0,P|161:157|273:167,1,176.000005371094,2|10,0:1|0:0,0:0:0:0:
391,260,127883,5,2,0:1:0:0:
391,260,128026,2,0,P|459:203|433:110,1,176.000005371094,2|10,1:2|0:1,0:0:0:0:
283,8,128454,2,0,P|216:60|227:143,1,176.000005371094,2|2,0:0|1:1,0:0:0:0:
214,259,128883,2,0,P|271:248|305:213,1,88.000002685547,10|0,0:0|0:0,0:0:0:0:
368,91,129169,6,0,P|420:100|486:120,2,88.000002685547,2|2|10,1:1|0:0|0:0,0:0:0:0:
277,128,129597,1,2,0:1:0:0:
277,128,129669,1,0,0:0:0:0:
277,128,129740,2,0,P|209:141|158:154,1,88.000002685547,2|2,0:0|1:2,0:0:0:0:
121,88,130026,2,0,P|78:78|34:70,1,88.000002685547,10|2,0:1|0:0,0:0:0:0:
180,29,130312,6,0,P|152:130|138:218,1,176.000005371094,2|10,1:2|0:0,0:0:0:0:
95,359,130740,2,0,P|31:328|57:237,1,176.000005371094,2|0,0:0|1:2,0:0:0:0:
220,258,131169,2,0,P|221:310|181:350,1,88.000002685547,10|2,0:0|0:1,0:0:0:0:
149,207,131454,6,0,P|250:236|333:249,1,176.000005371094,0|10,1:2|0:1,0:0:0:0:
381,363,131883,1,2,0:0:0:0:
381,363,131954,1,0,0:0:0:0:
381,363,132026,2,0,P|401:294|414:258,1,88.000002685547,2|2,0:0|1:1,0:0:0:0:
349,75,132312,2,0,P|318:114|308:170,1,88.000002685547,10|0,0:0|0:0,0:0:0:0:
385,184,132597,6,0,P|469:195|503:273,1,176.000005371094,2|10,1:1|0:0,0:0:0:0:
371,352,133026,2,0,P|307:364|264:375,2,88.000002685547,2|2|0,0:1|0:0|1:2,0:0:0:0:
301,255,133454,2,0,P|266:199|261:145,1,88.000002685547,10|2,0:1|0:0,0:0:0:0:
312,55,133740,5,2,1:2:0:0:
312,55,133883,2,0,P|218:29|143:91,1,176.000005371094,2|2,0:1|0:0,0:0:0:0:
33,205,134312,2,0,P|17:145|19:93,1,88.000002685547,2|0,0:1|1:2,0:0:0:0:
174,152,134597,2,0,P|190:212|188:264,1,88.000002685547,10|2,0:1|0:0,0:0:0:0:
118,282,134883,6,0,P|205:284|276:334,1,176.000005371094,6|10,1:1|0:0,0:0:0:0:
440,299,135312,2,0,P|454:247|455:200,1,88.000002685547,2|0,0:1|0:0,0:0:0:0:
364,207,135597,1,0,1:2:0:0:
290,139,135740,2,0,P|276:191|275:238,1,88.000002685547,10|2,0:1|0:0,0:0:0:0:
364,207,136026,5,0,1:2:0:0:
364,207,136169,2,0,P|385:113|409:32,1,176.000005371094,2|2,0:1|0:0,0:0:0:0:
307,48,136597,2,0,B|210:67|239:100|148:118,1,176.000005371094,2|10,0:1|0:0,0:0:0:0:
62,175,137026,1,2,0:1:0:0:
62,175,137169,6,0,P|4:132|36:34,1,176.000005371094,2|10,1:2|0:1,0:0:0:0:
160,133,137597,2,0,P|143:208|141:240,2,88.000002685547,2|2|2,0:0|0:0|1:1,0:0:0:0:
241,198,138026,2,0,P|301:214|331:229,1,88.000002685547,8|2,0:0|0:0,0:0:0:0:
397,188,138312,6,0,P|356:272|329:354,1,176.000005371094,2|10,1:1|0:0,0:0:0:0:
186,343,138740,1,2,0:1:0:0:
186,343,138812,1,0,0:0:0:0:
186,343,138883,2,0,P|229:312|268:291,1,88.000002685547,2|2,0:0|1:2,0:0:0:0:
411,366,139169,2,0,P|444:323|443:286,1,88.000002685547,10|2,0:1|0:0,0:0:0:0:
411,175,139454,6,0,L|397:103,7,44.0000013427735,0|0|2|0|8|0|0|0,1:1|0:0|0:1|0:0|0:0|0:0|0:0|0:0,0:0:0:0:
383,123,140026,2,0,L|397:51,7,44.0000013427735,2|0|0|0|8|0|2|0,0:1|0:0|1:2|0:0|0:0|0:0|0:1|0:0,0:0:0:0:
323,39,140597,6,0,L|263:54,7,44.0000013427735,0|0|0|0|10|0|0|0,1:2|0:0|0:0|0:0|0:1|0:0|0:0|0:0,0:0:0:0:
260,63,141169,2,0,L|217:52,7,44.0000013427735,0|0|2|0|8|0|0|0,0:0|0:0|1:1|0:0|0:1|0:0|0:0|0:0,0:0:0:0:
122,44,141740,5,2,1:1:0:0:
122,44,141812,1,0,0:0:0:0:
122,44,141883,1,0,0:0:0:0:
122,44,141954,1,0,0:0:0:0:
122,44,142026,2,0,L|137:93,3,44.0000013427735,8|0|2|0,0:0|0:0|0:1|0:0,0:0:0:0:
154,101,142312,2,0,L|148:151,7,44.0000013427735,0|0|0|0|10|0|0|0,0:0|0:0|1:2|0:0|0:1|0:0|0:0|0:0,0:0:0:0:
73,199,142883,5,0,1:0:0:0:
73,199,142954,1,0,0:0:0:0:
73,199,143026,1,2,0:1:0:0:
73,199,143097,1,0,0:0:0:0:
73,199,143169,2,0,L|134:212,3,44.0000013427735,8|0|0|0,0:0|0:0|0:0|0:0,0:0:0:0:
173,295,143454,5,2,1:1:0:0:
173,295,143525,1,0,1:2:0:0:
173,295,143597,1,0,1:2:0:0:
173,295,143668,1,0,1:2:0:0:
173,295,143740,2,0,L|234:282,3,44.0000013427735,10|8|8|8,1:1|1:2|1:2|1:2,0:0:0:0:
265,225,144026,5,12,1:0:0:0:
