osu file format v14

[General]
AudioFilename: audio.mp3
AudioLeadIn: 0
PreviewTime: 92551
Countdown: 0
SampleSet: Soft
StackLeniency: 0.1
Mode: 0
LetterboxInBreaks: 0
WidescreenStoryboard: 0

[Editor]
Bookmarks: 103391,127588,130872
DistanceSpacing: 1.6
BeatDivisor: 6
GridSize: 8
TimelineZoom: 4.599998

[Metadata]
Title:Apollo
TitleUnicode:Apollo
Artist:TJ.hangneil
ArtistUnicode:TJ.hangneil
Creator:kiddly
Version:TheDarkSideOfTheMoon
Source:オンゲキ R.E.D. PLUS
Tags:sasakure.UK _ihcanan eznirm electronic instrumental ongeki red Frey Necho yf_bmp X Light Garden Hpocks dahkjdas pw384 jycool jyc-binggan XLT
BeatmapID:3369714
BeatmapSetID:1650673

[Difficulty]
HPDrainRate:4
CircleSize:5
OverallDifficulty:10
ApproachRate:10
SliderMultiplier:1.6
SliderTickRate:1

[Events]
//Background and Video events
0,0,"1.png",0,0
Video,0,"Video.mp4"
//Break Periods
2,50081,53397
//Storyboard Layer 0 (Background)
//Storyboard Layer 1 (Fail)
//Storyboard Layer 2 (Pass)
//Storyboard Layer 3 (Foreground)
//Storyboard Layer 4 (Overlay)
//Storyboard Sound Samples

[TimingPoints]
886,218.978102189781,4,2,1,50,1,0
7893,-76.9230769230769,4,2,1,60,0,0
21907,-86.9565217391304,4,2,1,45,0,0
35922,-76.9230769230769,4,2,1,60,0,0
49937,285.714285714286,7,2,1,60,1,0
53937,-133.333333333333,7,3,2,45,0,0
57937,-100,7,3,2,55,0,0
65937,272.727272727273,7,2,1,60,1,0
65937,-86.9565217391304,7,3,2,60,0,0
69755,260.869565217391,7,2,1,60,1,0
69755,-76.9230769230769,7,3,2,60,0,0
71581,250,7,2,1,60,1,0
71581,-66.6666666666667,7,3,2,60,0,0
73331,240,7,2,1,60,1,0
73331,-100,7,2,2,60,0,0
76691,230.769230769231,4,2,1,60,1,0
76691,-117.647058823529,4,2,1,10,0,0
78537,218.978102189781,4,2,1,60,1,0
85544,-76.9230769230769,4,2,1,60,0,0
89047,-100,4,2,1,60,0,0
89266,-86.9565217391304,4,2,1,60,0,0
89485,-76.9230769230769,4,2,1,60,0,0
89704,-68.9655172413793,4,2,1,60,0,0
89923,-62.5,4,2,1,60,0,0
90142,-57.1428571428571,4,2,1,60,0,0
90361,-55.5555555555556,4,2,1,60,0,0
90580,-51.2820512820513,4,2,1,60,0,0
90799,-100,4,2,1,60,0,0
92113,-66.6666666666667,4,2,1,60,0,0
92551,-66.6666666666667,4,2,1,75,0,1
98901,-50,4,2,1,75,0,1
99120,-66.6666666666667,4,2,1,75,0,1
116201,-133.333333333333,4,2,1,75,0,1
116420,-100,4,2,1,75,0,1
116639,-66.6666666666667,4,2,1,75,0,1
116858,-50,4,2,1,75,0,1
117077,-66.6666666666667,4,2,1,75,0,1
119047,-58.8235294117647,4,2,1,75,0,1
119266,-50,4,2,1,75,0,1
119485,-41.6666666666667,4,2,1,75,0,1
119704,-35.7142857142857,4,2,1,75,0,1
119923,-31.25,4,2,1,75,0,1
120142,-27.7777777777778,4,2,1,75,0,1
120361,-25,4,2,1,75,0,1
120580,-66.6666666666667,4,2,1,75,0,1
131091,-100,4,2,1,75,0,1
132843,-76.9230769230769,4,2,1,75,0,1
134595,226.415094339623,4,2,1,60,1,0
135500,250,7,3,2,60,1,0
139000,240,7,3,2,60,1,0
142360,222.222222222222,7,3,2,60,1,0
142360,-76.9230769230769,7,3,2,60,0,0
143915,210.526315789474,7,3,2,60,1,0
143915,-76.9230769230769,7,3,2,60,0,0
145388,200,7,3,2,60,1,0
145388,-66.6666666666667,7,3,2,60,0,0
146788,190.47619047619,7,3,2,60,1,0
146788,-50,7,3,2,60,0,0
147359,-40,7,3,2,60,0,0
147930,-33.3333333333333,7,3,2,60,0,0
148121,176.991150442478,7,3,2,60,1,0
148165,-100,7,3,2,5,0,0

[Colours]
Combo1 : 255,30,30
Combo2 : 63,63,63
Combo3 : 219,219,219

[HitObjects]
17,207,886,5,0,2:0:0:0:
87,190,995,1,0,2:0:0:0:
157,174,1104,1,8,2:0:0:0:
108,121,1214,5,0,2:0:0:0:
87,190,1323,1,0,2:0:0:0:
136,243,1433,1,0,2:0:0:0:
206,227,1542,1,8,2:0:0:0:
276,211,1652,1,0,2:0:0:0:
276,211,1707,5,0,0:0:0:0:
276,211,1761,2,0,B|389:188|389:188|432:223,1,160,0|8,0:0|0:0,0:0:0:0:
418,230,2035,1,0,0:0:0:0:
414,244,2090,1,0,0:0:0:0:
503,96,2199,2,0,L|346:128,1,160,0|8,0:0|0:0,0:0:0:0:
336,118,2473,1,0,0:0:0:0:
326,108,2528,1,0,0:0:0:0:
239,30,2637,6,0,L|234:85,1,40
230,140,2747,1,0,0:0:0:0:
166,170,2856,1,8,0:0:0:0:
226,208,2966,1,0,0:0:0:0:
108,119,3075,5,0,0:0:0:0:
19,160,3184,1,0,0:0:0:0:
102,212,3294,1,8,0:0:0:0:
166,170,3404,5,0,0:0:0:0:
278,153,3513,1,0,2:0:0:0:
280,157,3567,1,0,2:0:0:0:
283,161,3622,1,0,2:0:0:0:
285,165,3677,1,0,2:0:0:0:
288,169,3732,2,0,L|381:159,1,80,8|0,0:0|0:0,0:0:0:0:
456,27,3951,2,0,P|410:19|375:35,1,80
421,87,4170,6,0,L|414:129,1,26.6666666666667,8|0,0:0|0:0,0:0:0:0:
437,134,4243,2,0,L|430:176,1,26.6666666666667
451,182,4316,2,0,L|444:224,1,26.6666666666667
467,228,4389,5,2,0:0:0:0:
366,247,4498,1,0,0:0:0:0:
301,170,4608,1,8,0:0:0:0:
366,247,4718,1,0,0:0:0:0:
333,343,4827,1,0,0:0:0:0:
366,247,4937,1,0,0:0:0:0:
242,286,5046,6,0,L|191:299,1,40,8|0,0:0|0:0,0:0:0:0:
135,313,5156,1,0,0:0:0:0:
120,316,5210,1,0,0:0:0:0:
105,320,5265,2,0,P|50:267|68:190,1,160,2|8,0:0|0:0,0:0:0:0:
66,192,5539,1,0,0:0:0:0:
66,192,5594,1,0,0:0:0:0:
199,137,5703,6,0,L|40:116,1,160,0|8,0:0|0:0,0:0:0:0:
31,103,5977,1,0,0:0:0:0:
21,91,6031,1,0,0:0:0:0:
150,0,6141,5,2,0:0:0:0:
139,30,6196,1,0,0:0:0:0:
128,59,6250,1,0,0:0:0:0:
165,201,6360,2,0,L|247:214,1,80,8|0,0:0|0:0,0:0:0:0:
335,169,6579,2,0,B|317:131|317:131|276:171,1,80
354,238,6798,2,0,L|436:251,1,80,8|0,0:0|0:0,0:0:0:0:
262,284,7017,5,2,0:0:0:0:
262,284,7072,1,0,0:0:0:0:
262,284,7126,1,0,0:0:0:0:
262,284,7181,1,0,0:0:0:0:
262,284,7236,2,0,B|280:322|280:322|308:296,1,80,8|0,0:0|0:0,0:0:0:0:
335,169,7455,2,0,B|317:131|317:131|276:171,1,80
244,213,7674,6,0,L|215:208,1,26.6666666666667,8|0,0:0|0:0,0:0:0:0:
190,204,7747,2,0,L|161:199,1,26.6666666666667
136,195,7820,2,0,L|107:190,1,26.6666666666667
45,178,7893,5,0,3:0:0:0:
83,261,8002,1,0,0:0:0:0:
145,120,8112,5,0,1:0:0:0:
107,37,8221,1,0,0:0:0:0:
191,287,8331,5,0,3:0:0:0:
280,309,8440,1,0,0:0:0:0:
342,187,8550,5,0,1:0:0:0:
253,209,8659,2,0,L|195:192,1,51.999997619629
135,215,8769,2,0,B|-6:165|-6:165|52:143,1,207.999990478516,0|0,3:0|1:0,0:0:0:0:
68,138,9042,1,0,0:0:0:0:
87,131,9097,1,0,0:0:0:0:
183,97,9207,6,0,B|324:47|324:47|266:25,1,207.999990478516,0|0,3:0|1:0,0:0:0:0:
250,20,9480,1,0,0:0:0:0:
231,13,9535,1,0,0:0:0:0:
90,0,9645,5,0,3:0:0:0:
103,34,9699,1,0,0:0:0:0:
117,68,9754,1,0,0:0:0:0:
161,172,9864,2,0,B|182:207|182:207|263:226,1,103.999995239258,0|0,1:0|0:0,0:0:0:0:
470,213,10083,2,0,B|449:178|449:178|368:159,1,103.999995239258,0|0,3:0|0:0,0:0:0:0:
273,70,10302,2,0,B|307:48|307:48|388:70,1,103.999995239258,0|0,1:0|0:0,0:0:0:0:
356,248,10521,5,0,3:0:0:0:
315,259,10576,1,0,0:0:0:0:
275,271,10631,1,0,0:0:0:0:
235,282,10686,1,0,0:0:0:0:
196,294,10740,1,0,1:0:0:0:
94,320,10849,5,0,0:0:0:0:
221,193,10958,1,0,3:0:0:0:
269,368,11068,1,0,0:0:0:0:
195,294,11177,6,0,L|148:306,1,34.6666650797527,0|0,1:0|0:0,0:0:0:0:
195,294,11250,6,0,L|208:247,1,34.6666650797527
195,294,11323,6,0,L|229:327,1,34.6666650797527
195,294,11396,5,0,3:0:0:0:
275,271,11506,1,0,0:0:0:0:
356,248,11615,2,0,L|463:220,1,103.999995239258,0|0,1:0|0:0,0:0:0:0:
395,313,11834,2,0,B|361:356|361:356|324:307,1,103.999995239258,0|0,3:0|0:0,0:0:0:0:
301,201,12053,2,0,L|191:192,1,103.999995239258,0|0,1:0|0:0,0:0:0:0:
107,214,12218,1,0,0:0:0:0:
107,214,12272,6,0,B|61:228|61:228|14:189|13:121|83:98,1,207.999990478516,0|0,3:0|1:0,0:0:0:0:
94,101,12546,1,0,0:0:0:0:
111,106,12601,1,0,0:0:0:0:
192,227,12710,6,0,B|234:247|234:247|254:305|220:364|148:347,1,207.999990478516,0|0,3:0|1:0,0:0:0:0:
139,342,12984,1,0,0:0:0:0:
124,333,13039,1,0,0:0:0:0:
107,214,13148,6,0,L|346:189,1,207.999990478516,2|0,3:1|1:0,0:0:0:0:
386,185,13477,2,0,B|408:181|408:181|430:184|430:184|452:178|452:178|472:180|472:180|499:174,1,103.999995239258,2|0,0:0|3:0,0:0:0:0:
488,176,13696,1,0,0:0:0:0:
427,117,13805,6,0,L|441:64,1,51.999997619629,0|0,1:0|0:0,0:0:0:0:
358,247,13914,2,0,L|373:298,1,51.999997619629
322,93,14024,6,0,B|326:69|326:69|331:60|331:60|336:42,1,51.999997619629,0|0,3:0|0:0,0:0:0:0:
261,291,14133,2,0,B|265:317|265:317|271:324|271:324|275:341,1,51.999997619629
227,202,14243,6,0,P|241:167|237:199,1,103.999995239258,0|0,1:0|0:0,0:0:0:0:
29,202,14462,2,0,L|151:190,1,103.999995239258,0|0,3:0|0:0,0:0:0:0:
320,172,14681,2,0,L|371:166,5,34.6666650797527,0|0|0|0|0|0,1:0|0:0|0:0|0:0|0:0|0:0,0:0:0:0:
354,167,14900,5,0,3:0:0:0:
500,186,15010,1,0,0:0:0:0:
393,84,15119,5,0,1:0:0:0:
419,229,15229,1,0,0:0:0:0:
484,96,15338,5,0,3:0:0:0:
430,153,15448,1,0,0:0:0:0:
341,243,15557,2,0,L|223:230,1,103.999995239258,0|0,1:0|0:0,0:0:0:0:
224,247,15721,1,0,0:0:0:0:
264,304,15776,2,0,L|497:329,1,207.999990478516,0|0,3:0|1:0,0:0:0:0:
483,309,16050,1,0,0:0:0:0:
495,292,16104,1,0,0:0:0:0:
378,179,16214,6,0,B|334:152|334:152|236:201|236:201|191:179,1,207.999990478516,0|0,3:0|1:0,0:0:0:0:
187,160,16488,1,0,0:0:0:0:
180,140,16542,1,0,0:0:0:0:
308,85,16652,5,0,3:0:0:0:
285,94,16707,1,0,0:0:0:0:
265,104,16761,1,0,0:0:0:0:
94,172,16871,6,0,P|53:206|54:260,1,103.999995239258,0|0,1:0|0:0,0:0:0:0:
169,284,17090,2,0,L|278:273,1,103.999995239258,0|0,3:0|0:0,0:0:0:0:
162,206,17309,2,0,P|165:149|98:104,1,103.999995239258,0|0,1:0|0:0,0:0:0:0:
273,274,17528,6,0,B|248:294|248:294|234:332,1,51.999997619629,0|0,3:0|0:0,0:0:0:0:
297,384,17637,2,0,L|302:319,1,51.999997619629
273,274,17747,2,0,L|376:263,1,103.999995239258,0|0,1:0|0:0,0:0:0:0:
477,127,17966,1,0,3:0:0:0:
458,208,18076,1,0,0:0:0:0:
396,153,18185,6,0,L|360:142,1,34.6666650797527,0|0,1:0|0:0,0:0:0:0:
338,161,18258,2,0,L|302:150,1,34.6666650797527
280,169,18331,2,0,L|244:158,1,34.6666650797527
225,175,18404,5,0,3:0:0:0:
138,187,18513,1,0,0:0:0:0:
51,199,18623,2,0,B|38:261|38:261|68:297,1,103.999995239258,0|0,1:0|0:0,0:0:0:0:
138,187,18842,5,0,3:0:0:0:
126,100,18951,1,0,0:0:0:0:
114,13,19061,2,0,B|52:0|52:0|16:30,1,103.999995239258,0|0,1:0|0:0,0:0:0:0:
126,100,19280,6,0,B|147:108|147:108|211:94|211:94|233:102|233:102|345:76,1,207.999990478516,0|0,3:0|1:0,0:0:0:0:
332,64,19553,1,0,0:0:0:0:
340,47,19608,1,0,0:0:0:0:
410,18,19718,6,0,B|427:53|427:53|383:143|383:143|292:166,1,207.999990478516,0|0,3:0|1:0,0:0:0:0:
298,165,19991,1,0,0:0:0:0:
280,169,20046,1,0,0:0:0:0:
105,179,20156,6,0,B|43:159|43:159|22:132|31:106|63:97|63:97|151:126,1,207.999990478516,0|0,3:0|1:0,0:0:0:0:
174,163,20484,2,0,L|272:195,1,103.999995239258,0|0,0:0|3:0,0:0:0:0:
479,263,20703,1,0,0:0:0:0:
375,229,20813,1,0,1:0:0:0:
357,121,20922,1,0,0:0:0:0:
468,97,21031,6,0,L|456:165,1,51.999997619629,2|0,1:0|0:0,0:0:0:0:
479,263,21141,2,0,L|489:212,1,51.999997619629,0|0,1:0|0:0,0:0:0:0:
463,80,21250,6,0,L|450:146,1,51.999997619629,2|0,1:0|0:0,0:0:0:0:
465,278,21360,2,0,L|473:226,1,51.999997619629,0|0,1:0|0:0,0:0:0:0:
458,68,21469,6,0,L|447:136,1,51.999997619629,0|0,1:0|0:0,0:0:0:0:
454,290,21579,2,0,L|462:234,1,51.999997619629,0|0,1:0|0:0,0:0:0:0:
388,102,21688,6,0,L|378:173,1,51.999997619629,2|0,1:0|0:0,0:0:0:0:
381,369,21798,2,0,L|389:313,1,51.999997619629,0|0,1:0|0:0,0:0:0:0:
321,314,21907,5,0,0:0:0:0:
344,254,22017,1,0,0:0:0:0:
282,264,22126,1,10,0:0:0:0:
333,322,22236,5,0,0:0:0:0:
348,240,22346,1,0,0:0:0:0:
269,269,22455,1,2,0:0:0:0:
357,333,22564,5,8,0:0:0:0:
345,214,22674,1,0,0:0:0:0:
248,284,22783,5,2,0:0:0:0:
173,309,22893,1,0,0:0:0:0:
103,274,23002,1,8,0:0:0:0:
31,299,23112,1,2,0:0:0:0:
2,229,23221,5,0,0:0:0:0:
74,204,23331,1,0,0:0:0:0:
103,274,23440,1,10,0:0:0:0:
31,299,23550,1,0,0:0:0:0:
2,229,23659,5,2,0:0:0:0:
2,149,23769,1,0,0:0:0:0:
71,189,23878,1,8,0:0:0:0:
25,189,23988,5,2,0:0:0:0:
194,230,24097,1,0,0:0:0:0:
194,230,24207,1,0,0:0:0:0:
237,61,24316,5,10,0:0:0:0:
300,52,24426,1,0,0:0:0:0:
353,85,24535,1,0,0:0:0:0:
388,139,24645,1,2,0:0:0:0:
442,170,24754,1,8,0:0:0:0:
505,158,24864,1,0,0:0:0:0:
461,79,24973,5,2,0:0:0:0:
457,87,25083,1,0,0:0:0:0:
380,218,25192,5,10,0:0:0:0:
376,226,25302,1,0,0:0:0:0:
312,364,25411,5,0,0:0:0:0:
244,382,25521,1,0,0:0:0:0:
184,349,25630,1,10,0:0:0:0:
164,283,25740,1,0,0:0:0:0:
197,222,25849,1,0,0:0:0:0:
264,203,25958,1,2,0:0:0:0:
325,236,26067,5,8,0:0:0:0:
400,188,26177,1,0,0:0:0:0:
422,104,26286,1,2,0:0:0:0:
377,28,26396,1,0,0:0:0:0:
292,6,26505,1,8,0:0:0:0:
215,51,26614,1,2,0:0:0:0:
193,136,26724,5,0,0:0:0:0:
111,153,26833,1,0,0:0:0:0:
193,136,26944,5,10,0:0:0:0:
111,153,27053,1,0,0:0:0:0:
23,171,27163,6,0,B|29:149|29:149|41:142|41:142|26:209|26:209|44:239|44:239|34:297,1,184.000003509522,4|8,3:0|0:0,0:0:0:0:
76,343,27491,2,0,B|101:317|101:317|114:243,1,92.0000017547608,0|0,1:0|0:0,0:0:0:0:
110,261,27710,1,0,1:0:0:0:
103,107,27820,6,0,L|112:160,1,46.0000008773804,2|0,3:0|0:0,0:0:0:0:
190,110,27929,2,0,L|182:61,1,46.0000008773804,0|0,3:0|0:0,0:0:0:0:
267,121,28039,6,0,L|258:75,1,46.0000008773804,2|0,3:0|0:0,0:0:0:0:
178,124,28148,2,0,L|186:172,1,46.0000008773804,0|0,3:0|0:0,0:0:0:0:
192,242,28258,6,0,B|237:236|237:236|267:256|267:256|338:246,1,138.000002632141,0|0,1:0|0:0,0:0:0:0:
391,278,28477,2,0,P|392:219|346:178,1,92.0000017547608,2|0,3:0|0:0,0:0:0:0:
87,294,28696,6,0,L|144:304,1,46.0000008773804,8|0,1:2|0:0,0:0:0:0:
199,314,28805,2,0,L|255:325,1,46.0000008773804,0|0,1:0|0:0,0:0:0:0:
313,335,28915,5,0,0:0:0:0:
388,281,29024,1,0,0:0:0:0:
339,200,29134,1,10,0:0:0:0:
320,344,29243,5,0,0:0:0:0:
402,283,29352,1,0,0:0:0:0:
348,194,29462,1,2,0:0:0:0:
325,353,29572,5,8,0:0:0:0:
415,285,29681,1,0,0:0:0:0:
355,187,29791,5,2,0:0:0:0:
274,197,29900,1,0,0:0:0:0:
202,155,30010,1,8,0:0:0:0:
121,165,30119,1,2,0:0:0:0:
40,175,30229,5,0,0:0:0:0:
121,165,30338,1,0,0:0:0:0:
151,90,30448,1,10,0:0:0:0:
232,80,30557,1,0,0:0:0:0:
314,69,30667,5,2,0:0:0:0:
458,94,30777,1,0,0:0:0:0:
432,238,30885,1,8,0:0:0:0:
289,212,30996,1,2,0:0:0:0:
376,130,31105,5,0,0:0:0:0:
398,158,31215,1,0,0:0:0:0:
369,178,31323,1,10,0:0:0:0:
349,149,31433,1,0,0:0:0:0:
400,35,31542,5,0,0:0:0:0:
397,49,31652,1,2,0:0:0:0:
495,173,31761,5,8,0:0:0:0:
481,170,31871,1,0,0:0:0:0:
354,267,31980,5,2,0:0:0:0:
357,253,32090,1,0,0:0:0:0:
259,129,32199,5,10,0:0:0:0:
273,132,32309,1,0,0:0:0:0:
372,154,32418,5,2,0:0:0:0:
344,198,32528,1,0,0:0:0:0:
350,248,32637,1,10,0:0:0:0:
383,148,32747,5,0,0:0:0:0:
351,200,32857,1,0,0:0:0:0:
358,258,32966,1,2,0:0:0:0:
387,309,33075,1,8,0:0:0:0:
394,368,33184,1,0,0:0:0:0:
317,335,33294,5,2,0:0:0:0:
243,304,33404,1,0,0:0:0:0:
166,305,33513,1,8,0:0:0:0:
97,335,33623,1,2,0:0:0:0:
81,230,33732,5,0,0:0:0:0:
111,211,33842,1,0,0:0:0:0:
128,241,33951,1,10,0:0:0:0:
97,258,34061,1,0,0:0:0:0:
46,160,34170,6,0,B|86:132|86:132|170:149|170:149|202:194,1,184.000003509522,2|0,3:2|0:0,0:0:0:0:
238,250,34499,2,0,B|277:309|277:309|320:247,1,138.000002632141,2|0,1:2|0:0,0:0:0:0:
316,254,34718,1,0,1:3:0:0:
280,185,34827,6,0,B|271:159|271:159|280:125,1,46.0000008773804,2|0,3:2|0:0,0:0:0:0:
422,85,34937,2,0,B|430:110|430:110|420:142,1,46.0000008773804,0|0,3:2|0:0,0:0:0:0:
346,162,35046,6,0,L|359:112,1,46.0000008773804,0|0,3:2|0:0,0:0:0:0:
449,197,35156,2,0,L|435:243,1,46.0000008773804,0|0,3:2|0:0,0:0:0:0:
300,63,35265,6,0,B|257:54|257:54|225:71|225:71|156:56,1,138.000002632141,2|0,1:2|0:0,0:0:0:0:
116,93,35484,6,0,P|104:63|114:35,1,46.0000008773804,2|0,1:2|0:0,0:0:0:0:
98,124,35594,2,0,P|72:104|66:76,1,46.0000008773804,0|0,3:3|0:0,0:0:0:0:
179,191,35703,6,0,P|195:163|192:131,1,46.0000008773804,0|0,3:0|0:0,0:0:0:0:
191,224,35813,2,0,P|219:208|231:180,1,46.0000008773804,0|0,3:0|0:0,0:0:0:0:
84,318,35922,6,0,P|63:245|103:300,1,207.999990478516,0|0,1:0|0:0,0:0:0:0:
104,294,36250,2,0,B|160:288|160:288|201:309|201:309|319:296,1,207.999990478516,0|0,1:0|0:0,0:0:0:0:
489,223,36579,2,0,B|451:204|451:204|381:213,1,103.999995239258,0|0,1:0|0:0,0:0:0:0:
444,279,36798,6,0,L|448:348,1,51.999997619629,0|0,1:0|0:0,0:0:0:0:
461,292,36907,2,0,L|466:365,1,51.999997619629,0|0,1:0|0:0,0:0:0:0:
410,141,37017,6,0,L|416:73,1,51.999997619629,0|0,1:0|0:0,0:0:0:0:
427,128,37126,2,0,L|433:61,1,51.999997619629,0|0,1:0|0:0,0:0:0:0:
369,258,37236,6,0,L|373:326,1,51.999997619629,0|0,1:0|0:0,0:0:0:0:
334,162,37345,2,0,L|340:93,1,51.999997619629,0|0,1:0|0:0,0:0:0:0:
290,259,37455,6,0,B|253:263|253:263|228:252,1,51.999997619629,0|0,1:0|0:0,0:0:0:0:
263,176,37564,2,0,B|225:181|225:181|197:205,1,51.999997619629,0|0,1:0|0:0,0:0:0:0:
165,240,37674,5,0,1:0:0:0:
94,252,37783,1,0,0:0:0:0:
23,264,37893,1,2,0:0:0:0:
23,264,37920,2,0,L|45:79,1,181.999991668702,2|0,0:0|0:0,0:0:0:0:
122,0,38221,6,0,L|98:213,1,207.999990478516,2|0,0:0|0:0,0:0:0:0:
126,287,38550,6,0,P|97:274|73:281,1,51.999997619629,0|0,1:0|0:0,0:0:0:0:
218,214,38659,2,0,P|188:225|174:250,1,51.999997619629,0|0,1:0|0:0,0:0:0:0:
312,286,38769,2,0,P|291:261|265:256,1,51.999997619629,0|0,1:0|0:0,0:0:0:0:
422,249,38878,2,0,P|393:262|364:256,1,51.999997619629,0|0,1:0|0:0,0:0:0:0:
385,197,38988,6,0,L|373:140,1,51.999997619629,0|0,1:0|0:0,0:0:0:0:
369,323,39097,2,0,L|363:377,1,51.999997619629,0|0,1:0|0:0,0:0:0:0:
229,349,39207,6,0,L|216:284,1,51.999997619629,0|0,1:0|0:0,0:0:0:0:
125,163,39316,2,0,L|115:227,1,51.999997619629,0|0,1:0|0:0,0:0:0:0:
53,271,39426,6,0,B|32:235|32:235|54:110|54:110|112:77,1,207.999990478516,0|0,1:0|0:0,0:0:0:0:
151,16,39754,2,0,B|207:10|207:10|248:31|248:31|366:18,1,207.999990478516,0|0,1:0|0:0,0:0:0:0:
431,141,40083,2,0,B|508:133|508:133|467:118,1,103.999995239258,0|0,1:0|0:0,0:0:0:0:
408,60,40302,6,0,P|420:30|416:5,1,51.999997619629,0|0,1:0|0:0,0:0:0:0:
326,142,40411,2,0,P|355:129|371:104,1,51.999997619629,0|0,1:0|0:0,0:0:0:0:
274,185,40521,6,0,P|262:155|275:157,1,51.999997619629,0|0,1:0|0:0,0:0:0:0:
263,63,40630,2,0,P|294:65|314:82,1,51.999997619629,0|0,1:0|0:0,0:0:0:0:
431,229,40740,6,0,P|419:200|396:186,1,51.999997619629,0|0,1:0|0:0,0:0:0:0:
404,338,40849,2,0,P|427:316|434:285,1,51.999997619629,0|0,1:0|0:0,0:0:0:0:
337,253,40958,6,0,P|343:281|327:268,1,51.999997619629,0|0,1:0|0:0,0:0:0:0:
239,269,41068,2,0,P|209:256|182:260,1,51.999997619629,0|0,1:0|0:0,0:0:0:0:
91,280,41177,5,0,1:0:0:0:
73,267,41232,1,0,0:0:0:0:
62,248,41287,1,0,0:0:0:0:
58,227,41342,1,0,0:0:0:0:
63,206,41396,1,2,0:0:0:0:
76,188,41451,1,0,0:0:0:0:
94,177,41506,1,0,1:0:0:0:
115,174,41561,1,0,0:0:0:0:
137,179,41615,1,2,0:0:0:0:
154,191,41670,1,0,0:0:0:0:
165,210,41725,1,0,0:0:0:0:
175,228,41780,5,0,0:0:0:0:
188,244,41834,1,2,1:2:0:0:
205,255,41889,1,0,0:0:0:0:
225,260,41944,1,0,0:0:0:0:
246,258,41999,1,0,0:0:0:0:
322,220,42053,5,0,1:0:0:0:
343,218,42108,1,0,0:0:0:0:
363,223,42163,1,0,1:0:0:0:
380,234,42218,1,0,0:0:0:0:
393,250,42272,1,0,1:0:0:0:
404,269,42327,1,0,0:0:0:0:
414,287,42382,1,0,1:0:0:0:
431,299,42437,1,0,0:0:0:0:
453,304,42491,1,0,1:0:0:0:
474,301,42546,1,0,0:0:0:0:
492,290,42601,1,0,1:0:0:0:
505,272,42656,5,0,0:0:0:0:
510,251,42710,1,0,1:0:0:0:
506,230,42765,1,0,0:0:0:0:
495,211,42820,1,0,1:0:0:0:
477,198,42875,1,0,0:0:0:0:
403,170,42929,6,0,P|387:74|486:30,1,207.999990478516,0|0,1:0|2:0,2:0:0:0:
461,110,43258,2,0,B|405:104|405:104|364:125|364:125|246:112,1,207.999990478516,0|0,1:0|0:0,0:0:0:0:
184,151,43586,2,0,B|179:206|179:206|231:181,1,103.999995239258,0|0,1:0|0:0,0:0:0:0:
259,113,43805,6,0,L|286:61,1,51.999997619629,0|0,1:0|0:0,0:0:0:0:
212,56,43915,2,0,L|237:6,1,51.999997619629,0|0,1:0|0:0,0:0:0:0:
266,186,44024,6,0,L|316:213,1,51.999997619629,0|0,1:0|0:0,0:0:0:0:
323,139,44134,2,0,L|372:165,1,51.999997619629,0|0,1:0|0:0,0:0:0:0:
193,193,44243,6,0,L|166:245,1,51.999997619629,0|0,1:0|0:0,0:0:0:0:
240,250,44353,2,0,L|214:300,1,51.999997619629,0|0,1:0|0:0,0:0:0:0:
186,120,44462,6,0,L|134:90,1,51.999997619629,0|0,1:0|0:0,0:0:0:0:
129,167,44572,2,0,L|79:139,1,51.999997619629,0|0,1:0|0:0,0:0:0:0:
5,103,44681,5,0,1:0:0:0:
28,212,44791,1,0,0:0:0:0:
51,321,44900,1,2,0:0:0:0:
51,321,44927,2,0,L|249:303,1,181.999991668702,2|0,0:0|0:0,0:0:0:0:
365,226,45229,6,0,L|157:244,1,207.999990478516,2|0,0:0|0:0,0:0:0:0:
399,289,45557,6,0,B|383:359,1,51.999997619629,0|0,1:0|0:0,0:0:0:0:
447,207,45667,2,0,B|459:153,1,51.999997619629,0|0,1:0|0:0,0:0:0:0:
486,81,45776,6,0,B|499:29,1,51.999997619629,0|0,1:0|0:0,0:0:0:0:
445,163,45885,2,0,B|430:231,1,51.999997619629,0|0,1:0|0:0,0:0:0:0:
365,226,45995,6,0,B|340:220|340:220|298:228,1,51.999997619629,0|0,1:0|0:0,0:0:0:0:
297,318,46104,2,0,B|272:324|272:324|228:316,1,51.999997619629,0|0,1:0|0:0,0:0:0:0:
197,225,46214,2,0,L|209:157,1,51.999997619629,0|0,1:0|0:0,0:0:0:0:
103,158,46323,2,0,L|93:89,1,51.999997619629,0|0,1:0|0:0,0:0:0:0:
39,33,46433,5,0,1:0:0:0:
201,84,46542,1,0,0:0:0:0:
83,24,46652,5,0,1:0:0:0:
226,115,46761,1,0,0:0:0:0:
127,26,46871,5,0,1:0:0:0:
242,151,46980,1,0,0:0:0:0:
168,39,47090,5,0,1:0:0:0:
247,189,47199,1,0,0:0:0:0:
150,144,47309,5,2,1:0:0:0:
333,189,47418,1,0,0:0:0:0:
157,183,47528,5,2,1:0:0:0:
341,176,47637,1,0,0:0:0:0:
169,219,47747,5,2,1:0:0:0:
344,161,47856,1,0,0:0:0:0:
191,253,47966,5,2,1:0:0:0:
342,144,48075,1,0,0:0:0:0:
280,332,48185,6,0,L|288:277,1,51.999997619629,4|0,1:0|0:0,0:0:0:0:
437,233,48294,2,0,P|443:205|430:176,1,51.999997619629,0|0,1:0|0:0,0:0:0:0:
276,286,48404,6,0,L|285:230,1,51.999997619629,0|0,1:0|0:0,0:0:0:0:
452,194,48513,2,0,P|443:166|418:145,1,51.999997619629,0|0,1:0|0:0,0:0:0:0:
272,240,48623,6,0,L|280:187,1,51.999997619629,4|0,1:0|0:0,0:0:0:0:
445,152,48732,2,0,P|423:132|391:127,1,51.999997619629,0|0,1:0|0:0,0:0:0:0:
268,194,48842,6,0,L|275:142,1,51.999997619629,0|0,1:0|0:0,0:0:0:0:
417,119,48951,2,0,P|388:112|357:124,1,51.999997619629,0|0,1:0|0:0,0:0:0:0:
264,14,49061,6,0,L|256:67,1,51.999997619629,6|0,1:0|0:0,0:0:0:0:
153,163,49170,2,0,L|144:214,1,51.999997619629,0|0,1:0|0:0,0:0:0:0:
27,349,49280,6,0,L|37:292,1,51.999997619629,2|0,1:0|0:0,0:0:0:0:
138,200,49389,2,0,L|146:147,1,51.999997619629,0|0,1:0|0:0,0:0:0:0:
27,175,49499,6,0,P|55:164|88:169,1,51.999997619629,6|0,1:0|0:0,0:0:0:0:
154,269,49608,2,0,P|182:280|217:273,1,51.999997619629,0|0,1:0|0:0,0:0:0:0:
318,204,49718,2,0,L|311:147,1,51.999997619629,2|0,1:0|0:0,0:0:0:0:
431,98,49827,2,0,L|445:32,1,51.999997619629,0|0,1:0|0:0,0:0:0:0:
155,327,53937,5,0,0:0:0:0:
227,321,54079,2,0,L|300:315,1,60.0000022888184,0|0,0:0|1:0,0:0:0:0:
359,309,54365,1,0,2:0:0:0:
368,308,54437,1,0,2:0:0:0:
376,307,54508,1,0,2:0:0:0:
384,306,54579,1,0,2:0:0:0:
393,306,54651,6,0,B|402:274|402:274|386:246,1,60.0000022888185
340,193,54937,1,0,1:0:0:0:
272,221,55079,1,0,2:0:0:0:
254,223,55151,1,0,2:0:0:0:
236,225,55222,1,0,2:0:0:0:
218,227,55294,1,0,2:0:0:0:
200,229,55365,6,0,L|168:201,1,30.0000011444092,0|0,0:0|2:0,0:0:0:0:
101,128,55508,1,0,0:0:0:0:
164,147,55651,1,0,1:0:0:0:
114,193,55794,1,0,0:0:0:0:
150,80,55937,5,0,0:0:0:0:
181,213,56080,1,0,0:0:0:0:
45,169,56223,1,0,1:0:0:0:
129,156,56365,1,0,2:0:0:0:
152,151,56437,1,0,2:0:0:0:
175,147,56508,1,0,2:0:0:0:
198,143,56579,1,0,2:0:0:0:
221,138,56651,1,0,0:0:0:0:
305,123,56794,6,0,B|313:90|313:90|289:60,1,60.0000022888184,0|0,0:0|1:0,0:0:0:0:
280,203,57079,1,0,2:0:0:0:
303,208,57151,1,0,2:0:0:0:
326,212,57222,1,0,2:0:0:0:
349,216,57293,1,0,2:0:0:0:
372,220,57365,2,0,L|400:204,2,30.0000011444092,0|0|0,0:0|2:0|3:0,0:0:0:0:
443,131,57651,5,0,1:0:0:0:
433,78,57722,1,0,2:0:0:0:
484,70,57794,1,0,3:0:0:0:
493,120,57865,1,0,2:0:0:0:
462,101,57937,6,0,L|372:82,1,80
308,33,58222,1,0,1:0:0:0:
246,134,58365,1,0,2:0:0:0:
250,157,58437,1,0,2:0:0:0:
254,180,58508,1,0,2:0:0:0:
258,203,58579,1,0,2:0:0:0:
262,226,58651,2,0,L|340:241,2,80,0|0|0,3:0|0:0|1:0,0:0:0:0:
438,263,59079,5,0,2:0:0:0:
435,247,59151,1,0,2:0:0:0:
432,232,59222,1,0,2:0:0:0:
429,216,59293,1,0,2:0:0:0:
427,201,59365,2,0,L|386:191,2,40,0|0|0,0:0|2:0|0:0,0:0:0:0:
313,314,59651,1,0,1:0:0:0:
313,314,59722,1,0,2:0:0:0:
313,314,59794,1,0,0:0:0:0:
116,269,59937,6,0,B|75:253|75:253|25:260,1,80
65,326,60222,1,0,1:0:0:0:
14,192,60365,1,0,2:0:0:0:
19,172,60437,1,0,2:0:0:0:
24,152,60508,1,0,2:0:0:0:
30,133,60579,1,0,2:0:0:0:
36,113,60651,1,0,0:0:0:0:
96,21,60794,6,0,B|114:63|114:63|98:115,1,80,0|0,0:0|1:0,0:0:0:0:
143,184,61079,1,0,2:0:0:0:
156,208,61151,1,0,2:0:0:0:
169,232,61222,1,0,2:0:0:0:
196,225,61294,1,0,2:0:0:0:
223,219,61365,6,0,L|278:203,1,40,0|0,0:0|2:0,0:0:0:0:
324,147,61508,1,0,0:0:0:0:
235,69,61651,6,0,L|231:115,1,40,0|0,1:0|2:0,0:0:0:0:
324,147,61794,2,0,L|331:203,1,40,0|0,0:0|2:0,0:0:0:0:
223,219,61937,6,0,L|214:307,1,80
265,360,62222,1,0,1:0:0:0:
291,286,62365,1,0,2:0:0:0:
313,276,62437,1,0,2:0:0:0:
336,273,62508,1,0,2:0:0:0:
359,275,62579,1,0,2:0:0:0:
381,284,62651,6,0,B|394:317|394:317|383:377,1,80
464,228,62937,1,0,1:0:0:0:
391,163,63079,1,0,2:0:0:0:
394,151,63151,1,0,2:0:0:0:
397,139,63222,1,0,2:0:0:0:
400,127,63294,1,0,2:0:0:0:
403,115,63365,6,0,L|452:108,1,40,0|0,0:0|2:0,0:0:0:0:
512,66,63508,1,0,0:0:0:0:
368,17,63651,5,0,1:0:0:0:
328,21,63722,1,0,2:0:0:0:
288,27,63794,1,0,0:0:0:0:
168,144,63937,6,0,L|146:245,1,80
100,142,64222,2,0,L|116:63,1,80,0|0,1:0|2:0,0:0:0:0:
56,35,64437,1,0,2:0:0:0:
52,33,64508,1,0,2:0:0:0:
48,31,64579,1,0,2:0:0:0:
44,29,64651,1,0,0:0:0:0:
11,221,64794,6,0,P|45:204|95:214,1,80,0|0,0:0|1:0,0:0:0:0:
172,257,65079,1,0,2:0:0:0:
176,281,65151,1,0,2:0:0:0:
181,305,65222,1,0,2:0:0:0:
186,330,65294,1,0,2:0:0:0:
190,354,65365,6,0,L|236:346,1,40,0|0,0:0|2:0,0:0:0:0:
299,334,65508,1,0,0:0:0:0:
379,249,65651,1,0,1:0:0:0:
280,189,65794,1,0,0:0:0:0:
360,104,65937,5,0,0:0:0:0:
256,45,66073,2,0,B|223:32|223:32|161:43,1,92.0000017547608,0|0,0:0|1:0,0:0:0:0:
70,122,66346,5,0,2:0:0:0:
85,124,66414,1,0,2:0:0:0:
100,188,66482,5,0,2:0:0:0:
85,198,66550,1,0,2:0:0:0:
23,169,66618,6,0,L|122:151,1,92.0000017547608
206,136,66891,1,0,1:0:0:0:
285,210,67027,1,0,2:0:0:0:
321,215,67096,1,0,2:0:0:0:
357,221,67164,1,0,2:0:0:0:
393,227,67232,1,0,2:0:0:0:
428,235,67300,6,0,L|437:300,1,46.0000008773804,0|0,0:0|2:0,0:0:0:0:
488,175,67437,2,0,P|503:125|467:82,1,92.0000017547608,0|0,0:0|1:0,0:0:0:0:
418,68,67641,1,0,2:0:0:0:
418,68,67709,1,0,0:0:0:0:
357,221,67846,6,0,L|342:315,1,92.0000017547608
272,374,68118,1,0,1:0:0:0:
253,282,68255,1,0,2:0:0:0:
223,260,68323,1,0,2:0:0:0:
193,238,68391,1,0,2:0:0:0:
208,204,68459,1,0,2:0:0:0:
222,170,68527,6,0,L|333:160,1,92.0000017547608
448,212,68800,2,0,L|356:220,1,92.0000017547608,0|0,1:0|2:0,0:0:0:0:
313,161,69005,1,0,2:0:0:0:
303,145,69073,1,0,2:0:0:0:
293,129,69141,1,0,2:0:0:0:
282,113,69209,2,0,L|292:54,2,46.0000008773804,0|0|0,0:0|2:0|0:0,0:0:0:0:
232,0,69482,5,0,1:0:0:0:
221,44,69550,1,0,2:0:0:0:
210,88,69618,1,0,0:0:0:0:
199,133,69687,1,0,2:0:0:0:
189,173,69755,5,0,0:0:0:0:
223,323,69885,1,0,0:0:0:0:
76,277,70015,1,0,1:0:0:0:
162,256,70146,5,0,2:0:0:0:
186,251,70211,1,0,2:0:0:0:
252,237,70276,1,0,2:0:0:0:
276,232,70341,1,0,2:0:0:0:
343,218,70407,1,0,0:0:0:0:
438,180,70537,2,0,B|477:170|477:170|492:176|484:189|484:189|431:203,1,103.999995239258,0|0,0:0|1:0,0:0:0:0:
343,218,70798,5,0,2:0:0:0:
319,223,70863,1,0,2:0:0:0:
253,237,70928,1,0,2:0:0:0:
229,242,70993,1,0,2:0:0:0:
162,256,71059,2,0,L|151:307,2,51.999997619629,0|0|0,0:0|2:0|0:0,0:0:0:0:
178,185,71320,5,0,1:0:0:0:
136,368,71450,1,0,0:0:0:0:
0,241,71581,5,0,0:0:0:0:
106,78,71706,2,0,B|190:67|190:67|230:102,1,120.000004577637,0|0,0:0|1:0,0:0:0:0:
271,160,71956,5,0,2:0:0:0:
323,161,72018,1,0,2:0:0:0:
391,161,72081,5,0,2:0:0:0:
443,162,72143,1,0,2:0:0:0:
511,162,72206,5,0,0:0:0:0:
470,344,72331,2,0,B|488:325|488:325|479:265|479:265|448:254,1,120.000004577637,0|0,0:0|1:0,0:0:0:0:
388,308,72581,5,0,2:0:0:0:
335,309,72643,1,0,2:0:0:0:
267,308,72706,5,0,2:0:0:0:
215,309,72768,1,0,2:0:0:0:
147,309,72831,6,0,L|81:309,2,60.0000022888184,0|0|0,0:0|2:0|0:0,0:0:0:0:
115,207,73081,1,0,1:0:0:0:
397,177,73206,1,0,0:0:0:0:
256,217,73331,5,0,0:0:0:0:
256,166,73391,1,0,0:0:0:0:
249,216,73451,5,0,0:0:0:0:
261,166,73511,1,0,0:0:0:0:
244,214,73571,5,0,0:0:0:0:
266,168,73631,1,0,0:0:0:0:
239,210,73691,5,0,0:0:0:0:
271,172,73751,1,0,0:0:0:0:
236,206,73811,5,0,0:0:0:0:
274,176,73871,1,0,0:0:0:0:
232,202,73931,5,0,0:0:0:0:
278,180,73991,1,0,0:0:0:0:
230,196,74051,5,0,0:0:0:0:
280,186,74111,1,0,0:0:0:0:
230,190,74171,5,0,0:0:0:0:
280,192,74231,1,0,0:0:0:0:
230,185,74291,5,0,0:0:0:0:
280,197,74351,1,0,0:0:0:0:
232,180,74411,5,0,0:0:0:0:
278,202,74471,1,0,0:0:0:0:
236,175,74531,5,0,0:0:0:0:
274,207,74591,1,0,0:0:0:0:
240,171,74651,5,0,0:0:0:0:
270,211,74711,1,0,0:0:0:0:
245,168,74771,5,0,0:0:0:0:
265,214,74831,1,0,0:0:0:0:
250,166,74891,5,0,0:0:0:0:
260,216,74951,1,0,0:0:0:0:
254,183,75011,5,0,0:0:0:0:
257,200,75071,1,0,0:0:0:0:
256,183,75131,5,0,0:0:0:0:
255,200,75191,1,0,0:0:0:0:
258,183,75251,5,0,0:0:0:0:
253,199,75311,1,0,0:0:0:0:
260,184,75371,5,0,0:0:0:0:
251,199,75431,1,0,0:0:0:0:
261,185,75491,5,0,0:0:0:0:
250,197,75551,1,0,0:0:0:0:
263,186,75611,5,0,0:0:0:0:
249,196,75671,1,0,0:0:0:0:
264,188,75731,5,0,0:0:0:0:
248,194,75791,1,0,0:0:0:0:
264,190,75851,5,0,0:0:0:0:
247,193,75911,1,0,0:0:0:0:
264,192,75971,5,0,0:0:0:0:
247,191,76031,1,0,0:0:0:0:
264,194,76091,5,0,0:0:0:0:
248,189,76151,1,0,0:0:0:0:
263,196,76211,5,0,0:0:0:0:
248,187,76271,1,0,0:0:0:0:
262,197,76331,5,0,0:0:0:0:
250,186,76391,1,0,0:0:0:0:
261,199,76451,5,0,0:0:0:0:
251,184,76511,1,0,0:0:0:0:
259,200,76571,5,0,0:0:0:0:
253,184,76631,1,0,0:0:0:0:
256,192,76691,2,0,B|212:258|212:258|199:251|189:242|185:236|180:230|174:217|170:208|170:198|169:186|170:173|176:158|183:150|188:139|194:131|200:126|209:120|216:116|224:110|235:105|248:103|264:104|273:107|283:108|291:113|300:120|311:125|320:132|326:143|334:155|341:169|342:182|339:191|339:206|336:213|332:227|326:238|326:238|364:221|364:221|368:196|366:182|363:167|359:152|355:140|350:132|344:121|333:112|322:104|310:97|299:90|286:86|275:84|265:81|252:82|241:83|228:83|218:86|209:90|199:96|192:102|184:107|177:111|171:118|161:126|156:134|150:146|144:158|137:169|133:184|136:200|141:216|142:226|146:239|150:251|157:263|165:274|176:281|185:287|197:294|206:299|214:301|220:304|231:307|241:309|256:311|271:309,1,1054.00002010345,4|0,0:0|0:0,0:0:0:0:
258,309,78537,5,0,0:0:0:0:
319,353,78646,1,0,0:0:0:0:
377,304,78755,1,8,0:0:0:0:
439,349,78865,1,0,0:0:0:0:
427,243,78974,5,0,0:0:0:0:
377,304,79084,1,0,0:0:0:0:
312,254,79193,1,8,0:0:0:0:
258,309,79303,1,0,0:0:0:0:
200,258,79412,6,0,B|79:252|79:252|51:284,1,160,0|8,0:0|0:0,0:0:0:0:
60,296,79686,1,0,0:0:0:0:
66,310,79741,1,0,0:0:0:0:
28,192,79850,6,0,P|21:95|66:56,1,160,0|8,0:0|0:0,0:0:0:0:
62,57,80124,1,0,0:0:0:0:
62,57,80179,1,0,0:0:0:0:
98,138,80288,5,0,0:0:0:0:
140,133,80343,1,0,0:0:0:0:
182,128,80398,1,0,0:0:0:0:
285,113,80507,5,8,0:0:0:0:
352,105,80617,1,0,0:0:0:0:
411,196,80726,5,0,0:0:0:0:
344,204,80836,1,0,0:0:0:0:
412,14,80945,5,8,0:0:0:0:
479,6,81055,1,0,0:0:0:0:
490,126,81164,5,0,0:0:0:0:
487,162,81219,1,0,0:0:0:0:
484,198,81274,1,0,0:0:0:0:
481,233,81328,1,0,0:0:0:0:
478,269,81383,6,0,B|423:275|423:275|401:297,1,80,8|0,0:0|0:0,0:0:0:0:
148,331,81602,2,0,B|200:349|200:349|229:339,1,80
302,281,81821,2,0,L|309:247,1,26.6666666666667,8|0,0:0|0:0,0:0:0:0:
330,245,81894,2,0,L|337:211,1,26.6666666666667
304,187,81967,2,0,L|311:153,1,26.6666666666667
350,112,82040,5,0,0:0:0:0:
368,110,82150,1,0,0:0:0:0:
483,188,82259,5,8,0:0:0:0:
501,186,82369,1,0,0:0:0:0:
454,101,82478,5,0,0:0:0:0:
436,103,82588,1,0,0:0:0:0:
291,21,82697,5,8,0:0:0:0:
273,23,82807,1,0,0:0:0:0:
194,39,82916,6,0,B|143:34|143:34|116:56|116:56|39:47,1,160,0|8,0:0|0:0,0:0:0:0:
33,33,83190,1,0,0:0:0:0:
23,19,83245,1,0,0:0:0:0:
167,236,83354,6,0,P|224:174|194:107,1,160,0|8,0:0|0:0,0:0:0:0:
183,107,83628,1,0,0:0:0:0:
167,103,83682,1,0,0:0:0:0:
22,246,83792,5,0,0:0:0:0:
58,244,83847,1,0,0:0:0:0:
93,243,83901,1,0,0:0:0:0:
354,254,84011,6,0,B|367:291|367:291|412:298,1,80,8|0,0:0|0:0,0:0:0:0:
426,159,84230,2,0,B|386:152|386:152|357:187,1,80
468,268,84449,2,0,B|493:237|493:237|477:194,1,80,8|0,0:0|0:0,0:0:0:0:
415,226,84669,5,0,0:0:0:0:
380,227,84723,1,0,0:0:0:0:
344,229,84778,1,0,0:0:0:0:
309,230,84832,1,0,0:0:0:0:
273,232,84887,5,8,0:0:0:0:
195,164,84996,1,0,2:0:0:0:
273,232,85106,1,0,2:0:0:0:
207,312,85215,1,0,2:0:0:0:
127,241,85325,6,0,L|78:245,1,26.6666666666667,8|0,0:0|0:0,0:0:0:0:
127,241,85398,6,0,L|147:196,1,26.6666666666667
127,241,85471,6,0,L|155:278,1,26.6666666666667
127,241,85544,6,0,B|90:187|90:187|146:37,1,207.999990478516,0|0,1:0|0:0,0:0:0:0:
175,143,85872,2,0,L|92:370,1,207.999990478516,0|0,1:0|0:0,0:0:0:0:
0,345,86201,2,0,L|103:339,1,103.999995239258,0|0,1:0|0:0,0:0:0:0:
485,249,86420,6,0,B|402:257|402:257|378:286|378:286|245:295,1,207.999990478516,0|0,1:0|0:0,0:0:0:0:
250,230,86748,2,0,B|202:233|202:233|180:251|181:280|206:296|206:296|291:292,1,207.999990478516,0|0,1:0|0:0,0:0:0:0:
485,249,87077,2,0,P|503:197|476:158,1,103.999995239258,0|0,1:0|0:0,0:0:0:0:
336,23,87296,6,0,B|344:96|344:96|372:122,2,103.999995239258,0|0|0,1:0|0:0|0:0,0:0:0:0:
316,290,87624,2,0,B|306:213|306:213|289:243,2,103.999995239258,0|0|0,1:0|0:0|0:0,0:0:0:0:
469,129,87953,2,0,L|357:115,1,103.999995239258,0|0,1:0|0:0,0:0:0:0:
143,158,88172,6,0,L|246:170,2,103.999995239258,0|0|0,1:0|0:0|0:0,0:0:0:0:
501,267,88500,2,0,B|434:253|434:253|399:262,2,103.999995239258,0|0|0,1:0|0:0|0:0,0:0:0:0:
128,319,88828,2,0,B|112:329|112:329|78:326|78:326|105:307|105:307|124:309,1,103.999995239258,0|0,1:0|0:0,0:0:0:0:
395,322,89047,6,0,L|442:316,1,40,0|0,1:0|0:0,0:0:0:0:
483,157,89157,2,0,L|483:204,1,40,0|0,1:0|0:0,0:0:0:0:
362,291,89266,6,0,L|403:329,1,46.0000008773804,0|0,1:0|0:0,0:0:0:0:
418,112,89376,2,0,L|418:159,1,46.0000008773804,0|0,1:0|0:0,0:0:0:0:
313,302,89485,6,0,B|335:289|335:289|371:291,1,51.999997619629,0|0,1:0|0:0,0:0:0:0:
354,128,89595,2,0,L|354:187,1,51.999997619629,0|0,1:0|0:0,0:0:0:0:
255,302,89704,6,0,L|325:302,1,58.0000017700196,0|0,1:0|0:0,0:0:0:0:
289,61,89814,2,0,L|289:133,1,58.0000017700196,0|0,1:0|0:0,0:0:0:0:
236,355,89923,6,0,P|233:323|276:300,1,64,0|0,1:0|0:0,0:0:0:0:
223,31,90033,2,0,L|223:114,1,64,0|0,1:0|0:0,0:0:0:0:
170,351,90142,6,0,B|194:364|194:364|246:352,1,70.000000667572,0|0,1:0|0:0,0:0:0:0:
157,77,90252,2,0,L|157:161,1,70.000000667572,0|0,1:0|0:0,0:0:0:0:
102,360,90361,6,0,B|151:343|151:343|180:355,1,71.9999978027344,0|0,1:0|0:0,0:0:0:0:
92,54,90471,2,0,L|92:139,1,71.9999978027344,0|0,1:0|0:0,0:0:0:0:
98,308,90580,6,0,B|89:300|89:300|82:308|82:308|107:375,1,78.0000002975464,0|0,1:0|0:0,0:0:0:0:
27,18,90690,2,0,L|27:110,1,78.0000002975464,0|0,1:0|0:0,0:0:0:0:
16,221,90799,5,0,0:0:0:0:
23,220,90854,1,0,0:0:0:0:
30,219,90909,1,0,0:0:0:0:
61,215,91018,5,8,0:0:0:0:
93,211,91128,1,0,0:0:0:0:
124,208,91237,1,0,0:0:0:0:
156,205,91347,1,0,0:0:0:0:
187,202,91456,1,8,0:0:0:0:
219,199,91566,1,0,0:0:0:0:
366,165,91675,5,8,0:0:0:0:
394,207,91748,1,8,0:0:0:0:
342,211,91821,1,8,0:0:0:0:
358,156,91894,5,8,2:0:0:0:
405,202,91967,1,8,2:0:0:0:
339,220,92040,1,8,2:0:0:0:
351,150,92113,6,0,P|343:124|355:97,1,40.000001525879,8|0,0:0|0:0,0:0:0:0:
416,201,92186,2,0,P|441:207|459:230,1,40.000001525879,8|0,0:0|0:0,0:0:0:0:
335,229,92259,2,0,P|316:248|287:251,1,40.000001525879,8|0,0:0|0:0,0:0:0:0:
369,194,92332,5,8,0:0:0:0:
283,172,92405,1,8,0:0:0:0:
197,150,92478,1,8,0:0:0:0:
111,128,92551,6,0,B|36:288|36:288|139:256,1,240.000009155274,2|0,3:1|1:0,0:0:0:0:
381,0,92880,2,0,B|205:27|205:27|167:105,1,240.000009155274,0|0,3:1|3:0,0:0:0:0:
158,320,93208,2,0,B|193:346|193:346|276:332,1,120.000004577637,2|8,1:1|0:0,0:0:0:0:
491,215,93427,6,0,B|456:189|456:189|373:203,1,120.000004577637,2|0,3:1|0:0,0:0:0:0:
341,321,93646,1,0,1:0:0:0:
260,93,93755,2,0,B|269:88|269:88|289:43|289:43|284:30|284:30|240:10|240:10|227:15|227:15|206:60|206:60|211:73|211:73|257:93,1,240.000009155274,0|0,3:1|3:0,0:0:0:0:
341,321,94084,2,0,B|327:350|327:350|357:363|357:363|370:334|370:334|348:324,1,120.000004577637,2|8,1:0|0:0,0:0:0:0:
298,215,94303,5,2,3:1:0:0:
159,181,94412,1,0,0:0:0:0:
19,148,94522,1,2,1:0:0:0:
19,148,94549,2,0,B|36:97|36:97|35:92|35:92|46:55|46:55|47:61|47:61|60:24|60:24|76:55|76:55|62:101,1,210.000008010865,0|0,0:0|3:0,0:0:0:0:
64,264,94850,5,0,3:0:0:0:
10,219,94960,1,2,1:0:0:0:
74,195,95069,1,8,0:0:0:0:
266,201,95179,6,0,B|377:179|377:179|401:174|420:187|426:218|413:237|390:242|390:242|350:249,1,240.000009155274,2|0,3:1|1:0,0:0:0:0:
107,358,95507,2,0,B|108:332|121:303|147:288|186:280|186:280|226:272|303:258,1,240.000009155274,0|0,3:1|3:0,0:0:0:0:
474,178,95836,2,0,P|433:127|374:116,1,120.000004577637,2|8,1:0|0:0,0:0:0:0:
108,153,96055,6,0,B|60:179|60:179|24:155|4:112|7:70|32:39|73:28,1,240.000009155274,0|2,3:0|1:0,0:0:0:0:
266,122,96383,2,0,B|326:85|326:85|280:64|280:64|141:139,1,240.000009155274,0|0,3:0|3:0,0:0:0:0:
20,314,96712,2,0,B|61:332|61:332|135:297,1,120.000004577637,2|8,1:0|0:0,0:0:0:0:
234,261,96931,5,0,3:0:0:0:
301,229,97040,1,0,0:0:0:0:
297,305,97150,1,2,1:0:0:0:
237,187,97259,6,0,B|249:142|249:142|316:111,1,120.000004577637,0|0,0:3|3:3,0:3:0:0:
496,266,97478,2,0,B|414:306|414:306|427:260,2,120.000004577637,0|2|0,0:0|1:0|0:0,0:0:0:0:
412,111,97807,6,0,P|476:71|398:97,1,240.000009155274,2|0,3:1|1:0,0:0:0:0:
350,198,98135,6,0,P|316:177|357:190,1,120.000004577637,2|0,0:1|3:0,0:0:0:0:
396,256,98354,6,0,L|454:245,1,60.0000022888184,2|0,0:1|0:0,0:0:0:0:
407,267,98464,2,0,L|465:256,1,60.0000022888184,0|0,1:0|0:0,0:0:0:0:
327,302,98573,6,0,B|317:329|317:329|333:369,1,60.0000022888184,2|0,0:0|0:0,0:0:0:0:
204,254,98682,2,0,B|181:250|181:250|141:263,1,60.0000022888184,0|0,3:0|0:0,0:0:0:0:
100,111,98792,2,0,L|23:97,1,60.0000022888184,0|0,3:0|0:0,0:0:0:0:
228,68,98901,6,0,B|256:87|256:87|313:80|313:80|336:91|336:91|375:86|375:86|381:82|381:82|417:76|417:76|413:79|413:79|458:73,1,240,2|0,1:0|0:0,0:0:0:0:
418,146,99120,2,0,B|327:157|327:157|277:134,1,120.000004577637,0|0,3:0|0:0,0:0:0:0:
273,22,99339,6,0,L|344:14,1,60.0000022888184,2|0,1:0|0:0,0:0:0:0:
301,145,99449,2,0,L|241:151,1,60.0000022888184,8|0,0:0|0:0,0:0:0:0:
477,89,99558,6,0,B|498:127|498:127|479:190|479:190|485:213|485:213|466:262|466:262|444:227|444:227|451:197,1,240.000009155274,2|0,3:1|1:0,0:0:0:0:
189,351,99887,2,0,B|365:324|365:324|403:246,1,240.000009155274,0|0,3:0|3:0,0:0:0:0:
209,282,100215,2,0,B|125:297|125:297|78:268,1,120.000004577637,2|8,1:0|0:0,0:0:0:0:
131,38,100434,6,0,B|215:23|215:23|262:52,1,120.000004577637,2|0,3:1|0:0,0:0:0:0:
170,140,100653,1,0,1:0:0:0:
112,190,100763,2,0,B|31:212|31:212|3:199|-3:169|18:147|18:147|119:121,1,240.000009155274,0|0,3:0|3:0,0:0:0:0:
170,140,101091,5,2,1:0:0:0:
243,124,101201,1,8,0:0:0:0:
330,185,101310,5,2,3:1:0:0:
243,124,101420,1,0,0:0:0:0:
304,34,101530,1,2,1:0:0:0:
304,34,101557,2,0,B|362:60|362:60|376:143|376:143|319:194,1,210.000008010865,0|0,0:0|3:0,0:0:0:0:
220,287,101858,5,0,0:0:0:0:
151,276,101967,1,2,1:0:0:0:
82,265,102077,1,0,0:0:0:0:
13,254,102186,6,0,B|77:248|77:248|85:244|85:244|135:239|135:239|143:241|143:241|201:236|201:236|171:215|171:215|159:221,1,240.000009155274,2|0,3:1|1:0,0:0:0:0:
512,276,102515,2,0,B|447:281|447:281|439:285|439:285|389:290|389:290|381:288|381:288|324:294|324:294|354:315|354:315|366:309,1,240.000009155274,0|0,3:0|3:0,0:0:0:0:
288,351,102843,2,0,B|252:325|252:325|268:237,1,120.000004577637,2|8,1:0|0:0,0:0:0:0:
237,68,103062,6,0,B|275:71|275:71|274:67|274:67|304:73|304:73|314:77|314:77|345:80|345:80|365:67|365:67|437:73|437:73|407:96,1,240.000009155274,0|2,3:0|1:0,0:0:0:0:
297,149,103391,2,0,B|201:137|201:137|177:134|163:116|161:96|168:76|187:63|210:65|210:65|242:69,1,240.000009155274,0|0,3:0|3:0,0:0:0:0:
468,16,103719,2,0,P|501:50|482:119,1,120.000004577637,2|8,1:0|0:0,0:0:0:0:
359,286,103938,6,0,L|378:167,1,120.000004577637,0|0,3:0|0:0,0:0:0:0:
388,101,104157,1,2,1:0:0:0:
303,196,104266,6,0,L|284:315,1,120.000004577637,0|0,0:0|3:0,0:0:0:0:
272,380,104485,1,0,0:0:0:0:
227,234,104595,6,0,L|246:115,1,120.000004577637,2|8,1:0|0:0,0:0:0:0:
254,52,104814,5,2,3:2:0:0:
241,31,104869,1,0,0:0:0:0:
223,15,104923,1,0,0:0:0:0:
202,4,104978,1,0,0:0:0:0:
178,0,105033,1,2,1:2:0:0:
154,3,105088,1,0,0:0:0:0:
132,13,105142,1,0,0:0:0:0:
114,28,105197,1,0,0:0:0:0:
100,48,105252,1,2,3:2:0:0:
93,71,105307,1,0,0:0:0:0:
92,95,105361,1,0,0:0:0:0:
98,118,105416,1,0,0:0:0:0:
111,138,105471,1,2,1:2:0:0:
129,155,105526,1,0,0:0:0:0:
150,165,105580,1,0,0:0:0:0:
174,169,105635,1,0,0:0:0:0:
236,134,105690,5,0,3:0:0:0:
229,160,105745,1,0,0:0:0:0:
222,185,105799,1,0,3:0:0:0:
215,211,105854,1,0,0:0:0:0:
209,238,105909,1,0,1:0:0:0:
202,264,105964,1,0,0:0:0:0:
195,289,106018,1,0,3:0:0:0:
188,316,106073,1,0,0:0:0:0:
187,384,106128,5,0,3:0:0:0:
196,344,106183,1,0,0:0:0:0:
206,306,106237,1,0,3:0:0:0:
216,267,106292,1,0,0:0:0:0:
226,228,106347,1,0,1:0:0:0:
236,189,106402,1,0,0:0:0:0:
246,151,106456,1,0,3:0:0:0:
257,112,106511,1,0,0:0:0:0:
318,76,106566,5,6,1:0:0:0:
398,35,106675,1,0,0:0:0:0:
485,52,106785,1,0,0:0:0:0:
303,67,106894,5,6,1:0:0:0:
394,19,107003,1,0,0:0:0:0:
494,39,107113,1,0,0:0:0:0:
281,58,107223,5,6,1:0:0:0:
389,0,107332,1,0,0:0:0:0:
507,24,107442,6,0,L|500:90,1,60.0000022888184,0|0,1:0|0:0,0:0:0:0:
477,296,107551,2,0,L|483:236,1,60.0000022888184,0|0,1:0|0:0,0:0:0:0:
470,47,107661,6,0,P|494:91|491:116,1,60.0000022888184,0|0,1:0|0:0,0:0:0:0:
451,277,107770,2,0,P|467:252|471:222,1,60.0000022888184,0|0,1:0|0:0,0:0:0:0:
441,79,107880,6,0,P|471:95|477:126,1,60.0000022888184,0|0,1:0|0:0,0:0:0:0:
430,252,107989,2,0,P|457:241|469:214,1,60.0000022888184,0|0,1:0|0:0,0:0:0:0:
414,120,108099,6,0,P|453:118|467:148,1,60.0000022888184,0|0,1:0|0:0,0:0:0:0:
417,220,108208,2,0,P|446:219|462:195,1,60.0000022888184,0|0,1:0|0:0,0:0:0:0:
358,173,108318,5,6,1:0:0:0:
273,181,108427,1,0,0:0:0:0:
220,319,108537,5,0,0:0:0:0:
305,311,108646,1,6,1:0:0:0:
350,165,108755,5,0,0:0:0:0:
265,173,108864,1,0,0:0:0:0:
124,51,108974,5,6,1:0:0:0:
209,43,109083,1,0,0:0:0:0:
294,35,109193,6,0,L|327:105,1,60.0000022888184,0|0,1:0|0:0,0:0:0:0:
432,204,109303,2,0,L|506:195,1,60.0000022888184,0|0,1:0|0:0,0:0:0:0:
290,51,109412,6,0,L|323:121,1,60.0000022888184,0|0,1:0|0:0,0:0:0:0:
229,193,109522,2,0,L|155:202,1,60.0000022888184,0|0,1:0|0:0,0:0:0:0:
286,67,109631,6,0,L|319:137,1,60.0000022888184,0|0,1:0|0:0,0:0:0:0:
455,271,109741,2,0,L|395:278,1,60.0000022888184,0|0,1:0|0:0,0:0:0:0:
282,83,109850,6,0,L|315:153,1,60.0000022888184,0|0,1:0|0:0,0:0:0:0:
123,272,109960,2,0,L|182:264,1,60.0000022888184,0|0,1:0|0:0,0:0:0:0:
455,271,110069,5,6,1:0:0:0:
315,290,110178,1,0,0:0:0:0:
368,160,110288,1,0,0:0:0:0:
460,286,110398,5,6,1:0:0:0:
297,286,110508,1,0,0:0:0:0:
378,146,110617,1,0,0:0:0:0:
462,304,110726,5,6,1:0:0:0:
282,279,110836,1,0,0:0:0:0:
393,135,110945,6,0,B|415:129|415:129|457:146,1,60.0000022888184,0|0,1:0|0:0,0:0:0:0:
386,276,111055,2,0,L|396:343,1,60.0000022888184,0|0,1:0|0:0,0:0:0:0:
332,97,111164,6,0,B|345:78|345:78|388:65,1,60.0000022888184,0|0,1:0|0:0,0:0:0:0:
320,308,111274,2,0,L|330:375,1,60.0000022888184,0|0,1:0|0:0,0:0:0:0:
262,98,111383,6,0,B|261:75|261:75|288:38,1,60.0000022888184,0|0,1:0|0:0,0:0:0:0:
241,255,111493,2,0,L|251:322,1,60.0000022888184,0|0,1:0|0:0,0:0:0:0:
209,147,111602,6,0,B|194:129|194:129|191:84,1,60.0000022888184,0|0,1:0|0:0,0:0:0:0:
181,325,111712,2,0,L|191:392,1,60.0000022888184,0|0,1:0|0:0,0:0:0:0:
156,199,111821,5,6,1:0:0:0:
65,189,111931,1,0,0:0:0:0:
13,130,112040,1,0,0:0:0:0:
11,114,112150,5,6,1:0:0:0:
42,40,112259,1,0,0:0:0:0:
129,1,112369,1,0,0:0:0:0:
252,36,112478,1,6,1:0:0:0:
345,153,112588,1,0,0:0:0:0:
315,358,112697,6,0,P|269:351|249:330,1,60.0000022888184,0|0,1:0|0:0,0:0:0:0:
397,302,112807,2,0,L|474:293,1,60.0000022888184,0|0,1:0|0:0,0:0:0:0:
194,327,112916,6,0,P|166:289|167:260,1,60.0000022888184,0|0,1:0|0:0,0:0:0:0:
386,291,113026,2,0,L|463:282,1,60.0000022888184,0|0,1:0|0:0,0:0:0:0:
130,219,113135,6,0,P|137:173|158:153,1,60.0000022888184,0|0,1:0|0:0,0:0:0:0:
375,280,113245,2,0,L|452:271,1,60.0000022888184,0|0,1:0|0:0,0:0:0:0:
161,97,113354,6,0,P|198:69|227:70,1,60.0000022888184,0|0,1:0|0:0,0:0:0:0:
364,269,113464,2,0,L|441:260,1,60.0000022888184,0|0,1:0|0:0,0:0:0:0:
321,214,113573,5,6,1:0:0:0:
343,129,113682,1,0,0:0:0:0:
328,133,113792,1,0,0:0:0:0:
226,27,113901,5,6,1:0:0:0:
257,150,114011,1,0,0:0:0:0:
242,154,114121,1,0,0:0:0:0:
135,350,114230,5,6,1:0:0:0:
171,171,114339,1,0,0:0:0:0:
156,175,114449,6,0,L|92:190,1,60.0000022888184,0|0,1:0|0:0,0:0:0:0:
77,261,114558,2,0,L|13:276,1,60.0000022888184,0|0,1:0|0:0,0:0:0:0:
253,273,114668,6,0,L|189:288,1,60.0000022888184,0|0,1:0|0:0,0:0:0:0:
294,166,114777,2,0,L|230:181,1,60.0000022888184,0|0,1:0|0:0,0:0:0:0:
234,78,114887,6,0,L|170:93,1,60.0000022888184,0|0,1:0|0:0,0:0:0:0:
394,217,114996,2,0,L|330:232,1,60.0000022888184,0|0,1:0|0:0,0:0:0:0:
401,86,115106,6,0,L|337:101,1,60.0000022888184,0|0,1:0|0:0,0:0:0:0:
511,282,115215,2,0,L|447:297,1,60.0000022888184,0|0,1:0|0:0,0:0:0:0:
485,197,115325,5,6,1:0:0:0:
496,112,115434,1,0,0:0:0:0:
353,14,115544,1,0,0:0:0:0:
342,99,115653,1,6,1:0:0:0:
169,270,115763,5,0,0:0:0:0:
180,355,115872,1,0,0:0:0:0:
31,259,115982,5,6,1:0:0:0:
20,174,116091,1,0,0:0:0:0:
127,176,116201,6,0,P|141:171|153:162,1,30.0000011444092,0|0,1:0|0:0,0:0:0:0:
238,177,116310,2,0,P|223:181|211:190,1,30.0000011444092,0|0,1:0|0:0,0:0:0:0:
113,162,116420,6,0,P|132:164|152:161,1,40,0|0,1:0|0:0,0:0:0:0:
251,190,116529,2,0,P|231:187|211:190,1,40,0|0,1:0|0:0,0:0:0:0:
101,134,116639,6,0,P|124:152|152:161,1,60.0000022888184,0|0,1:0|0:0,0:0:0:0:
263,217,116748,2,0,P|239:198|211:189,1,60.0000022888184,0|0,1:0|0:0,0:0:0:0:
112,96,116858,6,0,P|123:134|152:161,1,80,0|0,1:0|0:0,0:0:0:0:
251,253,116967,2,0,P|240:214|211:188,1,80,0|0,1:0|0:0,0:0:0:0:
159,30,117077,5,6,1:0:0:0:
226,37,117186,1,0,0:0:0:0:
293,45,117296,1,0,0:0:0:0:
422,148,117405,5,6,1:0:0:0:
337,138,117515,1,0,0:0:0:0:
253,128,117624,1,0,0:0:0:0:
0,186,117734,5,6,1:0:0:0:
102,198,117843,1,0,0:0:0:0:
204,210,117953,6,0,B|201:220|201:220|213:235|213:235|213:216|213:216|204:207,1,60.0000022888184,0|0,1:0|0:0,0:0:0:0:
284,248,118062,2,0,B|273:245|273:245|258:257|258:257|277:257|277:257|286:248,1,60.0000022888184,0|0,1:0|0:0,0:0:0:0:
249,331,118172,2,0,B|251:320|251:320|239:305|239:305|239:324|239:324|248:333,1,60.0000022888184,0|0,1:0|0:0,0:0:0:0:
163,293,118281,2,0,B|173:295|173:295|188:283|188:283|169:283|169:283|160:292,1,60.0000022888184,0|0,1:0|0:0,0:0:0:0:
163,188,118391,6,0,P|185:170|236:174,1,60.0000022888184,0|0,1:0|0:0,0:0:0:0:
303,209,118500,2,0,P|321:231|317:282,1,60.0000022888184,0|0,1:0|0:0,0:0:0:0:
289,351,118609,2,0,P|267:369|216:365,1,60.0000022888184,0|0,1:0|0:0,0:0:0:0:
145,332,118719,2,0,P|127:310|131:259,1,60.0000022888184,0|0,1:0|0:0,0:0:0:0:
134,95,118828,6,0,P|112:115|105:144,1,60.0000022888184,0|0,1:0|0:0,0:0:0:0:
319,172,118938,2,0,P|318:202|300:227,1,60.0000022888184,0|0,1:0|0:0,0:0:0:0:
107,105,119047,6,0,P|94:133|100:173,1,68.0000012969971,0|0,1:0|0:0,0:0:0:0:
326,200,119157,2,0,P|313:229|278:249,1,68.0000012969971,0|0,1:0|0:0,0:0:0:0:
88,126,119266,6,0,P|87:162|108:199,1,80,0|0,1:0|0:0,0:0:0:0:
324,231,119376,2,0,P|297:256|256:262,1,80,0|0,1:0|0:0,0:0:0:0:
71,149,119485,6,0,P|89:202|154:236,1,95.9999970703126,0|0,1:0|0:0,0:0:0:0:
316,258,119595,2,0,P|265:278|197:249,1,95.9999970703126,0|0,1:0|0:0,0:0:0:0:
82,212,119704,6,0,P|60:150|75:103,1,111.999996582031,0|0,1:0|0:0,0:0:0:0:
256,289,119814,2,0,P|319:270|348:230,1,111.999996582031,0|0,1:0|0:0,0:0:0:0:
51,184,119923,6,0,P|53:117|95:61,1,128,0|0,1:0|0:0,0:0:0:0:
295,298,120033,2,0,P|348:257|368:190,1,128,0|0,1:0|0:0,0:0:0:0:
33,151,120142,6,0,P|51:87|124:35,1,143.999995605469,0|0,1:0|0:0,0:0:0:0:
333,294,120252,2,0,P|374:241|373:152,1,143.999995605469,0|0,1:0|0:0,0:0:0:0:
26,118,120361,6,0,P|71:49|162:20,1,160,0|0,1:0|0:0,0:0:0:0:
364,280,120471,2,0,P|393:203|363:112,1,160,0|0,1:0|0:0,0:0:0:0:
289,23,120580,6,0,L|229:134,2,120.000004577637,2|0|0,3:1|0:0|1:0,0:0:0:0:
94,384,120909,2,0,L|151:278,2,120.000004577637,2|0|0,0:1|3:0|0:0,0:0:0:0:
182,222,121237,2,0,B|210:212|210:212|200:183|200:183|169:194|169:194|179:223,1,120.000004577637,2|0,1:0|0:0,0:0:0:0:
236,279,121456,5,0,3:0:0:0:
236,279,121511,1,0,0:0:0:0:
236,279,121566,1,2,0:1:0:0:
236,279,121620,1,0,0:0:0:0:
236,279,121675,2,0,B|270:267|270:267|290:221|290:221|274:173,1,120.000004577637,0|0,1:0|0:0,0:0:0:0:
145,127,121894,2,0,B|111:139|111:139|91:185|91:185|107:233,1,120.000004577637,2|0,3:1|0:0,0:0:0:0:
231,128,122113,6,0,L|289:23,1,120.000004577637,2|0,1:0|0:0,0:0:0:0:
381,108,122332,1,2,3:1:0:0:
357,102,122442,1,0,0:0:0:0:
352,124,122551,1,0,1:0:0:0:
375,130,122661,1,0,0:0:0:0:
445,158,122770,5,0,3:0:0:0:
362,25,122880,1,0,0:0:0:0:
290,164,122989,6,0,B|263:182|263:182|254:212,3,60.0000022888184,2|0|0|0,1:0|0:0|0:0|0:0,0:0:0:0:
249,229,123208,2,0,B|216:230|216:230|191:211,3,60.0000022888184,2|0|0|0,3:1|0:0|0:0|0:0,0:0:0:0:
174,220,123427,6,0,B|145:190|145:190|151:140|151:140|143:119|143:119|154:56|154:56|182:34|182:34|177:69,1,240.000009155274,0|0,1:0|3:0,0:0:0:0:
78,156,123755,1,0,0:0:0:0:
151,337,123865,2,0,L|280:321,1,120.000004577637,2|0,1:0|0:0,0:0:0:0:
414,264,124084,5,2,3:2:0:0:
414,264,124139,1,0,0:0:0:0:
414,264,124193,1,0,0:0:0:0:
414,264,124248,1,0,0:0:0:0:
380,320,124303,5,2,1:2:0:0:
380,320,124358,1,0,0:0:0:0:
380,320,124412,1,0,0:0:0:0:
380,320,124467,1,0,0:0:0:0:
323,286,124522,5,2,3:2:0:0:
323,286,124577,1,0,0:0:0:0:
323,286,124631,1,0,0:0:0:0:
323,286,124686,1,0,0:0:0:0:
357,230,124741,5,2,1:2:0:0:
357,230,124796,1,0,0:0:0:0:
357,230,124850,1,0,0:0:0:0:
357,230,124905,1,0,0:0:0:0:
414,264,124960,5,2,3:2:0:0:
451,245,125015,1,0,0:0:0:0:
477,212,125069,1,0,0:0:0:0:
486,171,125124,1,0,0:0:0:0:
477,130,125179,1,2,1:2:0:0:
450,97,125234,1,0,0:0:0:0:
412,79,125288,1,0,0:0:0:0:
370,80,125343,1,0,0:0:0:0:
298,124,125398,5,2,3:2:0:0:
328,88,125453,1,0,0:0:0:0:
370,69,125507,1,0,0:0:0:0:
417,69,125562,1,0,0:0:0:0:
459,91,125617,1,2,1:2:0:0:
487,128,125672,1,0,0:0:0:0:
497,173,125726,1,0,0:0:0:0:
486,219,125781,1,0,0:0:0:0:
458,258,125836,6,2,B|349:253|349:253|335:260|335:260|199:253,1,240.000009155274,2|0,3:1|1:1,0:1:0:0:
0,186,126164,2,2,B|115:191|115:191|129:184|129:184|238:189,1,240.000009155274,2|0,3:1|3:0,0:0:0:0:
286,323,126493,2,0,B|190:318|190:318|166:297,2,120.000004577637,2|0|0,1:0|0:0|3:0,0:0:0:0:
342,273,126821,5,2,0:0:0:0:
354,252,126876,1,0,0:0:0:0:
365,231,126931,5,2,1:2:0:0:
400,235,126985,1,0,0:0:0:0:
435,239,127040,1,0,0:0:0:0:
470,245,127095,1,0,0:0:0:0:
492,227,127150,5,2,3:2:0:0:
446,219,127205,1,0,0:0:0:0:
399,213,127260,1,0,0:0:0:0:
353,208,127314,1,0,0:0:0:0:
327,167,127369,5,2,1:2:0:0:
298,122,127423,1,0,0:0:0:0:
268,76,127478,1,2,0:2:0:0:
238,30,127533,1,0,0:0:0:0:
183,30,127588,6,0,B|93:30|93:30|67:63,1,120.000004577637,0|2,3:0|0:2,0:0:0:0:
152,204,127807,2,0,B|242:204|242:204|268:171,1,120.000004577637,0|2,1:0|0:2,0:0:0:0:
55,183,128026,1,0,3:0:0:0:
38,207,128080,1,0,0:0:0:0:
21,231,128135,1,0,0:0:0:0:
109,119,128245,6,0,B|172:119|172:119|180:116|180:116|242:116,1,120.000004577637,2|0,1:2|0:0,0:0:0:0:
486,201,128464,2,0,B|423:201|423:201|415:204|415:204|353:204,1,120.000004577637,0|2,3:0|0:2,0:0:0:0:
294,95,128682,1,0,1:0:0:0:
311,119,128736,1,0,0:0:0:0:
328,143,128792,1,2,0:2:0:0:
441,268,128901,5,2,3:0:0:0:
433,283,128956,1,0,0:0:0:0:
383,332,129011,5,8,3:2:0:0:
375,317,129066,1,0,0:0:0:0:
325,266,129120,5,2,1:2:0:0:
317,281,129175,1,0,0:0:0:0:
267,330,129230,5,8,1:2:0:0:
259,315,129285,1,0,0:0:0:0:
209,266,129339,5,0,3:0:0:0:
229,193,129449,1,2,0:2:0:0:
249,120,129558,1,0,1:0:0:0:
269,47,129668,1,2,0:2:0:0:
309,227,129777,5,0,3:0:0:0:
325,224,129832,1,0,0:0:0:0:
341,221,129887,1,0,0:0:0:0:
189,339,129996,5,2,1:2:0:0:
209,266,130106,1,0,0:0:0:0:
229,193,130215,1,0,3:0:0:0:
249,120,130325,1,2,1:2:0:0:
410,209,130434,5,0,3:0:0:0:
426,206,130489,1,0,0:0:0:0:
442,203,130544,1,2,1:2:0:0:
384,143,130653,5,2,3:2:0:0:
369,142,130708,1,0,0:0:0:0:
302,136,130763,5,8,3:2:0:0:
287,135,130818,1,0,0:0:0:0:
220,129,130872,5,2,1:2:0:0:
205,128,130927,1,0,0:0:0:0:
138,122,130982,5,8,1:2:0:0:
123,121,131037,1,0,0:0:0:0:
58,114,131091,6,0,L|58:66,1,40,0|0,3:0|0:0,0:0:0:0:
165,190,131201,2,0,L|165:243,1,40,0|0,3:0|0:0,0:0:0:0:
103,321,131310,2,0,L|104:278,1,40,0|0,3:0|0:0,0:0:0:0:
264,103,131420,2,0,L|265:61,1,40,0|0,3:0|0:0,0:0:0:0:
460,169,131529,2,0,L|460:224,1,40,0|0,3:3|0:0,0:0:0:0:
376,329,131639,2,0,L|376:275,1,40,0|0,3:0|0:0,0:0:0:0:
253,237,131748,2,0,L|253:294,1,40,0|0,3:0|0:0,0:0:0:0:
357,134,131858,2,0,L|356:86,1,40,0|0,3:0|0:0,0:0:0:0:
133,164,131967,6,0,L|133:114,1,40,0|0,1:0|0:0,0:0:0:0:
323,203,132077,2,0,L|323:263,1,40,0|0,1:0|0:0,0:0:0:0:
71,286,132186,2,0,L|71:334,1,40,0|0,1:0|0:0,0:0:0:0:
202,166,132296,2,0,L|202:212,1,40,0|0,1:0|0:0,0:0:0:0:
434,297,132405,2,0,L|434:338,1,40,0|0,1:0|0:0,0:0:0:0:
395,74,132515,2,0,L|395:33,1,40,0|0,1:0|0:0,0:0:0:0:
287,170,132624,2,0,L|287:120,1,40,0|0,1:0|0:0,0:0:0:0:
358,203,132734,2,0,L|358:257,1,40,0|0,1:0|0:0,0:0:0:0:
182,295,132843,6,0,L|182:241,1,51.999997619629,2|0,3:3|0:0,0:0:0:0:
224,90,132953,2,0,L|224:36,1,51.999997619629,0|0,3:0|0:0,0:0:0:0:
346,98,133062,2,0,L|346:160,1,51.999997619629,2|0,3:0|0:0,0:0:0:0:
76,157,133172,2,0,L|76:102,1,51.999997619629,0|0,3:0|0:0,0:0:0:0:
37,294,133281,2,0,L|37:354,1,51.999997619629,2|0,3:0|0:0,0:0:0:0:
220,248,133391,2,0,L|220:191,1,51.999997619629,0|0,3:0|0:0,0:0:0:0:
463,323,133500,2,0,L|462:257,1,51.999997619629,2|0,3:0|0:0,0:0:0:0:
288,237,133609,2,0,L|288:297,1,51.999997619629,0|0,3:0|0:0,0:0:0:0:
424,54,133719,6,0,L|424:107,1,51.999997619629,2|0,1:0|0:0,0:0:0:0:
259,74,133828,2,0,L|259:13,1,51.999997619629,0|0,1:0|0:0,0:0:0:0:
145,298,133938,2,0,L|145:361,1,51.999997619629,2|0,1:0|0:0,0:0:0:0:
54,159,134047,2,0,L|54:222,1,51.999997619629,0|0,1:0|0:0,0:0:0:0:
254,233,134157,2,0,L|254:181,1,51.999997619629,2|0,1:0|0:0,0:0:0:0:
468,203,134266,2,0,L|468:266,1,51.999997619629,0|0,1:0|0:0,0:0:0:0:
342,305,134376,2,0,L|342:368,1,51.999997619629,2|0,1:0|0:0,0:0:0:0:
146,103,134485,2,0,L|146:51,1,51.999997619629,0|0,1:0|0:0,0:0:0:0:
109,247,135500,5,0,0:0:0:0:
88,333,135625,1,0,0:0:0:0:
173,307,135750,1,0,1:0:0:0:
27,270,135875,5,0,2:0:0:0:
15,246,135937,1,0,2:0:0:0:
3,222,136000,1,0,2:0:0:0:
15,199,136062,1,0,2:0:0:0:
29,176,136125,1,0,0:0:0:0:
139,141,136250,6,0,L|218:150,1,80,0|0,0:0|1:0,0:0:0:0:
319,213,136500,1,0,2:0:0:0:
345,209,136562,1,0,2:0:0:0:
372,207,136625,1,0,2:0:0:0:
398,204,136687,1,0,2:0:0:0:
425,201,136750,2,0,L|473:195,2,40,0|0|0,0:0|2:0|0:0,0:0:0:0:
437,287,137000,2,0,P|466:324|447:368,1,80,0|0,1:0|0:0,0:0:0:0:
348,124,137250,6,0,P|353:76|396:58,1,80
479,105,137500,1,0,1:0:0:0:
425,201,137625,1,0,2:0:0:0:
398,204,137688,1,0,2:0:0:0:
372,207,137750,1,0,2:0:0:0:
345,209,137813,1,0,2:0:0:0:
319,213,137875,1,0,0:0:0:0:
251,100,138000,6,0,B|236:142|236:142|263:190,1,80,0|0,0:0|1:0,0:0:0:0:
245,301,138250,1,0,2:0:0:0:
229,299,138312,1,0,2:0:0:0:
212,297,138375,1,0,2:0:0:0:
196,295,138437,1,0,2:0:0:0:
179,293,138500,6,0,L|164:336,1,40,0|0,0:0|2:0,0:0:0:0:
96,336,138625,1,0,0:0:0:0:
61,185,138750,6,0,L|46:142,1,40,0|0,1:0|2:0,0:0:0:0:
14,89,138875,2,0,L|27:126,1,40,0|0,0:0|2:0,0:0:0:0:
21,147,139000,6,0,L|109:139,1,80
202,186,139240,1,0,1:0:0:0:
284,124,139360,1,0,2:0:0:0:
291,105,139420,1,0,2:0:0:0:
290,85,139480,1,0,2:0:0:0:
283,66,139540,1,0,2:0:0:0:
269,51,139600,2,0,B|237:42|237:42|182:53,1,80
202,186,139840,5,0,1:0:0:0:
257,279,139960,1,0,2:0:0:0:
262,281,140020,1,0,2:0:0:0:
267,283,140080,1,0,2:0:0:0:
272,285,140140,1,0,2:0:0:0:
277,287,140200,6,0,L|266:224,1,40,0|0,0:0|2:0,0:0:0:0:
202,186,140320,1,0,0:0:0:0:
95,288,140440,2,0,P|141:266|186:282,1,80,0|0,1:0|3:0,0:0:0:0:
277,287,140680,5,0,0:0:0:0:
453,312,140800,2,0,L|373:317,1,80,0|0,0:0|1:0,0:0:0:0:
338,215,141040,1,0,2:0:0:0:
342,195,141100,1,0,2:0:0:0:
347,175,141160,1,0,2:0:0:0:
352,155,141220,1,0,2:0:0:0:
357,135,141280,1,0,0:0:0:0:
506,231,141400,6,0,L|426:236,1,80,0|0,0:0|1:0,0:0:0:0:
258,197,141640,1,0,2:0:0:0:
226,193,141700,1,0,2:0:0:0:
194,189,141760,1,0,2:0:0:0:
162,185,141820,1,0,2:0:0:0:
130,182,141880,2,0,L|76:175,1,40,0|0,0:0|2:0,0:0:0:0:
22,169,142000,1,0,0:0:0:0:
141,253,142120,6,0,L|147:304,1,40,0|0,1:0|2:0,0:0:0:0:
222,126,142240,2,0,L|217:86,1,40,0|0,0:0|2:0,0:0:0:0:
299,257,142360,6,0,L|313:364,1,103.999995239258
431,384,142582,1,0,1:0:0:0:
487,250,142693,1,0,2:0:0:0:
497,220,142748,1,0,2:0:0:0:
493,188,142804,1,0,2:0:0:0:
477,160,142860,1,0,2:0:0:0:
448,148,142915,1,0,0:0:0:0:
361,188,143026,6,0,L|375:295,1,103.999995239258,0|0,0:0|1:0,0:0:0:0:
281,137,143248,1,0,2:0:0:0:
249,133,143304,1,0,2:0:0:0:
217,129,143360,1,0,2:0:0:0:
186,125,143415,1,0,2:0:0:0:
154,122,143471,6,0,L|135:181,1,51.999997619629,0|0,0:0|2:0,0:0:0:0:
70,182,143582,1,0,0:0:0:0:
151,264,143693,2,0,B|237:253|237:253|255:219,1,103.999995239258,0|0,1:0|0:0,0:0:0:0:
122,43,143915,6,0,B|36:54|36:54|18:88,1,103.999995239258
70,182,144125,1,0,1:0:0:0:
136,348,144230,1,0,2:0:0:0:
177,343,144283,1,0,2:0:0:0:
218,338,144336,1,0,2:0:0:0:
258,334,144388,1,0,2:0:0:0:
299,330,144441,1,0,0:0:0:0:
442,338,144546,6,0,B|462:303|462:303|436:220,2,103.999995239258,0|0|0,0:0|1:0|0:0,0:0:0:0:
414,173,144862,1,0,2:0:0:0:
414,173,144915,1,0,2:0:0:0:
414,173,144967,1,0,2:0:0:0:
414,173,145020,1,0,2:0:0:0:
414,173,145072,2,0,L|352:165,1,51.999997619629,0|0,0:0|2:0,0:0:0:0:
305,212,145178,6,0,L|243:204,1,51.999997619629,0|0,1:0|2:0,0:0:0:0:
235,107,145283,6,0,L|173:99,1,51.999997619629,0|0,0:0|2:0,0:0:0:0:
104,245,145388,6,0,B|93:275|93:275|124:285|124:285|134:254|134:254|111:247,1,120.000004577637
74,179,145588,2,0,B|84:148|84:148|53:138|53:138|43:169|43:169|66:176,1,120.000004577637,0|0,1:0|3:0,0:0:0:0:
142,186,145788,5,0,0:0:0:0:
205,167,145838,1,0,2:0:0:0:
268,147,145888,1,0,0:0:0:0:
450,61,145988,6,0,B|464:82|464:82|447:147|447:147|429:122,1,120.000004577637,0|0,1:0|0:0,0:0:0:0:
351,250,146188,2,0,B|379:164|379:164|403:196,1,120.000004577637
457,242,146388,5,0,1:0:0:0:
432,315,146438,1,0,2:0:0:0:
512,299,146488,1,0,0:0:0:0:
351,250,146588,5,0,1:0:0:0:
223,219,146688,1,0,0:0:0:0:
81,181,146788,6,0,L|101:363,1,160
427,169,146978,2,0,L|419:331,1,160,0|0,1:0|0:0,0:0:0:0:
168,267,147168,5,0,0:0:0:0:
260,278,147216,1,0,2:0:0:0:
352,287,147264,1,0,0:0:0:0:
44,58,147359,6,0,L|24:261,1,200
465,20,147549,2,0,L|498:221,1,200,0|0,1:0|0:0,0:0:0:0:
99,226,147740,5,0,0:0:0:0:
255,191,147788,1,0,2:0:0:0:
413,158,147835,1,0,0:0:0:0:
32,191,147930,6,0,P|76:159|153:174,1,120.000004577637,0|0,1:0|2:0,0:0:0:0:
480,193,148026,2,0,P|436:225|359:210,1,120.000004577637,0|0,1:0|2:0,0:0:0:0:
255,191,148121,5,4,3:1:0:0:
256,192,148165,12,0,154315,0:0:0:0:
