osu file format v14

[General]
AudioFilename: audio.mp3
AudioLeadIn: 0
PreviewTime: 92551
Countdown: 0
SampleSet: Drum
StackLeniency: 0.4
Mode: 0
LetterboxInBreaks: 0
WidescreenStoryboard: 1

[Editor]
Bookmarks: 103391,127588,130872
DistanceSpacing: 1.4
BeatDivisor: 2
GridSize: 8
TimelineZoom: 1.5

[Metadata]
Title:Apollo
TitleUnicode:Apollo
Artist:TJ.hangneil
ArtistUnicode:TJ.hangneil
Creator:kiddly
Version:Normal
Source:オンゲキ R.E.D. PLUS
Tags:sasakure.UK _ihcanan eznirm electronic instrumental ongeki red Frey Necho yf_bmp X Light Garden Hpocks dahkjdas pw384 jycool jyc-binggan XLT
BeatmapID:3527702
BeatmapSetID:1650673

[Difficulty]
HPDrainRate:2
CircleSize:3
OverallDifficulty:2
ApproachRate:5
SliderMultiplier:0.600000005960464
SliderTickRate:1

[Events]
//Background and Video events
0,0,"1.png",0,0
Video,0,"Video.mp4"
//Break Periods
2,22106,27715
2,49917,56737
2,78737,84344
//Storyboard Layer 0 (Background)
//Storyboard Layer 1 (Fail)
//Storyboard Layer 2 (Pass)
//Storyboard Layer 3 (Foreground)
//Storyboard Layer 4 (Overlay)
//Storyboard Sound Samples

[TimingPoints]
886,218.978102189781,4,2,1,50,1,0
7893,-100,4,2,1,60,0,0
21907,-100,4,2,1,45,0,0
35922,-100,4,2,1,60,0,0
49937,285.714285714286,7,2,1,60,1,0
53937,-100,7,3,2,45,0,0
57937,-100,7,3,2,55,0,0
65937,272.727272727273,7,3,2,60,1,0
69755,260.869565217391,7,3,2,60,1,0
71581,250,7,3,2,60,1,0
73331,240,7,2,2,60,1,0
76691,230.769230769231,4,2,1,10,1,0
78537,218.978102189781,4,2,1,60,1,0
92551,-100,4,2,1,75,0,0
134595,226.415094339623,4,2,1,60,1,0
135500,250,7,3,2,60,1,0
139000,240,7,3,2,60,1,0
142360,222.222222222222,7,3,2,60,1,0
143915,210.526315789474,7,3,2,60,1,0
145388,200,7,3,2,60,1,0
146788,190.47619047619,7,3,2,60,1,0
148121,176.991150442478,7,3,2,60,1,0
148165,-100,7,3,2,5,0,0

[Colours]
Combo1 : 255,30,30
Combo2 : 63,63,63
Combo3 : 219,219,219

[HitObjects]
28,110,7893,6,0,L|112:99,1,60.0000005960464,0|0,3:0|1:0,0:0:0:0:
144,39,8331,2,0,P|167:65|169:98,1,60.0000005960464,0|0,3:0|1:0,0:0:0:0:
140,167,8769,2,0,L|125:252,1,60.0000005960464,0|0,3:0|1:0,0:0:0:0:
173,298,9207,2,0,P|205:312|249:297,1,60.0000005960464,0|0,3:0|1:0,0:0:0:0:
305,272,9645,1,0,3:0:0:0:
427,156,10083,6,0,P|430:91|378:51,1,120.000001192093,0|0,3:0|3:0,0:0:0:0:
229,91,10958,1,0,3:0:0:0:
81,171,11396,6,0,L|89:237,1,60.0000005960464,0|0,3:0|1:0,0:0:0:0:
172,228,11834,2,0,L|181:303,1,60.0000005960464,0|0,3:0|1:0,0:0:0:0:
118,345,12272,2,0,P|160:369|194:365,1,60.0000005960464,0|0,3:0|1:0,0:0:0:0:
250,343,12710,2,0,L|334:338,1,60.0000005960464,0|0,3:0|1:0,0:0:0:0:
394,338,13148,1,2,3:1:0:0:
379,212,13477,6,0,B|388:180|388:180|385:152|385:152|401:118,1,90.0000008940696,2|0,0:0|1:0,0:0:0:0:
429,48,14024,1,0,3:0:0:0:
345,60,14243,1,0,1:0:0:0:
261,72,14462,1,0,3:0:0:0:
178,86,14681,1,0,1:0:0:0:
95,101,14900,6,0,P|79:134|85:167,1,60.0000005960464,0|0,3:0|1:0,0:0:0:0:
148,206,15338,2,0,P|164:239|158:272,1,60.0000005960464,0|0,3:0|1:0,0:0:0:0:
148,344,15776,2,0,L|220:331,1,60.0000005960464,0|0,3:0|1:0,0:0:0:0:
283,298,16214,2,0,L|350:309,1,60.0000005960464,0|0,3:0|1:0,0:0:0:0:
411,252,16652,1,0,3:0:0:0:
503,111,17090,6,0,P|454:66|385:77,1,120.000001192093,0|0,3:0|3:0,0:0:0:0:
301,201,17966,1,0,3:0:0:0:
192,329,18404,6,0,L|110:316,1,60.0000005960464,0|0,3:0|1:0,0:0:0:0:
54,288,18842,2,0,L|113:278,1,60.0000005960464,0|0,3:0|1:0,0:0:0:0:
185,239,19280,2,0,L|103:226,1,60.0000005960464,0|0,3:0|1:0,0:0:0:0:
71,165,19718,2,0,P|62:134|89:98,1,60.0000005960464,0|0,3:0|1:0,0:0:0:0:
150,76,20156,6,0,L|243:91,1,90.0000008940696,0|0,3:0|0:0,0:0:0:0:
363,111,20813,1,0,1:0:0:0:
392,189,21031,6,0,L|404:250,1,60.0000005960464,2|2,1:0|1:0,0:0:0:0:
331,289,21469,2,0,L|314:362,2,60.0000005960464,2|2|4,1:0|1:0|1:0,0:0:0:0:
107,56,28915,6,0,P|146:51|179:71,1,60.0000005960464,0|10,0:0|0:0,0:0:0:0:
53,185,29572,1,8,0:0:0:0:
130,153,29791,1,2,0:0:0:0:
208,183,30010,1,8,0:0:0:0:
237,261,30229,6,0,L|310:250,1,60.0000005960464,0|10,0:0|0:0,0:0:0:0:
377,275,30667,2,0,P|412:219|389:157,1,120.000001192093,2|0,0:0|0:0,0:0:0:0:
437,94,31323,2,0,L|303:73,1,120.000001192093,10|8,0:0|0:0,0:0:0:0:
244,35,31980,2,0,L|164:22,1,60.0000005960464,0|10,0:0|0:0,0:0:0:0:
101,11,32418,5,2,0:0:0:0:
101,11,32637,1,10,0:0:0:0:
34,165,33075,1,8,0:0:0:0:
117,155,33294,1,2,0:0:0:0:
168,221,33513,1,8,0:0:0:0:
86,233,33732,2,0,P|70:279|80:310,1,60.0000005960464,0|10,0:0|0:0,0:0:0:0:
135,344,34170,6,0,P|167:325|232:325,1,90.0000008940696,2|2,0:0|0:0,0:0:0:0:
338,362,34827,1,2,0:0:0:0:
368,285,35046,6,0,L|439:276,1,60.0000005960464,0|2,0:0|0:0,0:0:0:0:
458,198,35484,2,0,P|407:178|376:179,1,60.0000005960464,0|2,0:0|0:0,0:0:0:0:
319,164,35922,6,0,L|201:151,2,90.0000008940696,0|0|0,1:0|1:0|1:0,0:0:0:0:
383,110,36798,2,0,L|472:119,2,90.0000008940696,0|0|0,1:0|1:0|1:0,0:0:0:0:
318,55,37674,5,0,1:0:0:0:
247,6,37893,2,0,P|214:44|213:90,1,90.0000008940696,2|2,0:0|0:0,0:0:0:0:
315,153,38550,2,0,P|341:195|335:241,2,90.0000008940696,0|0|0,1:0|1:0|1:0,0:0:0:0:
258,215,39426,6,0,L|143:200,1,90.0000008940696,0|0,1:0|1:0,0:0:0:0:
64,273,40083,6,0,L|153:284,1,90.0000008940696,0|0,1:0|1:0,0:0:0:0:
278,299,40740,1,0,1:0:0:0:
348,343,40958,1,0,1:0:0:0:
353,259,41177,2,0,B|500:235|500:235|468:214,1,180.000001788139,0|2,1:0|1:2,0:0:0:0:
420,152,42053,2,0,B|392:166|392:166|440:25,1,180.000001788139,0|0,1:0|1:0,0:0:0:0:
356,21,42929,6,0,P|300:17|259:43,2,90.0000008940696,0|0|0,1:0|1:0|1:0,2:0:0:0:
321,98,43805,2,0,P|329:149|307:186,2,90.0000008940696,0|0|0,1:0|1:0|1:0,0:0:0:0:
242,129,44681,5,0,1:0:0:0:
158,115,44900,2,0,L|49:96,1,90.0000008940696,2|2,0:0|0:0,0:0:0:0:
114,217,45557,2,0,P|81:254|96:307,1,90.0000008940696,0|0,1:0|1:0,0:0:0:0:
197,349,46214,1,0,1:0:0:0:
272,312,46433,6,0,L|340:307,1,60.0000005960464,0|0,1:0|1:0,0:0:0:0:
416,302,46871,2,0,L|484:297,1,60.0000005960464,0|0,1:0|1:0,0:0:0:0:
448,217,47309,6,0,L|380:212,1,60.0000005960464,2|2,1:0|1:0,0:0:0:0:
304,207,47747,2,0,L|236:202,1,60.0000005960464,2|2,1:0|1:0,0:0:0:0:
161,201,48185,6,0,P|164:172|180:147,1,60.0000005960464,4|0,1:0|1:0,0:0:0:0:
240,88,48623,2,0,P|237:58|221:33,1,60.0000005960464,4|0,1:0|1:0,0:0:0:0:
146,73,49061,6,0,L|86:78,1,60.0000005960464,6|2,1:0|1:0,0:0:0:0:
43,154,49499,2,0,L|108:167,1,60.0000005960464,6|2,1:0|1:0,0:0:0:0:
81,163,57937,6,0,P|37:122|43:62,1,120.000001192093,0|0,0:0|2:0,0:0:0:0:
119,35,58794,2,0,P|162:73|159:131,1,120.000001192093
131,211,59651,1,0,1:1:0:0:
177,281,59937,6,0,B|220:285|220:285|243:303|243:303|312:308,1,120.000001192093,0|0,0:0|2:0,0:0:0:0:
286,222,60794,2,0,L|419:233,1,120.000001192093
474,183,61651,1,0,1:1:0:0:
438,107,61937,6,0,P|389:69|322:73,1,120.000001192093,0|0,0:0|2:0,0:0:0:0:
312,150,62794,2,0,P|263:188|196:184,1,120.000001192093
157,120,63651,1,0,1:0:0:0:
78,147,63937,6,0,B|66:244|66:244|89:276,1,120.000001192093,0|0,0:0|2:0,0:0:0:0:
159,286,64794,2,0,B|256:274|256:274|288:297,1,120.000001192093
331,347,65651,1,0,1:0:0:0:
416,321,65937,6,0,P|454:267|430:195,1,120.000001192093,0|0,0:0|2:0,0:0:0:0:
476,138,66755,2,0,L|342:126,1,120.000001192093
274,144,67573,1,0,1:0:0:0:
207,92,67846,6,0,B|168:69|168:69|72:91,1,120.000001192093,0|0,0:0|2:0,0:0:0:0:
46,154,68664,2,0,B|85:177|85:177|157:160,1,120.000001192093
239,177,69482,1,0,1:0:0:0:
216,263,69755,6,0,B|305:255|305:255|337:282,1,120.000001192093,0|0,0:0|2:0,0:0:0:0:
388,334,70537,2,0,B|411:353|411:353|500:345,1,120.000001192093
505,260,71320,1,0,1:0:0:0:
441,200,71581,6,0,P|406:146|338:137,1,120.000001192093,0|0,0:0|2:0,0:0:0:0:
298,71,72331,2,0,P|244:106|235:174,1,120.000001192093
242,240,73081,1,0,1:0:0:0:
258,326,73331,5,4,2:0:0:0:
256,192,73571,12,4,76691,0:0:0:0:
256,192,77152,12,0,78537,0:0:0:0:
214,282,85544,6,0,B|152:297|152:297|122:278,2,90.0000008940696,0|0|0,1:0|1:0|1:0,0:0:0:0:
213,197,86420,2,0,L|195:99,2,90.0000008940696,0|0|0,1:0|1:0|1:0,0:0:0:0:
298,197,87296,6,0,L|316:99,2,90.0000008940696,0|0|0,1:0|1:0|1:0,0:0:0:0:
298,282,88172,2,0,B|360:297|360:297|390:278,2,90.0000008940696,0|0|0,1:0|1:0|1:0,0:0:0:0:
217,256,89047,5,0,1:0:0:0:
135,276,89266,1,0,1:0:0:0:
54,301,89485,1,0,1:0:0:0:
72,219,89704,1,0,1:0:0:0:
92,137,89923,2,0,B|281:157|281:157|237:109,1,240.000002384186,0|0,1:0|0:0,0:0:0:0:
247,120,91675,2,0,B|213:83|213:83|360:99,1,180.000001788139,8|8,0:0|0:0,0:0:0:0:
425,111,92551,6,0,P|443:159|424:203,1,90.0000008940696,2|0,3:1|3:1,0:0:0:0:
367,302,93208,1,2,1:1:0:0:
288,273,93427,2,0,L|183:279,1,90.0000008940696,2|0,3:1|3:1,0:0:0:0:
71,281,94084,1,2,1:0:0:0:
2,231,94303,5,0,3:0:0:0:
21,151,94522,2,0,B|91:148|91:148|106:129,1,90.0000008940696,2|0,1:0|3:0,0:0:0:0:
172,26,95179,2,0,B|102:29|102:29|87:48,2,90.0000008940696,2|0|2,3:1|3:1|1:0,0:0:0:0:
247,63,96055,6,0,P|276:109|259:157,1,90.0000008940696,0|0,3:0|3:0,0:0:0:0:
222,258,96712,1,2,1:0:0:0:
276,321,96931,2,0,L|391:317,1,90.0000008940696,0|0,3:0|0:3,0:0:0:0:
491,310,97588,1,2,1:0:0:0:
456,233,97807,6,0,P|476:192|465:147,1,90.0000008940696,2|2,3:1|0:1,0:0:0:0:
381,57,98464,1,0,1:0:0:0:
301,83,98682,2,0,L|237:86,1,60.0000005960464,0|2,3:0|1:0,0:0:0:0:
156,89,99120,2,0,L|92:92,1,60.0000005960464,0|2,3:0|1:0,0:0:0:0:
64,170,99558,6,0,P|46:218|65:262,1,90.0000008940696,2|0,3:1|3:0,0:0:0:0:
122,361,100215,1,2,1:0:0:0:
201,332,100434,2,0,L|306:338,1,90.0000008940696,2|0,3:1|3:0,0:0:0:0:
418,340,101091,1,2,1:0:0:0:
486,292,101310,5,0,3:0:0:0:
468,210,101529,2,0,B|398:207|398:207|383:188,1,90.0000008940696,2|0,1:0|0:0,0:0:0:0:
317,85,102186,2,0,B|387:88|387:88|402:107,2,90.0000008940696,2|0|2,3:1|3:0|1:0,0:0:0:0:
242,122,103062,6,0,P|213:168|230:216,1,90.0000008940696,0|0,3:0|3:0,0:0:0:0:
267,317,103719,1,2,1:0:0:0:
213,380,103938,2,0,L|98:376,1,90.0000008940696,0|0,3:0|0:0,0:0:0:0:
0,369,104595,1,2,1:0:0:0:
33,292,104814,6,0,P|13:251|24:206,1,90.0000008940696,2|0,3:2|0:0,0:0:0:0:
108,116,105471,1,2,1:2:0:0:
188,142,105689,2,0,L|252:145,1,60.0000005960464,0|0,3:0|1:0,0:0:0:0:
333,148,106127,2,0,L|397:151,1,60.0000005960464,0|0,3:0|1:0,0:0:0:0:
477,159,106566,5,6,1:0:0:0:
505,281,106894,1,6,1:0:0:0:
384,245,107223,1,6,1:0:0:0:
351,322,107442,2,0,P|317:301|307:270,1,60.0000005960464,0|0,1:0|1:0,0:0:0:0:
312,199,107880,2,0,P|343:167|370:163,1,60.0000005960464,0|0,1:0|1:0,0:0:0:0:
441,157,108318,5,6,1:0:0:0:
365,56,108646,1,6,1:0:0:0:
241,81,108974,1,6,1:0:0:0:
212,160,109193,2,0,L|148:166,1,60.0000005960464,0|0,1:0|1:0,0:0:0:0:
81,120,109631,2,0,P|66:154|74:190,1,60.0000005960464,0|0,1:0|1:0,0:0:0:0:
119,242,110069,5,6,1:0:0:0:
32,332,110397,1,6,1:0:0:0:
154,363,110726,1,6,1:0:0:0:
191,287,110945,2,0,L|257:276,1,60.0000005960464,0|0,1:0|1:0,0:0:0:0:
324,317,111383,2,0,L|390:306,1,60.0000005960464,0|0,1:0|1:0,0:0:0:0:
467,301,111821,5,6,1:0:0:0:
443,177,112150,1,6,1:0:0:0:
420,53,112478,1,6,1:0:0:0:
348,96,112697,2,0,P|311:99|281:119,1,60.0000005960464,0|0,1:0|1:0,0:0:0:0:
238,175,113135,2,0,P|201:172|171:152,1,60.0000005960464,0|0,1:0|1:0,0:0:0:0:
112,113,113573,5,6,1:0:0:0:
47,220,113901,1,6,1:0:0:0:
104,332,114230,1,6,1:0:0:0:
178,294,114449,2,0,B|206:281|206:281|244:286,1,60.0000005960464,0|0,1:0|1:0,0:0:0:0:
310,321,114887,2,0,B|338:324|338:324|366:311,1,60.0000005960464,0|0,1:0|1:0,0:0:0:0:
439,269,115325,5,6,1:0:0:0:
439,143,115653,1,6,1:0:0:0:
330,206,115982,1,6,1:0:0:0:
246,201,116201,2,0,L|168:195,1,60.0000005960464,0|0,1:0|1:0,0:0:0:0:
111,236,116639,2,0,P|100:200|111:159,1,60.0000005960464,0|0,1:0|1:0,0:0:0:0:
128,97,117077,5,6,1:0:0:0:
253,85,117405,1,6,1:0:0:0:
378,73,117734,1,6,1:0:0:0:
448,27,117953,2,0,P|461:67|452:108,1,60.0000005960464,0|0,1:0|1:0,0:0:0:0:
412,153,118391,2,0,L|399:213,1,60.0000005960464,0|0,1:0|1:0,0:0:0:0:
316,220,118828,6,0,L|328:159,1,60.0000005960464,0|0,1:0|1:0,0:0:0:0:
257,115,119266,2,0,L|244:175,1,60.0000005960464,0|0,1:0|1:0,0:0:0:0:
169,210,119704,6,0,B|158:185|158:185|169:127,1,60.0000005960464,0|0,1:0|1:0,0:0:0:0:
109,89,120142,2,0,B|90:112|90:112|81:168,1,60.0000005960464,0|0,1:0|1:0,0:0:0:0:
72,225,120580,6,0,B|59:289|59:289|77:322,1,90.0000008940696,2|2,3:1|0:1,0:0:0:0:
195,332,121237,2,0,P|241:317|309:325,1,90.0000008940696,2|2,1:0|0:1,0:0:0:0:
395,261,121894,2,0,L|389:324,1,60.0000005960464,2|2,3:1|1:0,0:0:0:0:
472,305,122332,6,0,B|485:180|485:180|441:142,1,180.000001788139,2|2,3:1|1:0,0:0:0:0:
363,118,123208,2,0,L|293:125,1,60.0000005960464,2|0,3:1|1:0,0:0:0:0:
244,63,123646,1,0,3:0:0:0:
223,144,123865,1,2,1:0:0:0:
199,224,124084,6,0,B|98:236|98:236|67:295|67:295|144:285|144:285|187:340|187:340|301:327,1,420.000004172325,2|2,3:2|1:2,0:0:0:0:
374,318,125836,2,2,B|408:313|408:313|444:321|444:321|473:316,1,90.0000008940696,2|2,3:1|3:1,0:1:0:0:
474,192,126493,2,0,P|491:138|465:97,1,90.0000008940696,2|2,1:0|0:0,0:0:0:0:
362,58,127150,1,2,3:2:0:0:
278,67,127369,1,2,1:2:0:0:
194,77,127588,6,0,P|179:113|190:142,1,60.0000005960464,0|0,3:0|1:0,0:0:0:0:
254,178,128026,2,0,L|324:167,1,60.0000005960464,0|2,3:0|1:2,0:0:0:0:
388,206,128464,6,0,P|403:242|392:271,1,60.0000005960464,0|0,3:0|1:0,0:0:0:0:
353,331,128901,1,0,3:0:0:0:
270,347,129120,1,0,1:0:0:0:
186,335,129339,6,0,L|104:324,1,60.0000005960464,0|0,3:0|1:0,0:0:0:0:
42,316,129777,2,0,B|37:283|37:283|56:244,1,60.0000005960464,0|2,3:0|1:2,0:0:0:0:
82,181,130215,2,0,L|141:188,1,60.0000005960464,0|0,3:0|1:0,0:0:0:0:
216,224,130653,1,0,3:0:0:0:
296,192,130872,1,0,1:0:0:0:
305,108,131091,6,0,L|294:33,1,60.0000005960464,0|0,3:0|3:0,0:0:0:0:
212,37,131529,2,0,L|220:96,1,60.0000005960464,0|0,3:3|3:0,0:0:0:0:
151,145,131967,2,0,B|120:135|120:135|85:140,1,60.0000005960464,0|0,1:0|1:0,0:0:0:0:
85,222,132405,2,0,B|116:232|116:232|151:227,1,60.0000005960464,0|0,1:0|1:0,0:0:0:0:
224,249,132843,6,0,P|220:287|238:314,1,60.0000005960464,2|2,3:3|3:0,0:0:0:0:
301,349,133281,2,0,P|339:353|366:335,1,60.0000005960464,2|2,3:0|3:0,0:0:0:0:
408,276,133719,2,0,P|412:238|394:211,1,60.0000005960464,2|2,1:0|1:0,0:0:0:0:
331,176,134157,2,0,P|293:172|266:190,1,60.0000005960464,2|2,1:0|1:0,0:0:0:0:
47,321,135500,6,0,L|67:198,1,120.000001192093,0|0,0:0|2:0,0:0:0:0:
121,139,136250,2,0,B|151:175|151:175|139:264,1,120.000001192093
182,320,137000,1,0,1:0:0:0:
265,310,137250,6,0,P|321:336|379:326,1,120.000001192093,0|0,0:0|2:0,0:0:0:0:
460,329,138000,2,0,L|432:209,1,120.000001192093
420,128,138750,1,0,1:0:0:0:
333,123,139000,6,0,B|292:100|292:100|205:112,1,120.000001192093,0|0,0:0|2:0,0:0:0:0:
182,34,139720,2,0,L|41:49,1,120.000001192093
21,120,140440,1,0,1:0:0:0:
55,197,140680,6,0,P|112:221|108:284,1,120.000001192093,0|0,0:0|2:0,0:0:0:0:
86,352,141400,2,0,B|108:364|108:364|213:343,1,120.000001192093
269,297,142120,1,0,1:0:0:0:
357,316,142360,6,0,P|398:271|376:199,1,120.000001192093,0|0,0:0|2:0,0:0:0:0:
434,144,143026,2,0,B|439:114|439:114|389:14,1,120.000001192093
321,0,143693,1,0,1:0:0:0:
243,42,143915,6,0,B|251:131|251:131|224:163,1,120.000001192093,0|0,0:0|2:0,0:0:0:0:
172,214,144546,2,0,B|153:237|153:237|161:326,1,120.000001192093,0|0,0:0|2:0,0:0:0:0:
238,359,145178,1,0,1:0:0:0:
256,192,145388,12,0,146388,1:0:0:0:
256,192,146788,12,4,148121,3:1:0:0:
