osu file format v14

[General]
AudioFilename: audio.mp3
AudioLeadIn: 0
PreviewTime: 92551
Countdown: 0
SampleSet: Soft
StackLeniency: 0.2
Mode: 0
LetterboxInBreaks: 0
WidescreenStoryboard: 1

[Editor]
DistanceSpacing: 1.6
BeatDivisor: 4
GridSize: 4
TimelineZoom: 2.4

[Metadata]
Title:Apollo
TitleUnicode:Apollo
Artist:TJ.hangneil
ArtistUnicode:TJ.hangneil
Creator:kiddly
Version:"Apollo" DJ.yf_extension
Source:オンゲキ R.E.D. PLUS
Tags:sasakure.UK _ihcanan eznirm electronic instrumental ongeki red Frey Necho yf_bmp X Light Garden Hpocks dahkjdas pw384 jycool jyc-binggan XLT
BeatmapID:3384447
BeatmapSetID:1650673

[Difficulty]
HPDrainRate:5.8
CircleSize:5
OverallDifficulty:9.3
ApproachRate:9.7
SliderMultiplier:1.6
SliderTickRate:1

[Events]
//Background and Video events
0,0,"1.png",0,0
Video,0,"Video.mp4"
//Break Periods
2,50137,53156
//Storyboard Layer 0 (Background)
//Storyboard Layer 1 (Fail)
//Storyboard Layer 2 (Pass)
//Storyboard Layer 3 (Foreground)
//Storyboard Layer 4 (Overlay)
//Storyboard Sound Samples

[TimingPoints]
886,218.978102189781,4,2,1,50,1,0
7893,-100,4,2,1,60,0,0
16214,-60.2409638554217,4,2,1,60,0,0
16652,-133.333333333333,4,2,1,60,0,0
18404,-100,4,2,1,60,0,0
19718,-61.3496932515337,4,2,1,60,0,0
20156,-133.333333333333,4,2,1,60,0,0
21031,-100,4,2,1,60,0,0
21907,-100,4,2,1,45,0,0
28258,-66.6666666666667,4,2,1,45,0,0
28477,-100,4,2,1,45,0,0
35922,-66.6666666666667,4,2,1,60,0,0
36798,-100,4,2,1,60,0,0
38002,-66.6666666666667,4,2,1,60,0,0
38550,-100,4,2,1,60,0,0
39426,-66.6666666666667,4,2,1,60,0,0
39754,-57.1428571428571,4,2,1,60,0,0
40083,-66.6666666666667,4,2,1,60,0,0
40302,-100,4,2,1,60,0,0
41177,-133.333333333333,4,2,1,60,0,0
41342,-100,4,2,1,60,0,0
41506,-80,4,2,1,60,0,0
41615,-66.6666666666667,4,2,1,60,0,0
42053,-133.333333333333,4,2,1,60,0,0
42218,-100,4,2,1,60,0,0
42382,-80,4,2,1,60,0,0
42491,-66.6666666666667,4,2,1,60,0,0
42929,-57.1428571428571,4,2,1,60,0,0
43258,-48.780487804878,4,2,1,60,0,0
43586,-57.1428571428571,4,2,1,60,0,0
44681,-66.6666666666667,4,2,1,60,0,0
45010,-48.780487804878,4,2,1,60,0,0
45338,-57.1428571428571,4,2,1,60,0,0
46433,-133.333333333333,4,2,1,60,0,0
48185,-133.333333333333,4,2,1,60,0,0
48404,-100,4,2,1,60,0,0
48623,-80,4,2,1,60,0,0
48842,-66.6666666666667,4,2,1,60,0,0
49061,-57.1428571428571,4,2,1,60,0,0
49937,285.714285714286,7,2,1,60,1,0
49937,-133.333333333333,7,2,1,60,0,0
53937,-100,7,2,1,45,0,0
57937,-100,7,2,1,55,0,0
65937,272.727272727273,7,2,1,60,1,0
69755,260.869565217391,7,2,1,60,1,0
69755,-80,7,2,1,60,0,0
71581,250,7,2,1,60,1,0
71581,-66.6666666666667,7,2,1,60,0,0
73331,240,7,2,1,60,1,0
73331,-25,7,2,1,40,0,0
75011,-50,7,2,1,40,0,0
76691,230.769230769231,4,2,1,10,1,0
78364,-100,4,2,1,5,0,0
78537,218.978102189781,4,2,1,60,1,0
78537,-133.333333333333,4,2,1,40,0,0
85544,-66.6666666666667,4,2,1,60,0,0
85872,-80,4,2,1,60,0,0
86639,-133.333333333333,4,2,1,60,0,0
86748,-66.6666666666667,4,2,1,60,0,0
86858,-80,4,2,1,60,0,0
87296,-66.6666666666667,4,2,1,60,0,0
87405,-133.333333333333,4,2,1,60,0,0
87734,-66.6666666666667,4,2,1,60,0,0
87843,-133.333333333333,4,2,1,60,0,0
87953,-66.6666666666667,4,2,1,60,0,0
88062,-133.333333333333,4,2,1,60,0,0
88500,-66.6666666666667,4,2,1,60,0,0
88719,-133.333333333333,4,2,1,60,0,0
89047,-133.333333333333,4,2,1,50,0,0
89266,-114.942528735632,4,2,1,50,0,0
89485,-100,4,2,1,55,0,0
89704,-88.4955752212389,4,2,1,55,0,0
89923,-80,4,2,1,60,0,0
90142,-72.992700729927,4,2,1,60,0,0
90361,-66.6666666666667,4,2,1,65,0,0
90580,-61.3496932515337,4,2,1,65,0,0
90799,-133.333333333333,4,2,1,60,0,0
92551,-66.6666666666667,4,2,1,75,0,1
93427,-57.1428571428571,4,2,1,75,0,1
93755,-66.6666666666667,4,2,1,75,0,1
95507,-80,4,2,1,75,0,1
95836,-66.6666666666667,4,2,1,75,0,1
96931,-57.1428571428571,4,2,1,75,0,1
97259,-66.6666666666667,4,2,1,75,0,1
99120,-100,4,2,1,75,0,1
99339,-80,4,2,1,75,0,1
99558,-66.6666666666667,4,2,1,75,0,1
100434,-57.1428571428571,4,2,1,75,0,1
100763,-66.6666666666667,4,2,1,75,0,1
103938,-57.1428571428571,4,2,1,75,0,1
104266,-66.6666666666667,4,2,1,75,0,1
105690,-80,4,2,1,75,0,1
105909,-72.992700729927,4,2,1,75,0,1
106128,-66.6666666666667,4,2,1,75,0,1
106347,-61.3496932515337,4,2,1,75,0,1
107551,-100,4,2,1,75,0,1
108318,-61.3496932515337,4,2,1,75,0,1
109303,-100,4,2,1,75,0,1
110069,-61.3496932515337,4,2,1,75,0,1
111055,-100,4,2,1,75,0,1
111821,-61.3496932515337,4,2,1,75,0,1
112807,-100,4,2,1,75,0,1
113573,-61.3496932515337,4,2,1,75,0,1
114449,-100,4,2,1,75,0,1
115325,-61.3496932515337,4,2,1,75,0,1
116201,-100,4,2,1,75,0,1
117077,-61.3496932515337,4,2,1,75,0,1
117953,-100,4,2,1,75,0,1
118828,-61.3496932515337,4,2,1,75,0,1
119704,-142.857142857143,4,2,1,75,0,1
119814,-125,4,2,1,75,0,1
119923,-111.111111111111,4,2,1,75,0,1
120033,-100,4,2,1,75,0,1
120142,-90.9090909090909,4,2,1,75,0,1
120252,-83.3333333333333,4,2,1,75,0,1
120361,-76.9230769230769,4,2,1,75,0,1
120471,-71.4285714285714,4,2,1,75,0,1
120580,-66.6666666666667,4,2,1,75,0,0
123427,-57.1428571428571,4,2,1,75,0,0
123646,-66.6666666666667,4,2,1,75,0,0
124960,-133.333333333333,4,2,1,75,0,0
125836,-66.6666666666667,4,2,1,75,0,0
126164,-57.1428571428571,4,2,1,75,0,0
126493,-66.6666666666667,4,2,1,75,0,0
126931,-80,4,2,1,75,0,0
127040,-100,4,2,1,75,0,0
127150,-80,4,2,1,75,0,0
127259,-66.6666666666667,4,2,1,75,0,0
127588,-80,4,2,1,75,0,0
128464,-100,4,2,1,75,0,0
128901,-80,4,2,1,75,0,0
130215,-100,4,2,1,75,0,0
130653,-80,4,2,1,75,0,0
132843,-133.333333333333,4,2,1,75,0,0
133062,-100,4,2,1,75,0,0
133281,-80,4,2,1,75,0,0
133500,-66.6666666666667,4,2,1,75,0,0
133719,-57.1428571428571,4,2,1,75,0,0
134595,226.415094339623,4,2,1,60,1,0
135500,250,7,2,1,60,1,0
139000,240,7,2,1,60,1,0
140560,-133.333333333333,7,2,1,60,0,0
140680,-100,7,2,1,60,0,0
142240,-133.333333333333,7,2,1,60,0,0
142360,222.222222222222,7,2,1,60,1,0
143915,210.526315789474,7,2,1,60,1,0
145388,200,7,2,1,60,1,0
145388,-80,7,2,1,60,0,0
146788,190.47619047619,7,2,1,60,1,0
148121,176.991150442478,7,2,1,60,1,0
148121,-344.827586206897,7,2,1,60,0,0
148132,-344.827586206897,7,2,0,60,0,0
148165,-344.827586206897,7,2,0,5,0,0

[Colours]
Combo1 : 255,30,30
Combo2 : 63,63,63
Combo3 : 219,219,219

[HitObjects]
440,116,886,5,0,0:0:0:0:
488,60,995,1,0,0:0:0:0:
448,180,1104,5,2,0:0:0:0:
464,264,1214,1,0,0:0:0:0:
480,224,1323,1,0,0:0:0:0:
428,272,1433,1,0,0:0:0:0:
364,252,1542,2,0,P|340:256|324:264,1,40
276,312,1652,1,0,0:0:0:0:
276,312,1707,1,0,0:0:0:0:
276,312,1761,6,0,B|233:283|251:230|276:251|290:198|247:170,1,160,2|0,0:0|0:0,0:0:0:0:
232,172,2035,2,0,P|228:148|232:128,1,40
148,188,2199,6,0,B|118:230|154:273|169:244|201:289|171:330,1,160,2|0,0:0|0:0,0:0:0:0:
188,320,2473,2,0,P|192:344|188:364,1,40
120,376,2637,6,0,L|76:380,2,40,2|0|0,0:0|0:0|0:0,0:0:0:0:
172,328,2856,1,2,0:0:0:0:
100,344,2966,1,0,0:0:0:0:
24,248,3075,1,2,0:0:0:0:
96,232,3185,6,0,P|96:252|88:280,1,40
136,328,3294,1,0,0:0:0:0:
128,255,3404,1,0,0:0:0:0:
117,167,3513,6,0,L|112:116,3,40
184,140,3732,1,2,0:0:0:0:
112,112,3842,1,0,0:0:0:0:
44,152,3951,1,0,0:0:0:0:
112,112,4061,6,0,L|104:16,1,80
104,8,4207,2,0,L|68:8,2,26.6666666666667,2|2|2,0:0|0:0|0:0,0:0:0:0:
228,60,4390,5,0,3:0:0:0:
172,12,4499,1,0,0:0:0:0:
292,52,4608,5,2,3:2:0:0:
376,36,4718,1,0,0:0:0:0:
336,20,4827,1,0,3:0:0:0:
384,72,4937,1,0,0:0:0:0:
364,136,5046,2,0,P|368:160|376:176,1,40,0|0,3:0|0:0,0:0:0:0:
424,224,5156,1,0,0:0:0:0:
424,224,5211,1,0,0:0:0:0:
424,224,5265,6,0,B|395:267|342:249|363:224|310:210|282:253,1,160,2|0,3:2|3:0,0:0:0:0:
284,268,5539,2,0,P|260:272|240:268,1,40
300,352,5703,6,0,B|342:382|385:346|356:331|401:299|442:329,1,160,2|0,3:2|3:0,0:0:0:0:
432,312,5977,2,0,P|456:308|476:312,1,40
472,172,6141,6,0,L|476:128,2,40,2|0|0,3:2|0:0|0:0,0:0:0:0:
424,224,6360,1,2,3:2:0:0:
440,152,6470,1,0,0:0:0:0:
344,76,6579,1,2,3:2:0:0:
328,148,6689,6,0,P|348:148|376:140,1,40,0|2,0:0|0:0,0:0:0:0:
424,188,6798,1,0,3:0:0:0:
352,180,6908,1,0,0:0:0:0:
263,169,7017,6,0,L|212:164,3,40,0|0|0|0,3:0|0:0|0:0|0:0,0:0:0:0:
236,236,7236,1,2,3:2:0:0:
208,164,7346,1,0,0:0:0:0:
248,96,7455,1,0,3:0:0:0:
208,164,7565,6,0,L|112:156,1,80,0|0,0:0|3:0,0:0:0:0:
104,156,7711,2,0,L|108:112,2,26.6666666666667,2|2|2,0:0|0:0|0:0,0:0:0:0:
40,252,7893,5,4,3:2:0:0:
56,324,8002,1,2,0:0:0:0:
184,296,8112,5,0,1:0:0:0:
168,224,8221,1,2,0:0:0:0:
128,344,8331,1,0,3:0:0:0:
256,316,8440,1,2,0:0:0:0:
168,224,8550,6,0,B|160:244|160:244|180:276|180:276|172:296,1,80,0|0,1:0|0:0,0:0:0:0:
150,320,8714,1,2,0:0:0:0:
128,344,8769,2,0,B|184:336|184:336|224:360|224:360|280:352,1,160,0|0,3:0|1:0,0:0:0:0:
309,336,9042,2,0,L|301:380,1,40,2|2,0:0|0:0,0:0:0:0:
488,364,9207,6,0,B|396:376|396:376|408:300,1,160,0|0,3:0|1:0,0:0:0:0:
378,292,9480,2,0,L|386:336,1,40,2|2,0:0|0:0,0:0:0:0:
460,228,9645,6,0,L|452:184,1,40,0|0,3:0|0:0,0:0:0:0:
446,156,9754,1,2,0:0:0:0:
288,80,9864,2,0,B|264:112|264:112|271:151,1,80,0|0,1:0|0:0,0:0:0:0:
451,7,10083,5,4,3:2:0:0:
379,23,10192,1,2,0:0:0:0:
407,151,10302,5,0,1:0:0:0:
479,135,10411,1,2,0:0:0:0:
428,80,10521,5,2,3:1:0:0:
428,80,10575,1,0,2:0:0:0:
428,80,10630,2,0,L|388:88,1,40,2|0,2:2|0:0,0:0:0:0:
288,80,10740,6,0,B|252:72|252:72|196:96,1,80,0|2,1:0|0:0,0:0:0:0:
84,156,10958,1,2,3:1:0:0:
72,84,11068,6,0,P|112:28|124:120,1,200,2|0,0:2|0:0,0:0:0:0:
144,112,11397,5,2,3:1:0:0:
215,127,11506,1,2,0:0:0:0:
60,288,11615,2,0,P|44:256|52:204,1,80,0|2,1:0|0:0,0:0:0:0:
235,199,11835,1,0,3:0:0:0:
207,327,11944,1,2,0:0:0:0:
115,239,12054,6,0,B|135:231|135:231|167:251|167:251|187:243,1,80,0|0,1:0|0:0,0:0:0:0:
211,221,12218,1,2,0:0:0:0:
235,199,12273,2,0,B|227:255|227:255|251:295|251:295|243:351,1,160,0|0,3:0|1:0,0:0:0:0:
227,380,12546,2,0,L|271:372,1,40,2|2,0:0|0:0,0:0:0:0:
380,356,12711,6,0,B|392:264|392:264|316:276,1,160,0|0,3:0|1:0,0:0:0:0:
308,246,12984,2,0,L|352:254,1,40,2|2,0:0|0:0,0:0:0:0:
456,140,13149,6,0,L|448:184,1,40,2|0,3:1|0:0,0:0:0:0:
442,212,13258,1,0,0:0:0:0:
300,152,13367,1,0,1:0:0:0:
384,88,13477,6,0,L|376:132,1,40,2|0,0:1|0:0,0:0:0:0:
312,40,13586,5,0,3:0:0:0:
380,135,13696,1,0,0:0:0:0:
269,99,13805,2,0,L|304:88,1,20,2|0,1:3|0:0,0:0:0:0:
380,63,13915,2,0,L|360:88,1,20,2|0,0:3|0:0,0:0:0:0:
312,157,14024,1,2,3:2:0:0:
312,157,14079,1,2,0:0:0:0:
312,157,14134,2,0,L|272:165,1,40
200,168,14244,6,0,B|192:204|192:204|216:260,1,80,0|2,1:0|0:0,0:0:0:0:
276,372,14462,1,0,3:0:0:0:
204,360,14572,6,0,P|162:330|230:321,1,160,2|2,0:0|0:0,0:0:0:0:
200,332,14845,1,2,0:0:0:0:
164,340,14900,6,0,B|128:332|128:332|100:292,1,80,4|0,3:2|0:0,0:0:0:0:
8,272,15119,2,0,B|40:260|40:260|48:228|48:228|112:198|112:198|100:240,1,160,2|0,1:1|3:0,0:0:0:0:
105,219,15557,6,0,L|83:143,1,80,2|0,1:1|0:0,0:0:0:0:
237,179,15776,2,0,L|182:236,1,80,2|0,3:1|0:0,0:0:0:0:
137,83,15995,2,0,L|213:101,1,80,2|0,1:1|0:0,0:0:0:0:
105,219,16214,6,0,B|83:143|83:143|137:83|137:83|214:102|214:102|237:179|237:179|182:236,1,398.400005775147,2|0,3:1|0:0,0:0:0:0:
216,292,16597,1,2,0:2:0:0:
216,292,16652,6,0,L|256:288,2,30.0000011444092,2|0|0,3:2|0:0|0:0,0:0:0:0:
292,376,16871,2,0,L|316:312,1,60.0000022888184,0|2,1:0|0:2,0:0:0:0:
104,316,17090,5,2,3:1:0:0:
165,329,17199,1,2,0:2:0:0:
229,231,17309,5,0,1:0:0:0:
216,292,17418,1,2,0:2:0:0:
313,319,17528,6,0,L|353:315,1,30.0000011444092,2|2,3:1|0:2,0:0:0:0:
376,332,17637,2,0,L|416:328,1,30.0000011444092
384,264,17747,5,0,1:0:0:0:
397,203,17856,1,2,0:2:0:0:
509,179,17966,5,2,3:1:0:0:
448,166,18075,1,2,0:2:0:0:
356,88,18185,6,0,L|388:140,1,60.0000022888184,2|2,1:2|0:2,0:0:0:0:
312,4,18404,6,0,B|272:4|272:4|242:30,1,80,4|0,3:2|0:0,0:0:0:0:
116,40,18623,2,0,B|109:18|109:18|173:48|173:48|181:80|181:80|213:92,1,160,2|0,1:1|3:0,0:0:0:0:
212,91,19061,6,0,L|137:63,1,80,2|0,1:1|0:0,0:0:0:0:
260,148,19280,2,0,L|335:176,1,80,2|0,3:1|0:0,0:0:0:0:
188,164,19499,2,0,L|113:136,1,80,2|0,1:1|0:0,0:0:0:0:
212,91,19718,6,0,B|137:63|137:63|113:136|113:136|188:164|188:164|260:148|260:148|335:176,1,391.199999701538,2|0,3:1|0:0,0:0:0:0:
360,236,20101,1,2,0:0:0:0:
360,236,20156,6,0,L|356:276,2,30.0000011444092,2|2|0,3:1|0:2|0:0,0:0:0:0:
488,168,20375,2,0,L|468:192,1,30.0000011444092,0|0,1:0|0:0,0:0:0:0:
428,244,20484,6,0,L|424:284,1,30.0000011444092,2|0,0:1|0:0,0:0:0:0:
384,328,20594,5,0,3:0:0:0:
323,341,20703,2,0,L|320:360,1,15.0000005722046,2|0,0:3|0:0,0:0:0:0:
259,243,20813,5,0,1:0:0:0:
272,304,20922,1,2,0:2:0:0:
160,312,21032,6,0,L|152:272,1,40,0|0,1:0|0:0,0:0:0:0:
160,312,21141,2,0,L|152:272,1,40,0|0,1:0|0:0,0:0:0:0:
56,232,21250,6,0,L|48:192,1,40,0|0,1:0|0:0,0:0:0:0:
56,232,21360,2,0,L|48:192,1,40,0|0,1:0|0:0,0:0:0:0:
92,348,21469,6,0,L|84:308,1,40,0|0,1:0|0:0,0:0:0:0:
108,280,21579,2,0,L|100:240,1,40,0|0,1:0|0:0,0:0:0:0:
68,224,21688,2,0,L|60:184,1,40,0|0,1:0|0:0,0:0:0:0:
84,156,21798,2,0,L|76:116,1,40,0|0,1:0|0:0,0:0:0:0:
68,84,21907,6,0,B|104:100|104:100|143:90,2,80,4|0|0,1:2|0:0|0:0,0:0:0:0:
0,56,22236,1,0,3:0:0:0:
152,20,22345,2,0,L|233:-2,1,80,0|0,3:0|3:0,0:0:0:0:
208,132,22564,2,0,L|200:212,1,80,0|0,3:0|3:0,0:0:0:0:
240,336,22783,6,0,P|260:336|284:324,3,40,0|0|0|0,3:0|3:0|3:0|3:0,0:0:0:0:
192,284,23002,2,0,P|154:269|115:246,1,80,0|0,3:0|3:0,0:0:0:0:
356,203,23221,2,0,P|330:233|299:259,1,80,0|0,3:0|3:0,0:0:0:0:
268,364,23440,1,0,3:0:0:0:
236,220,23550,1,0,3:0:0:0:
376,276,23659,6,0,B|340:260|340:260|300:269,2,80,0|0|0,1:0|3:0|3:0,0:0:0:0:
440,312,23988,1,0,3:0:0:0:
344,376,24097,2,0,L|372:292,1,80,0|0,3:0|3:0,0:0:0:0:
423,193,24316,2,0,L|395:109,1,80,0|0,3:0|3:0,0:0:0:0:
264,54,24535,5,0,3:0:0:0:
264,54,24590,1,0,3:0:0:0:
264,54,24645,2,0,P|244:57|222:73,1,40,0|0,3:0|3:0,0:0:0:0:
320,96,24754,2,0,P|359:103|402:119,1,80,0|0,3:0|3:0,0:0:0:0:
172,205,24973,2,0,P|192:170|217:139,1,80,0|0,3:0|3:0,0:0:0:0:
428,56,25192,1,0,3:0:0:0:
328,28,25302,1,0,3:0:0:0:
423,193,25411,6,0,B|407:229|407:229|417:268,2,80,0|0|0,1:0|3:0|3:0,0:0:0:0:
468,136,25740,1,0,3:0:0:0:
487,277,25849,2,0,L|509:358,1,80,0|0,3:0|3:0,0:0:0:0:
375,333,26068,2,0,L|295:325,1,80,0|0,3:0|3:0,0:0:0:0:
116,268,26287,6,0,P|116:288|128:312,3,40,0|0|0|0,3:0|3:0|3:0|3:0,0:0:0:0:
168,220,26506,2,0,P|183:182|206:143,1,80,0|0,3:0|3:0,0:0:0:0:
249,384,26725,2,0,P|219:358|193:327,1,80,0|0,3:0|3:0,0:0:0:0:
88,296,26944,1,0,3:0:0:0:
232,264,27054,1,0,3:0:0:0:
60,220,27163,6,0,L|76:176,1,40,2|0,1:0|0:0,0:0:0:0:
104,160,27272,2,0,L|140:248,1,80,0|0,3:0|3:0,0:0:0:0:
4,259,27491,6,0,B|12:240|12:240|15:221,1,40,2|0,1:0|0:0,0:0:0:0:
8,156,27601,2,0,B|8:120|8:120|2:76,1,80,0|0,3:0|3:0,0:0:0:0:
112,80,27820,2,0,L|192:88,1,80,0|2,1:0|3:2,0:0:0:0:
312,48,28039,6,0,L|302:11,1,20,2|0,0:3|0:0,0:0:0:0:
312,48,28148,2,0,L|321:84,1,20,2|0,0:3|0:0,0:0:0:0:
259,108,28258,6,0,P|257:162|312:164,1,120,2|0,0:1|0:0,0:0:0:0:
312,48,28477,2,0,L|364:36,1,40,2|0,0:1|0:0,0:0:0:0:
436,20,28586,6,0,L|473:10,1,20,2|0,0:3|0:0,0:0:0:0:
436,20,28695,2,0,L|400:29,1,20,2|0,0:3|0:0,0:0:0:0:
460,124,28805,2,0,L|452:84,1,40,2|0,0:3|0:0,0:0:0:0:
384,136,28915,6,0,P|396:172|432:200,1,80,2|0,1:2|3:0,0:0:0:0:
336,268,29134,1,0,3:0:0:0:
432,200,29243,2,0,P|386:194|340:200,1,80,0|0,3:0|3:0,0:0:0:0:
444,344,29462,2,0,P|446:305|416:280,1,80,0|0,3:0|3:0,0:0:0:0:
280,216,29681,2,0,P|268:236|260:260,1,40,0|0,3:0|3:0,0:0:0:0:
268,328,29791,5,0,3:0:0:0:
268,328,29845,1,0,3:0:0:0:
268,328,29900,1,0,3:0:0:0:
268,328,29955,2,0,L|276:284,1,40,0|0,3:0|3:0,0:0:0:0:
200,212,30119,1,0,3:0:0:0:
136,348,30229,2,0,L|151:263,1,80,0|0,3:0|3:0,0:0:0:0:
208,372,30448,1,0,3:0:0:0:
144,264,30557,1,0,3:0:0:0:
60,360,30667,6,0,P|48:324|12:296,1,80,2|0,1:2|0:0,0:0:0:0:
108,228,30886,1,0,3:0:0:0:
12,296,30995,2,0,P|57:301|104:296,1,80,0|0,3:0|3:0,0:0:0:0:
0,152,31214,2,0,P|-2:190|27:215,1,80,0|0,3:0|3:0,0:0:0:0:
164,280,31433,2,0,P|176:260|184:236,1,40,0|0,3:0|3:0,0:0:0:0:
176,168,31543,5,0,3:0:0:0:
176,168,31597,1,0,3:0:0:0:
176,168,31652,1,0,3:0:0:0:
176,168,31707,2,0,L|168:212,1,40,0|0,3:0|3:0,0:0:0:0:
244,284,31871,1,0,3:0:0:0:
308,148,31981,2,0,L|292:232,1,80,0|0,3:0|3:0,0:0:0:0:
248,116,32199,2,0,L|240:160,1,40,0|0,3:0|0:0,0:0:0:0:
300,232,32309,2,0,L|292:276,1,40,0|0,3:2|0:0,0:0:0:0:
240,112,32418,6,0,P|204:100|176:64,1,80,2|0,1:2|3:0,0:0:0:0:
108,160,32637,1,0,3:0:0:0:
176,64,32746,2,0,P|182:110|176:156,1,80,0|0,3:0|3:0,0:0:0:0:
32,52,32965,2,0,P|71:50|96:80,1,80,0|0,3:0|3:0,0:0:0:0:
160,216,33185,2,0,P|140:228|116:236,1,40,0|0,3:0|3:0,0:0:0:0:
48,228,33294,5,0,3:0:0:0:
48,228,33348,1,0,3:0:0:0:
48,228,33403,1,0,3:0:0:0:
48,228,33458,2,0,L|92:220,1,40,0|0,3:0|3:0,0:0:0:0:
164,296,33622,1,0,3:0:0:0:
28,360,33732,2,0,L|113:345,1,80,0|0,3:0|3:0,0:0:0:0:
4,288,33951,1,0,3:0:0:0:
112,352,34060,1,0,3:0:0:0:
132,228,34170,6,0,L|176:212,1,40,2|0,1:1|0:0,0:0:0:0:
192,184,34279,2,0,L|104:148,1,80,0|0,3:0|3:0,0:0:0:0:
93,284,34498,6,0,B|112:276|112:276|131:273,1,40,2|0,1:1|0:0,0:0:0:0:
196,280,34608,2,0,B|232:280|232:280|276:286,1,80,0|0,3:0|3:0,0:0:0:0:
432,364,34827,2,0,P|440:316|364:296,1,120,2|0,1:2|0:0,0:0:0:0:
372,288,35046,6,0,L|363:324,1,20,2|0,0:3|0:0,0:0:0:0:
372,288,35156,2,0,L|383:246,1,40
316,212,35265,6,0,L|324:172,1,40,0|0,1:0|0:0,0:0:0:0:
316,212,35374,2,0,L|308:252,1,40,0|0,1:0|0:0,0:0:0:0:
280,328,35484,6,0,L|288:288,1,40,2|0,1:1|0:0,0:0:0:0:
264,260,35594,2,0,L|272:220,1,40,2|0,1:3|0:0,0:0:0:0:
304,204,35703,2,0,L|312:164,1,40,2|0,1:3|0:0,0:0:0:0:
288,136,35813,2,0,L|296:96,1,40,2|0,1:3|0:0,0:0:0:0:
338,87,35922,6,0,P|278:35|342:75,1,240.000009155274,6|0,1:2|0:0,0:0:0:0:
416,100,36250,6,0,B|310:69|310:69|299:74|299:74|187:41,1,240.000009155274,6|0,1:2|0:0,0:0:0:0:
316,12,36579,6,0,B|300:65|300:65|303:70|303:70|286:126,1,120.000004577637,6|0,1:2|0:0,0:0:0:0:
60,188,36798,6,0,B|66:171|66:171|63:171|63:171|69:154,1,40,2|0,1:2|0:0,0:0:0:0:
136,120,36907,2,0,B|152:126|152:126|152:123|152:123|169:129,1,40,0|0,3:0|0:0,0:0:0:0:
204,196,37017,2,0,B|197:212|197:212|200:212|200:212|194:229,1,40,0|0,3:0|0:0,0:0:0:0:
128,264,37126,2,0,B|111:257|111:257|111:260|111:260|94:254,1,40,2|0,1:2|0:0,0:0:0:0:
83,138,37236,6,0,B|100:131|100:131|98:128|98:128|114:121,1,40,0|0,3:0|0:0,0:0:0:0:
185,143,37345,2,0,B|192:160|192:160|195:158|195:158|202:174,1,40,0|0,3:0|0:0,0:0:0:0:
180,245,37455,2,0,B|163:252|163:252|165:255|165:255|149:262,1,40,2|0,1:2|0:0,0:0:0:0:
78,240,37564,2,0,B|71:223|71:223|68:225|68:225|61:209,1,40,0|0,3:0|0:0,0:0:0:0:
132,192,37674,5,2,1:2:0:0:
140,192,37783,2,0,L|100:200,1,40,2|2,0:2|0:2,0:0:0:0:
76,328,37893,2,0,L|70:353,2,20,2|2|0,0:0|0:0|0:0,0:0:0:0:
29,286,38002,6,0,B|135:317|135:317|146:312|146:312|258:345,1,240.000009155274,4|0,1:2|0:0,0:0:0:0:
129,374,38331,6,0,B|145:321|145:321|142:316|142:316|159:260,1,120.000004577637,4|0,1:2|0:0,0:0:0:0:
357,165,38550,6,0,B|374:171|374:171|374:168|374:168|391:174,1,40,2|0,1:2|0:0,0:0:0:0:
315,298,38659,2,0,B|333:305|333:305|333:302|333:302|349:309,1,40,0|0,3:0|0:0,0:0:0:0:
416,275,38769,6,0,B|422:257|422:257|419:257|419:257|425:241,1,40,0|0,3:0|0:0,0:0:0:0:
281,233,38878,2,0,B|288:216|288:216|285:216|285:216|291:199,1,40,2|0,1:2|0:0,0:0:0:0:
407,188,38988,6,0,B|414:205|414:205|417:203|417:203|424:219,1,40,0|0,3:0|0:0,0:0:0:0:
283,254,39097,2,0,B|290:270|290:270|293:268|293:268|300:285,1,40,0|0,3:0|0:0,0:0:0:0:
371,307,39207,6,0,B|387:300|387:300|385:297|385:297|402:290,1,40,2|0,1:2|0:0,0:0:0:0:
305,183,39316,2,0,B|322:176|322:176|320:173|320:173|336:166,1,40,0|0,3:1|0:0,0:0:0:0:
392,84,39426,6,0,P|332:136|396:96,1,240.000009155274,6|0,1:2|0:0,0:0:0:0:
416,84,39754,6,0,B|388:54|303:77|293:117|293:117|321:146|406:123|418:87,1,280.000002670288,6|0,1:2|0:0,0:0:0:0:
436,88,40083,6,0,B|374:104|374:104|371:109|371:109|340:88|340:88|338:93|338:93|272:111,1,180.000006866455,6|0,1:2|0:0,0:0:0:0:
208,128,40302,6,0,B|202:145|202:145|205:145|205:145|199:162,1,40,0|0,3:0|0:0,0:0:0:0:
64,120,40411,2,0,B|71:104|71:104|68:104|68:104|75:86,1,40,2|0,1:2|0:0,0:0:0:0:
132,196,40521,6,0,B|116:190|116:190|116:193|116:193|98:187,1,40,0|0,3:0|0:0,0:0:0:0:
140,52,40630,2,0,B|157:59|157:59|157:56|157:56|174:62,1,40,0|0,3:0|0:0,0:0:0:0:
185,178,40740,6,0,B|168:185|168:185|170:188|170:188|154:195,1,40,2|0,1:2|0:0,0:0:0:0:
88,71,40849,2,0,B|105:64|105:64|103:61|103:61|119:54,1,40,0|0,3:0|0:0,0:0:0:0:
83,173,40959,6,0,B|76:156|76:156|73:158|73:158|66:142,1,40,0|0,3:0|0:0,0:0:0:0:
190,76,41068,2,0,B|197:93|197:93|200:91|200:91|207:107,1,40,0|0,3:0|0:0,0:0:0:0:
208,212,41177,6,0,P|203:227|204:248,2,30.0000011444092,0|0|0,1:0|0:0|0:0,0:0:0:0:
280,216,41342,6,0,P|275:235|273:255,2,40,0|2|2,0:0|0:0|0:0,0:0:0:0:
352,220,41506,6,0,P|345:248|344:280,1,50,2|2,1:2|0:0,0:0:0:0:
448,212,41615,5,2,0:0:0:0:
430,227,41670,1,0,0:0:0:0:
417,255,41725,1,2,0:0:0:0:
418,292,41780,1,2,0:0:0:0:
436,328,41834,6,0,P|441:299|453:269,1,60.0000022888184,2|2,1:2|0:0,0:0:0:0:
444,208,41944,2,0,P|455:180|460:150,1,60.0000022888184,2|0,0:0|0:0,0:0:0:0:
416,100,42053,6,0,P|401:95|380:96,2,30.0000011444092,0|0|0,1:0|0:0|1:0,0:0:0:0:
280,80,42218,6,0,P|299:85|319:87,2,40,0|2|2,0:0|1:2|0:0,0:0:0:0:
386,94,42382,6,0,P|414:101|446:102,1,50,2|2,1:2|0:0,0:0:0:0:
280,80,42491,5,2,1:2:0:0:
265,98,42546,1,0,0:0:0:0:
237,111,42601,1,2,1:2:0:0:
200,110,42656,1,2,0:2:0:0:
164,92,42710,6,0,P|135:87|105:75,1,60.0000022888184,2|2,1:2|0:0,0:0:0:0:
76,20,42820,2,0,P|47:25|17:37,1,60.0000022888184,2|0,1:2|0:0,0:0:0:0:
28,100,42929,6,0,P|91:160|25:115,1,280.000002670288,6|0,1:2|0:0,0:0:0:0:
0,100,43258,6,0,B|32:65|131:92|142:138|142:138|110:172|11:145|-2:103,1,328.000005004883,6|0,1:2|0:0,0:0:0:0:
100,24,43586,6,0,B|90:29|90:29|82:56|82:56|88:66|88:66|67:143|67:143|58:149,1,140.000001335144,6|0,1:2|0:0,0:0:0:0:
36,344,43805,6,0,B|31:312|31:312|58:271,1,70.000000667572,2|0,1:2|0:0,0:0:0:0:
76,220,43915,2,0,B|80:251|80:251|53:292,1,70.000000667572,0|0,1:0|0:0,0:0:0:0:
112,324,44024,6,0,B|102:334|102:334|183:313,1,70.000000667572,0|0,1:0|0:0,0:0:0:0:
168,256,44134,2,0,B|177:245|177:245|96:266,1,70.000000667572,2|0,1:2|0:0,0:0:0:0:
180,348,44243,6,0,L|188:268,1,70.000000667572,0|0,1:0|0:0,0:0:0:0:
216,212,44353,2,0,L|224:292,1,70.000000667572,0|0,1:0|0:0,0:0:0:0:
251,345,44462,6,0,B|256:312|256:312|290:299,1,70.000000667572,2|0,1:2|0:0,0:0:0:0:
320,232,44572,2,0,B|325:265|325:265|359:278,1,70.000000667572,0|0,1:0|0:0,0:0:0:0:
428,299,44681,6,0,L|512:296,3,60.0000022888184,2|0|2|2,3:2|0:0|0:2|0:2,0:0:0:0:
480,228,44900,2,0,P|474:213|481:196,2,30.0000011444092,2|0|0,0:2|0:0|0:0,0:0:0:0:
496,296,45010,6,0,B|464:331|365:304|354:258|354:258|386:224|485:251|498:293,1,328.000005004883,4|0,1:2|0:0,0:0:0:0:
396,372,45338,6,0,B|406:367|406:367|414:340|414:340|408:330|408:330|429:253|429:253|438:247,1,140.000001335144,4|0,1:2|0:0,0:0:0:0:
452,60,45557,6,0,B|457:92|457:92|430:133,1,70.000000667572,2|0,1:2|0:0,0:0:0:0:
412,184,45667,2,0,B|408:153|408:153|435:112,1,70.000000667572,2|0,1:2|0:0,0:0:0:0:
376,80,45776,6,0,B|386:70|386:70|305:91,1,70.000000667572,0|0,1:0|0:0,0:0:0:0:
320,148,45886,2,0,B|311:159|311:159|392:138,1,70.000000667572,2|0,1:2|0:0,0:0:0:0:
308,56,45995,6,0,L|300:136,1,70.000000667572,0|0,1:2|0:0,0:0:0:0:
272,192,46105,2,0,L|264:112,1,70.000000667572,0|0,1:0|0:0,0:0:0:0:
237,59,46214,6,0,B|232:92|232:92|198:105,1,70.000000667572,2|0,1:2|0:0,0:0:0:0:
168,172,46324,2,0,B|163:139|163:139|129:126,1,70.000000667572,0|0,1:0|0:0,0:0:0:0:
32,88,46433,5,2,1:2:0:0:
60,72,46542,1,2,1:2:0:0:
32,92,46652,1,2,1:2:0:0:
64,72,46761,1,2,1:2:0:0:
32,96,46871,1,2,1:2:0:0:
68,72,46980,1,2,1:2:0:0:
32,100,47090,1,2,1:2:0:0:
72,72,47199,1,2,1:2:0:0:
76,176,47309,5,2,1:0:0:0:
52,218,47418,1,2,1:0:0:0:
82,176,47528,1,2,1:0:0:0:
52,224,47637,1,2,1:0:0:0:
88,176,47747,1,2,1:0:0:0:
52,230,47856,1,2,1:0:0:0:
94,176,47966,1,2,1:0:0:0:
52,236,48075,1,2,1:0:0:0:
152,236,48185,6,0,B|137:235|137:235|123:242,1,30.0000011444092,4|0,1:2|0:0,0:0:0:0:
164,298,48294,2,0,B|151:304|151:304|136:304,1,30.0000011444092,0|0,1:0|0:0,0:0:0:0:
296,260,48404,6,0,B|296:239|296:239|287:222,1,40,0|0,1:0|0:0,0:0:0:0:
227,272,48513,2,0,B|218:255|218:255|219:235,1,40,0|0,1:0|0:0,0:0:0:0:
302,353,48623,6,0,B|281:364|281:364|254:364,1,50,0|0,1:0|0:0,0:0:0:0:
289,287,48732,2,0,B|263:286|263:286|242:297,1,50,0|0,1:0|0:0,0:0:0:0:
349,196,48842,6,0,B|375:183|375:183|405:184,1,60.0000022888184,0|0,1:0|0:0,0:0:0:0:
364,264,48951,2,0,B|394:265|394:265|420:252,1,60.0000022888184,0|0,1:0|0:0,0:0:0:0:
508,384,49061,6,0,B|476:389|476:389|435:362,1,70.000000667572,2|0,1:0|0:0,0:0:0:0:
384,344,49171,2,0,B|415:340|415:340|456:367,1,70.000000667572,2|0,1:0|0:0,0:0:0:0:
488,308,49280,6,0,B|498:318|498:318|477:237,1,70.000000667572,2|0,1:0|0:0,0:0:0:0:
420,252,49390,2,0,B|409:243|409:243|430:324,1,70.000000667572,2|0,1:0|0:0,0:0:0:0:
512,240,49499,6,0,L|432:232,1,70.000000667572,2|0,1:0|0:0,0:0:0:0:
376,204,49609,2,0,L|456:196,1,70.000000667572,2|0,1:0|0:0,0:0:0:0:
509,169,49718,6,0,B|476:164|476:164|463:130,1,70.000000667572,2|0,1:0|0:0,0:0:0:0:
396,100,49828,2,0,B|429:95|429:95|442:61,1,70.000000667572,2|0,1:0|0:0,0:0:0:0:
484,0,49937,5,2,0:0:0:0:
124,16,53651,5,0,0:0:0:0:
124,16,53722,1,0,0:0:0:0:
124,16,53794,1,0,0:0:0:0:
124,16,53865,1,0,0:0:0:0:
124,16,53937,6,0,L|80:24,1,40,0|0,3:0|0:0,0:0:0:0:
184,52,54079,2,0,L|228:44,1,40,0|0,3:0|0:0,0:0:0:0:
48,96,54222,2,0,B|80:88|80:88|96:92|96:92|125:85,1,80,0|0,1:0|3:0,0:0:0:0:
164,88,54437,1,0,3:0:0:0:
192,112,54508,1,0,3:0:0:0:
196,148,54579,1,0,3:0:0:0:
176,180,54651,1,0,3:0:0:0:
64,208,54794,1,0,3:0:0:0:
204,252,54937,6,0,B|168:268|168:268|134:245,1,80,0|0,1:0|3:0,0:0:0:0:
116,256,55151,1,0,3:0:0:0:
120,276,55222,1,0,3:0:0:0:
124,296,55294,1,0,3:0:0:0:
128,316,55365,1,0,3:0:0:0:
144,384,55509,1,0,3:0:0:0:
48,360,55651,2,0,L|64:308,1,40,0|0,1:0|0:0,0:0:0:0:
196,336,55794,1,0,3:0:0:0:
264,200,55937,6,0,L|272:244,1,40,0|0,3:0|0:0,0:0:0:0:
300,140,56079,2,0,L|292:96,1,40,0|0,3:0|0:0,0:0:0:0:
344,276,56222,2,0,B|336:244|336:244|340:228|340:228|333:199,1,80,0|0,1:0|3:0,0:0:0:0:
336,160,56437,1,0,3:0:0:0:
360,132,56508,1,0,3:0:0:0:
396,128,56579,1,0,3:0:0:0:
428,148,56651,1,0,3:0:0:0:
492,248,56794,1,0,3:0:0:0:
428,220,56937,6,0,B|412:256|412:256|434:289,1,80,0|0,1:0|3:0,0:0:0:0:
424,308,57151,1,0,3:0:0:0:
404,304,57222,1,0,3:0:0:0:
384,300,57294,1,0,3:0:0:0:
364,296,57365,1,0,3:0:0:0:
296,280,57509,1,0,3:0:0:0:
364,360,57651,6,0,L|352:316,1,40,2|0,1:2|0:0,0:0:0:0:
336,256,57794,2,0,L|324:212,1,40,2|0,3:2|0:0,0:0:0:0:
308,152,57937,5,4,1:2:0:0:
92,200,58079,1,4,1:2:0:0:
308,152,58222,1,0,1:0:0:0:
256,88,58365,6,0,L|228:132,1,40,0|0,1:0|3:0,0:0:0:0:
144,266,58508,2,0,L|172:222,1,40,0|0,3:0|3:0,0:0:0:0:
200,176,58651,1,0,1:0:0:0:
136,360,58794,1,0,1:0:0:0:
92,200,58937,5,0,1:0:0:0:
229,339,59079,2,0,L|216:296,1,40,0|0,1:0|3:0,0:0:0:0:
168,116,59222,5,0,1:0:0:0:
132,108,59294,1,0,3:0:0:0:
101,131,59365,2,0,L|108:188,1,40,0|0,3:0|3:0,0:0:0:0:
268,208,59508,5,0,1:0:0:0:
48,252,59651,1,0,1:0:0:0:
48,252,59722,1,0,3:0:0:0:
48,252,59794,1,0,1:0:0:0:
304,284,59937,5,4,1:2:0:0:
352,68,60079,1,4,1:2:0:0:
304,284,60222,1,0,1:0:0:0:
240,232,60365,6,0,L|284:204,1,40,0|0,1:0|3:0,0:0:0:0:
418,120,60508,2,0,L|374:148,1,40,0|0,3:0|3:0,0:0:0:0:
328,176,60651,1,0,1:0:0:0:
512,112,60794,1,0,1:0:0:0:
352,68,60937,5,0,1:0:0:0:
491,205,61079,2,0,L|448:192,1,40,0|0,1:0|3:0,0:0:0:0:
268,144,61222,5,0,1:0:0:0:
260,108,61294,1,0,3:0:0:0:
283,77,61365,2,0,L|340:84,1,40,0|0,3:0|3:0,0:0:0:0:
404,24,61508,5,0,1:0:0:0:
292,228,61651,1,2,3:3:0:0:
292,228,61722,1,0,3:0:0:0:
292,228,61794,1,0,3:0:0:0:
292,228,61865,1,0,3:0:0:0:
400,204,61937,5,4,1:2:0:0:
184,252,62079,2,0,P|207:251|228:240,1,40,4|0,1:2|3:0,0:0:0:0:
400,204,62222,2,0,P|376:204|356:216,1,40,0|0,1:0|3:0,0:0:0:0:
316,336,62365,6,0,P|315:312|304:292,1,40,0|0,1:0|3:0,0:0:0:0:
268,120,62508,2,0,P|268:143|280:164,1,40,0|0,3:0|3:0,0:0:0:0:
292,228,62651,1,0,1:0:0:0:
184,252,62794,1,0,1:0:0:0:
159,121,62937,5,0,1:0:0:0:
91,231,63079,2,0,L|104:188,1,40,0|0,1:0|3:0,0:0:0:0:
152,8,63222,5,0,1:0:0:0:
188,0,63294,1,0,3:0:0:0:
219,23,63365,2,0,L|212:80,1,40,0|0,3:0|3:0,0:0:0:0:
52,100,63508,5,0,1:0:0:0:
308,144,63651,1,2,3:0:0:0:
308,144,63722,1,0,3:0:0:0:
308,144,63794,1,0,3:0:0:0:
308,144,63865,1,0,3:0:0:0:
284,36,63937,5,4,1:2:0:0:
332,252,64079,2,0,P|324:233|325:213,1,40,4|0,1:2|3:0,0:0:0:0:
284,36,64222,2,0,P|292:55|291:75,1,40,0|0,1:0|3:0,0:0:0:0:
200,168,64365,6,0,P|219:160|239:161,1,40,0|0,1:0|3:0,0:0:0:0:
416,120,64508,2,0,P|397:128|377:127,1,40,0|0,3:0|3:0,0:0:0:0:
308,144,64651,1,0,1:0:0:0:
332,252,64794,1,0,1:0:0:0:
201,277,64937,5,0,3:0:0:0:
311,345,65079,2,0,L|268:332,1,40,0|0,1:0|3:0,0:0:0:0:
88,284,65222,5,0,1:0:0:0:
80,248,65294,1,0,3:0:0:0:
103,217,65365,2,0,L|160:224,1,40,0|0,3:0|3:0,0:0:0:0:
180,376,65508,5,0,1:0:0:0:
296,200,65651,1,2,3:3:0:0:
296,200,65722,1,0,3:0:0:0:
296,200,65794,1,0,3:0:0:0:
296,200,65865,1,0,3:0:0:0:
192,152,65937,5,4,1:2:0:0:
276,128,66073,1,0,1:0:0:0:
360,104,66209,1,0,1:0:0:0:
292,268,66346,5,0,1:0:0:0:
460,220,66482,2,0,L|504:208,2,40,0|0|0,3:0|3:0|3:0,0:0:0:0:
292,268,66755,5,0,1:0:0:0:
336,192,66891,1,0,1:0:0:0:
380,268,67027,1,0,1:0:0:0:
336,104,67164,5,0,1:0:0:0:
212,220,67300,2,0,L|168:208,2,40,0|0|0,3:0|3:0|3:0,0:0:0:0:
336,344,67573,1,0,1:0:0:0:
336,208,67709,1,0,1:0:0:0:
133,353,67846,5,4,1:2:0:0:
109,269,67982,1,0,1:0:0:0:
85,185,68118,1,0,1:0:0:0:
249,253,68255,5,0,1:0:0:0:
201,85,68391,2,0,L|189:41,2,40,0|0|0,3:0|3:0|3:0,0:0:0:0:
249,253,68664,5,0,1:0:0:0:
173,209,68800,1,0,1:0:0:0:
249,165,68936,1,0,1:0:0:0:
85,209,69073,5,0,1:0:0:0:
201,333,69209,2,0,L|189:377,2,40,0|0|0,3:0|3:0|3:0,0:0:0:0:
325,209,69482,1,0,1:0:0:0:
292,220,69550,1,0,1:0:0:0:
260,232,69618,1,0,1:0:0:0:
228,244,69687,1,0,1:0:0:0:
184,260,69755,6,0,B|157:229|157:229|159:209|159:209|189:183,2,100,4|0|0,3:2|1:0|1:0,0:0:0:0:
268,360,70146,1,0,1:0:0:0:
128,312,70276,2,0,L|91:345,1,50,0|0,3:0|3:0,0:0:0:0:
16,352,70407,1,0,1:0:0:0:
197,337,70537,5,0,3:0:0:0:
380,324,70668,1,0,1:0:0:0:
189,183,70798,2,0,B|159:209|159:209|157:229|157:229|184:260,1,100,0|0,1:0|1:0,0:0:0:0:
264,108,71059,2,0,L|301:75,1,50,0|0,3:0|3:0,0:0:0:0:
376,68,71190,1,0,1:0:0:0:
140,0,71320,2,0,B|183:26|183:26|195:74,1,100,0|0,1:0|1:0,0:0:0:0:
23,175,71581,5,4,3:2:0:0:
111,299,71706,1,0,1:0:0:0:
35,259,71831,1,0,1:0:0:0:
183,259,71956,1,0,1:0:0:0:
276,372,72081,1,0,1:0:0:0:
280,360,72143,1,0,3:0:0:0:
284,348,72206,1,0,0:0:0:0:
172,352,72331,5,0,3:0:0:0:
356,312,72456,1,0,1:0:0:0:
364,204,72581,1,0,1:0:0:0:
276,372,72706,1,0,1:0:0:0:
504,332,72831,1,0,1:0:0:0:
508,344,72893,1,0,3:0:0:0:
512,356,72956,1,0,3:0:0:0:
292,276,73081,1,0,1:0:0:0:
444,152,73206,1,0,1:0:0:0:
268,68,73331,6,0,P|254:12|258:70,3,160,0|0|0|0,3:0|3:0|3:0|3:0,0:0:0:0:
167,104,73571,2,0,P|114:80|162:113,3,160,0|0|0|0,3:0|3:0|3:0|3:0,0:0:0:0:
132,208,73811,2,0,P|81:234|136:217,3,160,0|0|0|0,3:0|3:0|3:0|3:0,0:0:0:0:
190,298,74051,2,0,P|178:354|200:300,3,160,0|0|0|0,3:0|3:0|3:0|3:0,0:0:0:0:
297,309,74291,2,0,P|333:354|305:303,3,160,0|0|0|0,3:0|3:0|3:0|3:0,0:0:0:0:
374,231,74531,2,0,P|431:230|374:221,3,160,0|0|0|0,3:0|3:0|3:0|3:0,0:0:0:0:
361,125,74771,2,0,P|396:79|353:118,3,160,0|0|0|0,3:0|3:0|3:0|3:0,0:0:0:0:
284,112,75011,6,0,P|256:88|228:112,1,80,0|0,3:0|3:0,0:0:0:0:
210,120,75131,2,0,P|174:127|175:164,1,80,0|0,3:0|3:0,0:0:0:0:
171,184,75251,2,0,P|155:217|185:238,1,80,0|0,3:0|3:0,0:0:0:0:
195,251,75371,2,0,P|210:285|246:276,1,80,0|0,3:0|3:0,0:0:0:0:
265,276,75491,2,0,P|301:285|316:251,1,80,0|0,3:0|3:0,0:0:0:0:
328,236,75611,2,0,P|357:213|340:181,1,80,0|0,3:0|3:0,0:0:0:0:
336,164,75731,2,0,P|337:127|301:120,1,80,0|0,3:0|3:0,0:0:0:0:
255,174,75851,5,0,3:0:0:0:
247,176,75911,1,0,3:0:0:0:
241,181,75971,1,0,3:0:0:0:
238,188,76031,1,0,3:0:0:0:
238,196,76091,1,0,3:0:0:0:
242,203,76151,1,0,3:0:0:0:
248,208,76211,1,0,3:0:0:0:
256,209,76271,1,0,3:0:0:0:
264,207,76331,1,0,3:0:0:0:
270,202,76391,1,0,3:0:0:0:
273,195,76451,1,0,3:0:0:0:
273,187,76511,1,0,3:0:0:0:
269,180,76571,1,0,3:0:0:0:
263,175,76631,1,0,3:0:0:0:
256,192,76691,12,0,78364,0:0:0:0:
56,80,78537,6,0,B|48:56|48:56|84:56,1,60.0000022888184,0|0,3:0|0:0,0:0:0:0:
152,92,78755,2,0,B|160:116|160:116|124:116,1,60.0000022888184,0|0,3:0|0:0,0:0:0:0:
220,8,78974,2,0,B|220:32|220:32|224:40|224:40|224:67,1,60.0000022888184,0|0,3:0|0:0,0:0:0:0:
228,160,79193,2,0,B|232:140|232:140|236:152,3,30.0000011444092,0|0|0|0,3:0|0:0|0:0|0:0,0:0:0:0:
244,160,79412,6,0,B|328:128|328:128|356:164,1,120.000004577637,0|0,3:0|3:0,0:0:0:0:
360,144,79686,2,0,L|325:100,1,30.0000011444092
448,8,79850,2,0,B|416:92|416:92|448:68,1,120.000004577637,0|0,3:0|3:0,0:0:0:0:
448,88,80124,2,0,L|405:122,1,30.0000011444092
304,40,80288,6,0,L|296:0,2,30.0000011444092,0|0|0,3:0|0:0|0:0,0:0:0:0:
304,40,80507,1,0,3:0:0:0:
512,384,80726,5,2,0:0:0:0:
440,372,81164,1,2,0:0:0:0:
368,360,81602,1,2,0:0:0:0:
296,348,82040,6,0,B|272:356|272:356|272:320,1,60.0000022888184,2|0,3:2|0:0,0:0:0:0:
308,252,82259,2,0,B|332:244|332:244|332:280,1,60.0000022888184,0|0,3:0|0:0,0:0:0:0:
224,184,82478,2,0,B|248:184|248:184|256:180|256:180|283:180,1,60.0000022888184,0|0,3:0|0:0,0:0:0:0:
376,176,82697,2,0,B|356:172|356:172|368:168,3,30.0000011444092,0|0|0|0,3:0|0:0|0:0|0:0,0:0:0:0:
376,160,82916,6,0,B|344:76|344:76|380:48,1,120.000004577637,0|0,3:0|3:0,0:0:0:0:
360,44,83190,2,0,L|316:79,1,30.0000011444092
512,24,83354,2,0,B|428:-8|428:-8|452:24,1,120.000004577637,0|0,3:0|3:0,0:0:0:0:
432,24,83628,2,0,L|398:-19,1,30.0000011444092
480,128,83792,6,0,L|520:136,2,30.0000011444092,0|0|0,3:0|0:0|0:0,0:0:0:0:
480,128,84010,1,0,3:0:0:0:
256,192,84120,12,0,85434,0:0:0:0:
292,216,85544,6,0,L|288:336,1,120.000004577637,4|0,0:0|0:0,0:0:0:0:
220,220,85763,1,0,0:0:0:0:
360,244,85872,6,0,P|388:244|420:240,1,50,4|0,0:0|0:0,0:0:0:0:
216,320,85982,2,0,P|164:324|100:348,1,100,4|0,0:0|0:0,0:0:0:0:
376,364,86201,2,0,P|374:340|348:292,1,50
292,216,86310,1,2,0:0:0:0:
292,216,86365,1,2,0:0:0:0:
292,216,86420,6,0,B|367:195|352:271|430:247,1,150,4|0,0:0|0:0,0:0:0:0:
440,180,86639,2,0,P|419:179|399:187,1,30.0000011444092,2|2,0:0|0:0,0:0:0:0:
316,124,86748,2,0,P|341:127|388:112,1,60.0000022888184,4|0,0:0|0:0,0:0:0:0:
252,156,86858,6,0,P|224:96|296:64,1,150,2|0,0:0|0:0,0:0:0:0:
356,52,87077,2,0,P|360:28|356:0,1,50,4|0,0:0|0:0,0:0:0:0:
184,24,87186,1,2,0:0:0:0:
184,24,87241,1,2,0:0:0:0:
184,24,87296,6,0,P|153:29|112:28,1,60.0000022888184,4|0,3:2|0:0,0:0:0:0:
56,28,87405,2,0,P|44:28|20:24,1,30.0000011444092,0|0,3:0|0:0,0:0:0:0:
156,100,87515,2,0,P|144:100|120:96,1,30.0000011444092,0|0,3:0|0:0,0:0:0:0:
56,96,87624,2,0,P|41:98|26:98,1,30.0000011444092,4|0,3:2|0:0,0:0:0:0:
92,160,87734,6,0,P|115:175|132:204,1,60.0000022888184,2|0,3:2|0:0,0:0:0:0:
132,276,87843,2,0,P|122:287|111:297,1,30.0000011444092,0|0,3:0|0:0,0:0:0:0:
40,304,87953,2,0,P|16:288|0:260,1,60.0000022888184,4|0,3:2|0:0,0:0:0:0:
0,188,88062,2,0,P|9:176|20:166,1,30.0000011444092,0|0,3:0|0:0,0:0:0:0:
74,238,88172,1,6,3:2:0:0:
74,238,88226,1,0,0:0:0:0:
74,238,88281,6,0,L|92:200,3,30.0000011444092,0|0|0|0,3:0|0:0|3:0|0:0,0:0:0:0:
160,200,88500,2,0,P|156:232|164:272,1,60.0000022888184,4|0,3:2|0:0,0:0:0:0:
244,284,88609,2,0,P|247:251|228:164,1,120.000004577637,2|0,3:2|3:0,0:0:0:0:
300,336,88828,5,4,3:2:0:0:
311,329,88883,1,2,2:2:0:0:
324,328,88938,1,2,3:2:0:0:
338,328,88993,1,0,2:0:0:0:
348,320,89047,6,0,L|356:272,1,30.0000011444092,4|0,1:2|0:0,0:0:0:0:
432,320,89157,2,0,L|424:272,1,30.0000011444092,0|0,1:2|0:0,0:0:0:0:
344,312,89266,6,0,L|352:264,1,34.8000002920532,2|0,1:2|0:0,0:0:0:0:
440,304,89376,2,0,L|419:259,1,34.8000002920532,2|0,1:2|0:0,0:0:0:0:
340,300,89485,6,0,L|348:252,1,40,2|0,1:2|0:0,0:0:0:0:
444,276,89595,2,0,L|412:237,1,40,0|0,1:2|0:0,0:0:0:0:
336,288,89704,6,0,L|344:240,1,45.2000001379395,2|0,1:2|0:0,0:0:0:0:
448,244,89814,2,0,L|406:214,1,45.2000001379395,2|0,1:2|0:0,0:0:0:0:
186,112,89923,6,0,L|197:176,1,50,6|0,1:2|0:0,0:0:0:0:
298,112,90033,2,0,L|287:176,1,50,0|0,1:2|0:0,0:0:0:0:
181,122,90142,6,0,L|192:186,1,54.8000015469361,0|0,1:2|0:0,0:0:0:0:
309,133,90252,2,0,L|281:193,1,54.8000015469361,0|0,1:2|0:0,0:0:0:0:
176,138,90361,6,0,L|186:202,1,60.0000022888184,2|0,1:2|0:0,0:0:0:0:
314,170,90471,2,0,L|271:222,1,60.0000022888184,0|0,1:2|0:0,0:0:0:0:
171,154,90580,6,0,L|181:218,1,65.1999999502563,0|0,1:2|0:0,0:0:0:0:
319,213,90690,2,0,L|263:253,1,65.1999999502563,0|0,1:2|0:0,0:0:0:0:
204,288,90799,6,2,L|224:324,2,30.0000011444092
84,320,91018,1,0,0:0:0:0:
154,340,91128,1,0,0:0:0:0:
72,288,91237,1,0,0:0:0:0:
100,156,91347,6,0,P|102:144|100:132,1,15.0000005722046,2|0,0:0|0:0,0:0:0:0:
72,104,91456,1,0,0:0:0:0:
32,104,91566,1,0,0:0:0:0:
8,120,91675,2,0,P|0:136|4:164,5,40.000001525879,2|2|2|2|2|0,0:0|0:0|0:0|0:0|0:0|0:0,0:0:0:0:
16,108,92113,5,2,0:0:0:0:
40,102,92186,5,2,0:0:0:0:
70,108,92259,5,2,0:0:0:0:
100,132,92332,5,2,0:0:0:0:
140,140,92405,5,2,0:0:0:0:
184,124,92478,5,2,0:0:0:0:
212,84,92551,6,0,B|236:72|236:72|232:16|232:16|304:8|304:8|308:64|308:64|280:76,1,240.000009155274,4|0,3:1|1:0,0:0:0:0:
208,192,92880,2,2,B|144:216|144:216|324:180|324:180|328:232,1,300.000011444092,2|0,0:0|0:0,0:1:0:0:
264,268,93208,2,2,B|177:286|177:286|288:292,1,180.000006866455,2|0,1:2|0:0,0:1:0:0:
336,300,93427,6,2,B|372:301|372:301|358:118|358:118|374:184,1,280.000002670288,2|0,3:2|1:0,0:1:0:0:
484,256,93755,2,2,B|496:380|496:380|312:369,1,300.000011444092,2|0,0:2|0:0,0:1:0:0:
272,320,94084,6,2,B|216:247|216:247|151:307,1,180.000006866455,2|0,1:2|0:0,0:1:0:0:
96,352,94303,5,0,3:0:0:0:
96,352,94412,1,0,3:0:0:0:
316,260,94522,5,2,1:1:0:0:
316,260,94549,2,2,B|241:236|241:236|195:264|195:264|121:241,1,210.000008010865,2|0,0:0|3:1,0:1:0:0:
40,92,94850,2,2,B|124:118|124:118|149:175|149:175|234:202,1,240.000009155274,2|0,0:2|0:0,0:1:0:0:
328,36,95179,6,2,B|388:20|388:20|332:208,1,240.000009155274,2|0,3:2|1:0,0:1:0:0:
420,324,95507,2,2,B|369:337|369:337|416:177,1,200,2|0,0:2|0:0,0:1:0:0:
452,60,95836,6,2,B|492:72|492:72|360:112,1,180.000006866455,2|0,1:2|0:0,0:1:0:0:
292,92,96055,6,2,B|304:116|304:116|360:112|360:112|368:184|368:184|312:188|312:188|300:160,1,240.000009155274,2|0,3:2|1:0,0:1:0:0:
188,80,96384,2,2,B|164:16|164:16|200:196|200:196|148:200,1,300.000011444092,2|0,0:2|0:0,0:1:0:0:
112,136,96712,2,2,B|99:77|99:77|95:152,1,120.000004577637,2|2,1:2|0:2,0:1:0:0:
80,212,96876,1,2,0:2:0:0:
80,212,96931,6,2,B|78:175|78:175|261:189|261:189|195:173,1,280.000002670288,0|0,3:0|1:0,0:1:0:0:
124,64,97259,2,2,B|0:52|0:52|11:236,1,300.000011444092,2|0,0:2|0:0,0:1:0:0:
80,212,97588,6,2,B|152:267|152:267|92:332,1,180.000006866455,2|0,1:2|0:0,0:1:0:0:
20,328,97807,6,0,L|28:288,1,30.0000011444092,2|0,3:3|0:0,0:0:0:0:
20,328,97916,2,0,L|12:368,1,30.0000011444092,2|0,3:2|0:0,0:0:0:0:
346,377,98135,6,2,B|262:351|262:351|237:294|237:294|152:267,1,240.000009155274,2|0,0:0|0:0,0:1:0:0:
396,300,98464,6,0,L|356:308,1,30.0000011444092,2|0,1:3|0:0,0:0:0:0:
396,300,98573,2,0,L|436:292,1,30.0000011444092,2|0,0:3|0:0,0:0:0:0:
464,283,98683,6,0,B|472:316|456:340,1,60.0000022888184,2|0,3:1|0:0,0:0:0:0:
328,317,98792,2,0,B|320:284|336:260,1,60.0000022888184,2|0,0:3|0:0,0:0:0:0:
375,190,98901,6,0,B|422:155|422:155|452:208,1,120.000004577637,0|2,1:0|0:1,0:0:0:0:
305,163,99120,6,0,P|292:163|266:158,1,40,0|0,3:0|0:0,0:0:0:0:
197,148,99230,2,0,P|217:153|237:153,1,40,2|0,3:3|0:0,0:0:0:0:
304,72,99339,6,0,P|304:100|296:124,1,50,2|0,1:0|0:0,0:0:0:0:
220,108,99449,2,0,P|220:80|228:56,1,50,0|0,3:0|0:0,0:0:0:0:
136,108,99558,6,0,B|112:96|112:96|116:40|116:40|44:32|44:32|40:88|40:88|68:100,1,240.000009155274,6|0,3:1|1:0,0:0:0:0:
148,262,99887,1,2,0:1:0:0:
144,188,99996,2,0,B|5:160|5:160|2:200,1,180.000006866455,0|0,3:0|0:0,0:1:0:0:
60,244,100215,2,0,B|147:262|147:262|36:268,1,180.000006866455,2|0,1:1|0:0,0:0:0:0:
104,336,100434,6,2,B|68:337|68:337|82:154|82:154|66:220,1,280.000002670288,2|0,3:1|1:0,0:1:0:0:
104,336,100763,1,2,0:1:0:0:
0,368,100872,2,0,B|184:357,1,180.000006866455,0|0,3:0|0:0,0:1:0:0:
224,300,101091,6,2,B|280:227|280:227|345:287,1,180.000006866455,2|0,1:0|0:0,0:1:0:0:
400,332,101310,5,2,3:2:0:0:
400,332,101419,1,0,3:0:0:0:
196,260,101529,5,2,1:1:0:0:
196,260,101556,2,2,B|271:236|271:236|317:264|317:264|391:241,1,210.000008010865,2|0,0:0|3:1,0:1:0:0:
264,96,101858,1,2,0:1:0:0:
364,124,101967,2,0,B|347:181|347:181|262:208,1,120.000004577637,0|0,1:0|0:0,0:1:0:0:
112,16,102186,6,2,B|52:0|52:0|108:188,1,240.000009155274,2|0,3:1|1:0,0:1:0:0:
179,158,102515,1,2,0:1:0:0:
164,268,102624,2,0,B|215:281|215:281|168:121,1,180.000006866455,0|0,3:0|0:0,0:1:0:0:
102,170,102843,6,2,B|62:182|62:182|196:218,1,180.000006866455,2|0,1:0|0:0,0:1:0:0:
268,200,103062,6,0,B|256:176|256:176|200:180|200:180|192:108|192:108|248:104|248:104|260:132,1,240.000009155274,2|0,3:1|1:0,0:0:0:0:
422,212,103391,1,2,0:1:0:0:
348,208,103500,2,0,B|320:69|320:69|360:66,1,180.000006866455,0|0,3:0|0:0,0:1:0:0:
410,153,103719,2,0,B|422:211|422:211|426:136,1,120.000004577637,2|2,1:1|0:0,0:0:0:0:
428,80,103883,1,2,0:0:0:0:
428,80,103938,6,2,B|430:117|430:117|247:103|247:103|313:119,1,280.000002670288,2|0,3:1|1:0,0:1:0:0:
422,212,104266,1,2,0:1:0:0:
512,220,104376,2,0,B|501:36,1,180.000006866455,0|0,3:0|0:0,0:1:0:0:
428,80,104595,6,2,B|366:146|366:146|437:200,1,180.000006866455,2|0,1:1|0:0,0:1:0:0:
468,272,104814,6,0,L|508:264,1,30.0000011444092,2|0,3:3|0:0,0:0:0:0:
468,272,104923,2,0,L|428:280,1,30.0000011444092,2|0,3:2|0:0,0:0:0:0:
344,220,105033,1,0,1:0:0:0:
448,376,105142,6,2,B|364:350|364:350|339:293|339:293|254:266,1,240.000009155274,2|0,0:1|0:0,0:1:0:0:
183,317,105471,6,0,L|175:277,1,30.0000011444092,2|0,1:3|0:0,0:0:0:0:
183,317,105580,2,0,L|191:357,1,30.0000011444092,2|0,0:3|0:0,0:0:0:0:
80,208,105690,6,0,L|144:197,1,50,4|0,1:2|0:0,0:0:0:0:
80,96,105799,2,0,L|144:107,1,50,0|0,1:2|0:0,0:0:0:0:
90,213,105909,6,0,L|154:202,1,54.8000015469361,0|0,1:2|0:0,0:0:0:0:
101,85,106018,2,0,L|161:113,1,54.8000015469361,2|0,1:1|0:0,0:0:0:0:
106,218,106128,6,0,L|170:208,1,60.0000022888184,0|0,1:2|0:0,0:0:0:0:
138,80,106237,2,0,L|190:123,1,60.0000022888184,0|0,1:2|0:0,0:0:0:0:
122,223,106347,6,0,L|186:213,1,65.1999999502563,2|0,1:1|0:0,0:0:0:0:
181,75,106456,2,0,L|221:131,1,65.1999999502563,0|0,1:2|0:0,0:0:0:0:
256,192,106566,6,2,L|296:172,2,32.5999999751282,4|2|2,3:2|0:0|0:0,0:0:0:0:
44,276,106785,5,4,3:2:0:0:
244,328,106894,2,0,L|116:296,1,130.399999900513,0|2,1:0|3:2,0:0:0:0:
44,276,107113,5,4,3:2:0:0:
244,328,107222,2,0,L|116:296,1,130.399999900513,0|2,1:0|3:2,0:0:0:0:
64,352,107442,5,4,3:2:0:0:
4,192,107551,5,0,1:0:0:0:
88,192,107661,2,0,P|96:168|116:156,1,40,2|0,1:1|0:0,0:0:0:0:
172,192,107770,1,0,1:0:0:0:
256,192,107880,2,0,B|284:228,1,40,2|0,1:1|0:0,0:0:0:0:
340,192,107989,1,0,1:0:0:0:
424,192,108099,2,0,L|440:168,1,20,0|0,1:0|0:0,0:0:0:0:
508,192,108208,2,0,L|492:216,1,20,0|0,1:0|0:0,0:0:0:0:
448,32,108318,5,4,3:2:0:0:
44,108,108537,5,0,3:2:0:0:
244,56,108646,2,0,L|116:88,1,130.399999900513,2|0,1:1|3:0,0:0:0:0:
218,208,108865,5,0,3:2:0:0:
166,8,108974,2,0,L|198:136,1,130.399999900513,0|2,1:0|3:1,0:0:0:0:
64,32,109194,5,2,3:2:0:0:
4,192,109303,6,0,L|20:168,1,20,0|0,1:0|0:0,0:0:0:0:
88,192,109412,2,0,L|104:216,1,20,0|0,1:0|0:0,0:0:0:0:
172,192,109522,2,0,L|188:216,1,20,0|0,1:0|0:0,0:0:0:0:
256,192,109631,2,0,L|256:152,1,40,2|0,1:3|0:0,0:0:0:0:
340,192,109741,2,0,B|368:228,1,40,2|0,1:3|0:0,0:0:0:0:
424,192,109850,2,0,B|452:156,1,40,2|0,1:3|0:0,0:0:0:0:
508,192,109960,2,0,L|492:216,1,20,0|0,1:0|0:0,0:0:0:0:
448,352,110069,5,4,3:2:0:0:
44,108,110288,5,4,3:2:0:0:
244,56,110397,2,0,B|216:80|176:72|188:64|148:56|121:83,1,130.399999900513,0|0,1:0|3:0,0:0:0:0:
44,108,110616,5,4,3:2:0:0:
244,56,110726,2,0,B|208:45|175:69|189:71|156:95|120:81,1,130.399999900513,0|0,1:0|3:0,0:0:0:0:
64,32,110945,5,4,3:2:0:0:
4,192,111054,5,0,1:0:0:0:
85,173,111164,2,0,P|93:149|113:137,1,40,2|0,1:1|0:0,0:0:0:0:
167,154,111273,1,0,1:0:0:0:
249,136,111383,2,0,B|277:172,1,40,2|0,1:1|0:0,0:0:0:0:
330,116,111492,1,0,1:0:0:0:
412,98,111602,2,0,L|428:74,1,20,0|0,1:0|0:0,0:0:0:0:
494,79,111712,2,0,L|478:103,1,20,0|0,1:0|0:0,0:0:0:0:
400,224,111821,5,4,3:2:0:0:
44,276,112040,5,0,3:2:0:0:
244,328,112150,2,0,B|216:304|176:312|188:320|148:328|121:301,1,130.399999900513,4|0,1:2|3:0,0:0:0:0:
218,176,112368,5,0,3:2:0:0:
166,376,112478,2,0,B|155:340|179:307|181:321|205:288|191:252,1,130.399999900513,4|0,1:2|3:0,0:0:0:0:
64,352,112697,5,2,3:2:0:0:
4,192,112807,6,0,L|20:168,1,20,0|0,1:0|0:0,0:0:0:0:
85,211,112916,2,0,L|101:235,1,20,0|0,1:0|0:0,0:0:0:0:
167,230,113026,2,0,L|183:254,1,20,0|0,1:0|0:0,0:0:0:0:
249,248,113135,2,0,L|249:208,1,40,2|0,1:3|0:0,0:0:0:0:
330,268,113245,2,0,B|358:304,1,40,2|0,1:3|0:0,0:0:0:0:
412,286,113354,2,0,B|440:250,1,40,2|0,1:3|0:0,0:0:0:0:
494,305,113464,2,0,L|478:329,1,20,0|0,1:0|0:0,0:0:0:0:
400,160,113573,6,0,B|356:184|356:184|368:280,1,130.399999900513,4|0,1:2|3:0,0:0:0:0:
436,368,113792,1,2,3:2:0:0:
480,144,113901,6,0,P|456:95|352:97,1,130.399999900513,4|0,1:2|3:0,0:0:0:0:
330,268,114120,1,2,3:2:0:0:
386,77,114230,2,0,P|448:89|480:144,1,130.399999900513,4|0,1:2|3:0,0:0:0:0:
256,384,114449,5,0,1:0:0:0:
188,336,114558,1,0,1:0:0:0:
256,288,114668,2,0,P|269:302|288:307,1,40,2|0,1:1|0:0,0:0:0:0:
328,240,114777,1,0,1:0:0:0:
256,192,114887,2,0,L|248:144,1,40,2|0,1:1|0:0,0:0:0:0:
184,144,114996,1,0,1:0:0:0:
256,100,115106,2,0,L|240:124,1,20,0|0,1:0|0:0,0:0:0:0:
328,56,115215,2,0,L|344:32,1,20,0|0,1:0|0:0,0:0:0:0:
256,12,115325,6,0,B|176:2|176:2|148:48,1,130.399999900513,4|0,1:2|3:0,0:0:0:0:
108,116,115544,1,2,3:2:0:0:
184,144,115653,1,0,1:0:0:0:
156,64,115763,1,0,3:0:0:0:
112,136,115872,1,0,3:0:0:0:
196,140,115982,2,0,B|276:130|276:130|304:176,1,130.399999900513,4|2,1:2|3:2,0:0:0:0:
256,384,116201,5,0,1:0:0:0:
324,336,116310,2,0,L|348:328,1,20,0|0,1:0|0:0,0:0:0:0:
256,288,116420,2,0,L|264:312,1,20,0|0,1:0|0:0,0:0:0:0:
184,240,116529,2,0,L|160:232,1,20,0|0,1:0|0:0,0:0:0:0:
256,192,116639,2,0,L|292:216,1,40,2|0,1:3|0:0,0:0:0:0:
328,144,116748,2,0,L|292:168,1,40,2|0,1:3|0:0,0:0:0:0:
256,100,116858,2,0,L|292:76,1,40,2|0,1:3|0:0,0:0:0:0:
184,56,116967,2,0,L|168:32,1,20,0|0,1:0|0:0,0:0:0:0:
256,12,117077,6,0,B|335:2|335:2|359:46,1,130.399999900513,4|0,1:2|3:0,0:0:0:0:
256,192,117296,1,2,3:2:0:0:
428,160,117405,6,0,P|477:136|475:32,1,130.399999900513,4|0,1:2|3:0,0:0:0:0:
348,40,117624,1,2,3:2:0:0:
495,66,117734,2,0,P|483:128|428:160,1,130.399999900513,4|0,1:2|3:0,0:0:0:0:
64,192,117953,5,0,1:0:0:0:
112,260,118062,1,0,1:0:0:0:
160,192,118172,2,0,P|146:179|141:160,1,40,2|0,1:0|0:0,0:0:0:0:
208,120,118281,1,0,1:0:0:0:
256,192,118391,2,0,L|264:240,1,40,2|0,1:0|0:0,0:0:0:0:
304,264,118500,1,0,1:0:0:0:
348,192,118609,2,0,L|364:216,1,20,0|0,1:0|0:0,0:0:0:0:
392,120,118719,2,0,L|376:96,1,20,0|0,1:0|0:0,0:0:0:0:
436,192,118828,6,0,B|456:233|456:233|487:244|487:244|511:290,1,130.399999900513,4|2,1:2|1:2,0:0:0:0:
312,116,119047,2,0,B|291:74|291:74|260:63|260:63|236:17,1,130.399999900513,0|0,1:0|1:0,0:0:0:0:
0,94,119266,2,0,B|24:139|24:139|55:150|55:150|76:192,1,130.399999900513,4|2,1:2|1:2,0:0:0:0:
275,365,119485,2,0,B|251:320|251:320|220:309|220:309|200:268,1,130.399999900513,2|0,1:2|1:0,0:0:0:0:
0,384,119704,6,0,L|8:344,1,27.9999991455078,0|0,1:0|0:0,0:0:0:0:
40,351,119814,2,0,L|84:356,1,32,2|0,1:2|0:0,0:0:0:0:
85,315,119923,2,0,L|96:276,1,35.9999989013672,2|0,1:2|0:0,0:0:0:0:
138,276,120033,2,0,L|188:268,1,40,2|0,1:3|0:0,0:0:0:0:
196,233,120142,2,0,L|216:188,1,44.0000013427735,2|0,1:3|0:0,0:0:0:0:
262,184,120252,2,0,L|324:184,1,47.9999985351563,2|0,1:3|0:0,0:0:0:0:
339,131,120361,2,0,L|348:76,1,51.999997619629,2|0,1:1|0:0,0:0:0:0:
422,69,120471,2,0,L|484:76,1,55.9999982910157,2|0,1:1|0:0,0:0:0:0:
510,5,120580,6,2,B|512:32|512:32|376:32|376:32|368:80|368:80|409:80,1,240.000009155274,4|0,3:1|1:0,0:1:0:0:
440,160,120854,1,2,0:0:0:0:
440,160,120909,6,2,B|444:136|444:136|512:136|512:136|500:204|500:204|356:204,1,300.000011444092,0|0,3:0|0:0,0:1:0:0:
336,272,121237,6,2,B|300:272|300:272|284:188|284:188|228:188|228:188|212:272|212:272,1,240.000009155274,0|0,1:0|3:0,0:1:0:0:
172,328,121511,1,2,0:0:0:0:
172,328,121566,2,0,B|149:349|149:349|128:328,1,60.0000022888184,0|0,1:0|2:0,0:0:0:0:
56,328,121675,6,2,B|33:349|33:349|16:236|16:236|40:212,1,180.000006866455,0|0,1:0|2:0,0:1:0:0:
100,164,121894,2,2,B|178:164|178:164|220:284,1,180.000006866455,0|0,3:0|0:0,0:1:0:0:
248,328,122113,2,2,B|296:328|296:328|312:348|312:348|264:348,1,120.000004577637,0|0,1:0|0:0,0:1:0:0:
56,328,122332,6,2,B|76:112|76:112|104:80,1,240.000009155274,4|0,3:1|1:0,0:1:0:0:
160,56,122661,1,0,1:0:0:0:
18,25,122770,2,0,B|-6:41|-6:41|90:49,1,120.000004577637,0|0,3:0|1:0,0:0:0:0:
228,20,122989,6,0,B|240:28|240:28|228:116,1,60.0000022888184,0|2,1:0|0:2,0:0:0:0:
192,136,123099,2,0,B|180:144|180:144|192:232,1,60.0000022888184,0|2,1:0|0:2,0:0:0:0:
211,260,123208,5,4,3:2:0:0:
211,260,123263,1,2,0:2:0:0:
211,260,123318,2,0,B|196:233|196:233|176:268,1,60.0000022888184,0|0,1:0|0:0,0:0:0:0:
136,320,123427,6,0,B|113:353|113:353|196:292|196:292|260:332,1,210.000002002716,0|0,1:0|0:0,0:0:0:0:
368,363,123646,6,0,B|360:375|360:375|272:363,1,60.0000022888184,0|0,3:0|0:0,0:0:0:0:
252,327,123756,2,0,B|244:315|244:315|156:327,1,60.0000022888184,2|0,0:2|0:0,0:0:0:0:
316,300,123865,6,0,B|328:292|328:292|316:204,1,60.0000022888184,0|0,1:0|0:0,0:0:0:0:
280,184,123975,2,0,B|268:176|268:176|280:88,1,60.0000022888184,2|0,0:2|0:0,0:0:0:0:
316,68,124084,5,4,3:2:0:0:
316,68,124139,1,2,0:0:0:0:
316,68,124194,2,0,B|340:84|340:84|348:116,1,60.0000022888184,0|2,1:0|0:0,0:0:0:0:
424,60,124303,2,0,B|400:44|400:44|392:12,3,60.0000022888184,0|2|2|2,1:0|0:2|1:2|0:2,0:0:0:0:
456,132,124522,5,2,3:2:0:0:
456,132,124577,1,2,0:0:0:0:
456,132,124632,2,0,B|440:156|440:156|408:164,1,60.0000022888184,4|2,1:2|3:2,0:0:0:0:
464,240,124741,2,0,B|480:216|480:216|512:208,3,60.0000022888184,2|2|2|2,1:2|0:2|1:2|0:2,0:0:0:0:
408,324,124960,6,0,P|416:308|412:284,7,30.0000011444092,2|2|6|0|2|2|2|2,3:2|0:2|1:2|0:2|1:2|0:2|1:2|0:2,0:0:0:0:
400,336,125398,5,0,3:0:0:0:
384,340,125453,1,2,0:2:0:0:
364,336,125508,1,4,1:2:0:0:
344,320,125562,1,2,0:2:0:0:
320,308,125617,1,0,1:0:0:0:
288,304,125672,1,2,0:0:0:0:
256,308,125727,1,2,1:2:0:0:
224,324,125781,1,2,0:0:0:0:
195,356,125836,6,2,B|155:352|155:352|185:199|185:199|165:253,1,240.000009155274,4|0,3:1|1:0,0:1:0:0:
60,248,126164,6,2,B|77:212|77:212|159:218|159:218|171:113|171:113|89:107|89:107|72:143,1,350.00000333786,0|0,1:0|2:0,0:1:0:0:
148,136,126493,6,2,B|121:17|121:17|5:47,1,240.000009155274,0|0,1:0|0:0,0:1:0:0:
64,112,126766,1,2,0:0:0:0:
64,112,126821,2,0,B|64:96|64:96|100:56,1,60.0000022888184,0|0,1:0|1:0,0:0:0:0:
204,8,126931,6,0,L|200:68,1,50,0|0,1:0|0:0,0:0:0:0:
272,52,127040,6,0,L|268:112,1,40,2|2,0:2|0:0,0:0:0:0:
264,160,127150,6,0,L|267:110,1,50,0|0,1:0|0:0,0:0:0:0:
342,72,127259,6,0,L|346:12,1,60.0000022888184,2|2,0:2|0:0,0:0:0:0:
416,48,127369,6,0,B|468:80|468:80|441:132,1,120.000004577637,4|2,1:2|0:0,0:0:0:0:
340,316,127588,5,4,3:2:0:0:
504,280,127697,1,2,0:0:0:0:
340,316,127807,1,0,1:0:0:0:
504,356,127916,1,6,0:0:0:0:
416,272,128026,2,0,P|418:252|436:224,2,50,2|2|2,3:2|0:0|0:0,0:0:0:0:
364,384,128245,2,0,P|313:387|276:332,1,100,4|0,1:2|0:0,0:0:0:0:
272,212,128464,6,0,L|272:168,1,40,0|0,3:0|1:0,0:0:0:0:
308,48,128573,2,0,L|308:92,1,40,0|0,1:0|1:0,0:0:0:0:
272,212,128683,1,0,1:0:0:0:
232,48,128792,1,6,0:0:0:0:
392,142,128902,2,0,P|368:151|344:152,3,50,2|2|2|0,3:2|1:2|1:2|1:2,0:0:0:0:
380,68,129120,6,0,P|355:68|331:77,1,50,2|2,1:2|1:2,0:0:0:0:
276,168,129230,2,0,P|251:167|227:158,1,50,2|2,1:2|1:2,0:0:0:0:
164,80,129339,5,4,3:2:0:0:
0,116,129448,1,2,0:0:0:0:
164,80,129558,1,0,1:0:0:0:
0,40,129667,1,6,0:0:0:0:
88,124,129777,2,0,P|86:144|68:172,2,50,2|2|2,3:2|0:0|0:0,0:0:0:0:
140,12,129996,2,0,P|191:9|228:64,1,100,4|0,1:2|0:0,0:0:0:0:
232,184,130215,6,0,L|232:228,1,40,0|0,3:0|1:0,0:0:0:0:
196,348,130325,2,0,L|196:304,1,40,0|0,1:0|1:0,0:0:0:0:
232,184,130434,2,0,L|232:228,1,40,0|2,1:0|0:0,0:0:0:0:
272,348,130543,1,6,0:0:0:0:
111,253,130653,2,0,P|134:243|159:243,3,50,2|2|2|0,3:2|1:2|1:2|1:2,0:0:0:0:
123,327,130872,6,0,P|148:326|172:317,1,50,2|2,1:2|1:2,0:0:0:0:
158,234,130982,2,0,P|133:235|109:244,1,50,2|2,1:2|1:2,0:0:0:0:
32,296,131091,5,2,1:2:0:0:
60,312,131200,1,2,1:2:0:0:
32,292,131310,1,2,1:2:0:0:
64,312,131419,1,2,1:2:0:0:
32,288,131529,1,2,1:2:0:0:
68,312,131638,1,2,1:2:0:0:
32,284,131748,1,2,1:2:0:0:
72,312,131857,1,2,1:2:0:0:
76,208,131967,5,2,1:1:0:0:
52,166,132076,1,2,1:1:0:0:
82,208,132186,1,2,1:1:0:0:
52,160,132295,1,2,1:1:0:0:
88,208,132405,1,2,1:1:0:0:
52,154,132514,1,2,1:1:0:0:
94,208,132624,1,2,1:1:0:0:
52,148,132733,1,2,1:1:0:0:
152,148,132843,6,0,B|137:149|137:149|123:142,1,30.0000011444092,0|0,1:0|0:0,0:0:0:0:
164,86,132952,2,0,B|151:80|151:80|136:80,1,30.0000011444092,0|0,1:0|0:0,0:0:0:0:
296,124,133062,6,0,B|296:145|296:145|287:162,1,40,0|0,1:0|0:0,0:0:0:0:
227,112,133171,2,0,B|218:129|218:129|219:149,1,40,0|0,1:0|0:0,0:0:0:0:
302,31,133281,6,0,B|281:20|281:20|254:20,1,50,0|0,1:0|0:0,0:0:0:0:
289,97,133390,2,0,B|263:98|263:98|242:87,1,50,0|0,1:0|0:0,0:0:0:0:
349,188,133500,6,0,B|375:201|375:201|405:200,1,60.0000022888184,0|0,1:0|0:0,0:0:0:0:
364,120,133609,2,0,B|394:119|394:119|420:132,1,60.0000022888184,0|0,1:0|0:0,0:0:0:0:
508,0,133719,6,0,B|476:-5|476:-5|435:22,1,70.000000667572,2|0,1:0|0:0,0:0:0:0:
384,40,133829,2,0,B|415:44|415:44|456:17,1,70.000000667572,2|0,1:0|0:0,0:0:0:0:
488,76,133938,6,0,B|498:66|498:66|477:147,1,70.000000667572,2|0,1:0|0:0,0:0:0:0:
420,132,134048,2,0,B|409:141|409:141|430:60,1,70.000000667572,2|0,1:0|0:0,0:0:0:0:
512,144,134157,6,0,L|432:152,1,70.000000667572,2|0,1:0|0:0,0:0:0:0:
376,180,134267,2,0,L|456:188,1,70.000000667572,2|0,1:0|0:0,0:0:0:0:
509,215,134376,6,0,B|476:220|476:220|463:254,1,70.000000667572,2|0,1:0|0:0,0:0:0:0:
396,284,134486,2,0,B|429:289|429:289|442:323,1,70.000000667572,2|0,1:0|0:0,0:0:0:0:
172,112,135500,5,4,1:2:0:0:
0,144,135625,1,4,1:2:0:0:
172,112,135750,1,0,1:0:0:0:
72,56,135875,5,0,3:0:0:0:
72,56,135937,2,0,L|80:104,1,40,0|0,1:0|3:0,0:0:0:0:
90,161,136062,2,0,L|98:209,1,40,0|0,1:0|1:0,0:0:0:0:
176,192,136250,5,0,1:0:0:0:
20,220,136375,1,0,1:0:0:0:
160,312,136500,2,0,L|116:300,1,40,0|0,1:0|3:0,0:0:0:0:
8,274,136625,5,0,1:0:0:0:
2,245,136687,1,0,3:0:0:0:
20,220,136750,2,0,L|65:225,1,40,0|0,3:0|3:0,0:0:0:0:
80,356,136875,5,0,1:0:0:0:
108,172,137000,1,0,1:0:0:0:
108,172,137062,1,0,3:0:0:0:
108,172,137125,1,0,1:0:0:0:
248,296,137250,5,4,1:2:0:0:
280,124,137375,1,4,1:2:0:0:
248,296,137500,1,0,1:0:0:0:
192,196,137625,5,0,3:0:0:0:
192,196,137687,2,0,L|240:204,1,40,0|0,1:0|3:0,0:0:0:0:
297,214,137812,2,0,L|345:222,1,40,0|0,1:0|1:0,0:0:0:0:
328,300,138000,5,0,1:0:0:0:
356,144,138125,1,0,1:0:0:0:
448,284,138250,2,0,L|436:240,1,40,0|0,1:0|3:0,0:0:0:0:
410,132,138375,5,0,1:0:0:0:
381,126,138437,1,0,3:0:0:0:
356,144,138500,2,0,L|361:189,1,40,0|0,3:0|3:0,0:0:0:0:
492,204,138625,5,0,1:0:0:0:
308,232,138750,1,0,1:0:0:0:
308,232,138812,1,0,3:0:0:0:
308,232,138875,1,0,1:0:0:0:
308,232,138937,1,0,0:0:0:0:
336,220,139000,6,0,L|297:214,1,40,4|0,1:2|2:0,0:0:0:0:
212,204,139120,2,0,L|168:224,1,40,4|0,1:2|3:0,0:0:0:0:
116,280,139240,2,0,L|86:329,1,40,4|0,1:2|3:0,0:0:0:0:
40,212,139360,6,0,P|36:188|28:164,1,40,0|0,1:0|3:0,0:0:0:0:
84,112,139480,2,0,P|88:136|96:160,1,40,0|0,1:0|3:0,0:0:0:0:
16,108,139600,1,0,1:0:0:0:
108,216,139720,1,0,1:0:0:0:
68,48,139840,5,0,1:0:0:0:
204,140,139960,2,0,L|248:128,1,40,0|0,1:0|3:0,0:0:0:0:
356,102,140080,5,0,1:0:0:0:
362,73,140140,1,0,3:0:0:0:
344,48,140200,2,0,L|299:53,1,40,0|0,3:0|3:0,0:0:0:0:
288,184,140320,5,0,1:0:0:0:
260,16,140440,1,0,1:0:0:0:
260,16,140500,1,0,3:0:0:0:
260,16,140560,2,0,L|272:64,1,30.0000011444092,0|0,3:0|3:0,0:0:0:0:
292,48,140680,6,0,L|298:87,1,40,4|0,1:2|2:0,0:0:0:0:
308,172,140800,2,0,L|288:216,1,40,4|0,1:2|3:0,0:0:0:0:
232,268,140920,2,0,L|183:298,1,40,4|0,1:2|3:0,0:0:0:0:
300,344,141040,6,0,P|324:348|348:356,1,40,0|0,1:0|3:0,0:0:0:0:
400,300,141160,2,0,P|376:296|352:288,1,40,0|0,1:0|3:0,0:0:0:0:
404,368,141280,1,0,1:0:0:0:
296,276,141400,1,0,1:0:0:0:
464,316,141520,5,0,1:0:0:0:
372,180,141640,2,0,L|384:136,1,40,0|0,1:0|3:0,0:0:0:0:
410,28,141760,5,0,1:0:0:0:
439,22,141820,1,0,3:0:0:0:
464,40,141880,2,0,L|459:85,1,40,0|0,3:0|3:0,0:0:0:0:
328,100,142000,5,0,1:0:0:0:
512,128,142120,1,0,1:0:0:0:
512,128,142180,1,0,3:0:0:0:
512,128,142240,2,0,L|476:124,1,30.0000011444092,0|0,3:0|3:0,0:0:0:0:
368,44,142360,5,4,1:2:0:0:
392,128,142471,1,2,1:1:0:0:
416,212,142582,1,0,1:0:0:0:
252,144,142693,5,4,1:2:0:0:
300,312,142804,2,0,L|312:356,2,40,2|0|0,3:1|3:1|3:0,0:0:0:0:
416,212,143026,5,4,1:2:0:0:
332,188,143137,1,2,1:1:0:0:
248,164,143248,1,0,1:0:0:0:
316,328,143359,5,4,1:2:0:0:
148,280,143470,2,0,L|104:268,2,40,2|0|0,3:1|3:0|3:0,0:0:0:0:
336,348,143693,1,4,1:2:0:0:
336,208,143804,1,2,1:1:0:0:
200,340,143915,5,4,1:2:0:0:
283,315,144020,1,2,1:1:0:0:
367,291,144125,1,0,1:0:0:0:
223,188,144230,5,4,1:2:0:0:
391,140,144336,2,0,L|434:126,2,40,2|0|0,3:1|3:0|3:0,0:0:0:0:
367,291,144546,5,4,1:2:0:0:
303,233,144651,1,2,1:1:0:0:
238,174,144757,1,0,1:0:0:0:
413,145,144862,5,4,1:2:0:0:
283,28,144967,2,0,L|249:-2,2,40,2|0|0,3:1|3:0|3:0,0:0:0:0:
223,188,145178,2,0,L|180:202,1,40,4|0,1:2|1:0,0:0:0:0:
163,208,145283,2,0,L|120:222,1,40,0|0,1:0|1:0,0:0:0:0:
103,228,145388,6,0,B|76:197|76:197|78:177|78:177|108:151,2,100,4|2|0,1:2|1:1|1:0,0:0:0:0:
159,336,145688,1,4,1:2:0:0:
55,272,145788,2,0,L|22:235,1,50,2|0,1:1|1:0,0:0:0:0:
12,168,145888,1,0,1:0:0:0:
176,136,145988,5,4,1:2:0:0:
253,42,146088,1,2,1:1:0:0:
136,8,146188,2,0,B|106:34|106:34|104:54|104:54|131:85,1,100,0|4,1:0|1:2,0:0:0:0:
280,108,146388,2,0,L|317:75,1,50,2|0,1:1|1:0,0:0:0:0:
312,12,146488,1,0,1:0:0:0:
240,164,146588,2,0,B|283:190|283:190|295:238,1,100,4|2,1:2|1:1,0:0:0:0:
471,206,146788,5,4,1:2:0:0:
383,222,146883,1,2,1:1:0:0:
295,238,146978,1,0,1:2:0:0:
396,288,147073,1,4,1:2:0:0:
372,156,147168,2,0,L|364:108,2,40,2|0|0,1:1|1:0|1:0,0:0:0:0:
168,228,147359,5,4,1:2:0:0:
188,122,147454,1,2,1:1:0:0:
207,16,147549,1,0,1:2:0:0:
267,138,147644,1,4,1:2:0:0:
108,109,147739,2,0,L|50:99,2,40,2|0|0,1:1|1:0|1:0,0:0:0:0:
276,56,147930,5,4,1:2:0:0:
96,188,148026,1,2,1:1:0:0:
288,92,148121,6,0,B|324:96|344:128|344:128|324:72|256:64|256:64|228:48|224:4|256:4|256:4|288:4|284:48|256:64|256:64|188:72|168:128|168:128|188:96|256:92|256:128|256:128|284:164|240:168|220:124|280:128|244:172|244:172|176:180|116:220|116:360|200:384|256:384|256:384|312:384|396:360|396:220|336:180|268:172|268:172|256:196|248:248|200:232|200:288|248:272|256:296|256:296|264:272|312:288|312:232|260:248|256:180,1,1612.40004920654,4|0,0:0|0:0,0:0:0:0:
