osu file format v14

[General]
AudioFilename: audio.mp3
AudioLeadIn: 1000
PreviewTime: 92549
Countdown: 0
SampleSet: Soft
StackLeniency: 0.7
Mode: 3
LetterboxInBreaks: 0
EpilepsyWarning: 1
SpecialStyle: 0
WidescreenStoryboard: 1

[Editor]
DistanceSpacing: 1
BeatDivisor: 2
GridSize: 4
TimelineZoom: 0.7500018

[Metadata]
Title:Apollo
TitleUnicode:Apollo
Artist:TJ.hangneil
ArtistUnicode:TJ.hangneil
Creator:Ryu Sei
Version:Basic
Source:オンゲキ R.E.D. PLUS
Tags:ongeki red+ r.e.d.+ video game electronic instrumental sasakure.UK artcore multiple BPM speedup O.N.G.E.K.I. 音撃 皇城セツナ 皇城 刹那 スメラギ セツナ Sumeragi Setsuna チャプター Chapter 6
BeatmapID:3241754
BeatmapSetID:1587252

[Difficulty]
HPDrainRate:6.5
CircleSize:4
OverallDifficulty:6.5
ApproachRate:5
SliderMultiplier:1.4
SliderTickRate:1

[Events]
//Background and Video events
0,0,"Apollo TJ.hangneil.webm_snapshot_00.01.960.png",0,0
Video,30,"Apollo Tj.Hangneil-1.m4v"
//Break Periods
//Storyboard Layer 0 (Background)
//Storyboard Layer 1 (Fail)
//Storyboard Layer 2 (Pass)
//Storyboard Layer 3 (Foreground)
//Storyboard Layer 4 (Overlay)
//Storyboard Sound Samples
Sample,7891,0,"finish.wav",70
Sample,14898,0,"finish.wav",70
Sample,21139,0,"clap.wav",70
Sample,21358,0,"clap.wav",70
Sample,21577,0,"clap.wav",70
Sample,21796,0,"clap.wav",70
Sample,28913,0,"finish2.wav",70
Sample,28913,0,"whistle2.wav",70
Sample,29570,0,"whistle2.wav",70
Sample,30227,0,"whistle2.wav",70
Sample,30883,0,"whistle2.wav",70
Sample,31540,0,"whistle2.wav",70
Sample,32197,0,"whistle2.wav",70
Sample,32854,0,"whistle2.wav",70
Sample,33511,0,"whistle2.wav",70
Sample,34168,0,"whistle2.wav",70
Sample,34825,0,"whistle2.wav",70
Sample,35154,0,"clap.wav",70
Sample,35373,0,"clap.wav",70
Sample,35592,0,"clap.wav",70
Sample,35811,0,"clap.wav",70
Sample,35920,0,"clap.wav",70
Sample,36248,0,"finish.wav",70
Sample,36577,0,"clap.wav",70
Sample,36905,0,"clap.wav",70
Sample,37124,0,"clap.wav",70
Sample,37343,0,"clap.wav",70
Sample,37562,0,"clap.wav",70
Sample,37672,0,"finish.wav",70
Sample,38000,0,"finish.wav",70
Sample,38329,0,"finish.wav",70
Sample,38657,0,"clap.wav",70
Sample,38876,0,"clap.wav",70
Sample,39095,0,"clap.wav",70
Sample,39314,0,"clap.wav",70
Sample,39424,0,"finish.wav",70
Sample,39752,0,"clap.wav",70
Sample,40081,0,"clap.wav",70
Sample,40409,0,"clap.wav",70
Sample,40628,0,"clap.wav",70
Sample,40847,0,"clap.wav",70
Sample,41066,0,"clap.wav",70
Sample,41175,0,"finish.wav",70
Sample,41504,0,"finish.wav",70
Sample,41832,0,"finish.wav",70
Sample,42161,0,"clap.wav",70
Sample,42380,0,"clap.wav",70
Sample,42599,0,"clap.wav",70
Sample,42818,0,"clap.wav",70
Sample,42927,0,"finish.wav",70
Sample,43256,0,"clap.wav",70
Sample,43584,0,"finish.wav",70
Sample,43913,0,"clap.wav",70
Sample,44132,0,"clap.wav",70
Sample,44351,0,"clap.wav",70
Sample,44570,0,"clap.wav",70
Sample,44679,0,"finish.wav",70
Sample,45008,0,"finish.wav",70
Sample,45336,0,"finish.wav",70
Sample,45665,0,"clap.wav",70
Sample,45883,0,"clap.wav",70
Sample,46102,0,"clap.wav",70
Sample,46321,0,"clap.wav",70
Sample,46540,0,"clap.wav",70
Sample,46759,0,"clap.wav",70
Sample,46978,0,"clap.wav",70
Sample,47197,0,"clap.wav",70
Sample,47416,0,"clap.wav",70
Sample,47635,0,"clap.wav",70
Sample,47854,0,"clap.wav",70
Sample,48073,0,"clap.wav",70
Sample,48292,0,"clap.wav",70
Sample,48511,0,"clap.wav",70
Sample,48730,0,"clap.wav",70
Sample,48949,0,"clap.wav",70
Sample,49168,0,"clap.wav",70
Sample,49387,0,"clap.wav",70
Sample,49606,0,"clap.wav",70
Sample,49825,0,"clap.wav",70
Sample,85542,0,"finish.wav",70
Sample,85542,0,"clap.wav",70
Sample,85870,0,"whistle.wav",70
Sample,85870,0,"clap.wav",70
Sample,86199,0,"clap.wav",70
Sample,86418,0,"finish.wav",70
Sample,86418,0,"clap.wav",70
Sample,86746,0,"whistle.wav",70
Sample,86746,0,"clap.wav",70
Sample,87075,0,"clap.wav",70
Sample,87294,0,"clap.wav",70
Sample,87294,0,"finish.wav",70
Sample,87622,0,"clap.wav",70
Sample,87622,0,"whistle.wav",70
Sample,87951,0,"clap.wav",70
Sample,88170,0,"finish.wav",70
Sample,88170,0,"clap.wav",70
Sample,88498,0,"clap.wav",70
Sample,88826,0,"clap.wav",70
Sample,89155,0,"clap.wav",70
Sample,89374,0,"clap.wav",70
Sample,89593,0,"clap.wav",70
Sample,89812,0,"clap.wav",70
Sample,90031,0,"clap.wav",70
Sample,90250,0,"clap.wav",70
Sample,90469,0,"clap.wav",70
Sample,90688,0,"clap.wav",70
Sample,92549,0,"whistle.wav",70
Sample,92768,0,"clap.wav",70
Sample,92987,0,"whistle.wav",70
Sample,93206,0,"clap.wav",70
Sample,93425,0,"whistle.wav",70
Sample,93644,0,"clap.wav",70
Sample,93863,0,"whistle.wav",70
Sample,94082,0,"clap.wav",70
Sample,94301,0,"whistle.wav",70
Sample,94520,0,"clap.wav",70
Sample,94739,0,"whistle.wav",70
Sample,94958,0,"clap.wav",70
Sample,95177,0,"whistle.wav",70
Sample,95396,0,"clap.wav",70
Sample,95615,0,"whistle.wav",70
Sample,95834,0,"clap.wav",70
Sample,96053,0,"whistle.wav",70
Sample,96272,0,"clap.wav",70
Sample,96491,0,"whistle.wav",70
Sample,96710,0,"clap.wav",70
Sample,96929,0,"whistle.wav",70
Sample,97148,0,"clap.wav",70
Sample,97367,0,"whistle.wav",70
Sample,97586,0,"clap.wav",70
Sample,97805,0,"whistle.wav",70
Sample,98024,0,"clap.wav",70
Sample,98243,0,"whistle.wav",70
Sample,98462,0,"clap.wav",70
Sample,98680,0,"whistle.wav",70
Sample,98899,0,"clap.wav",70
Sample,99118,0,"whistle.wav",70
Sample,99337,0,"clap.wav",70
Sample,99556,0,"whistle.wav",70
Sample,99775,0,"clap.wav",70
Sample,99994,0,"whistle.wav",70
Sample,100213,0,"clap.wav",70
Sample,100432,0,"whistle.wav",70
Sample,100651,0,"clap.wav",70
Sample,100870,0,"whistle.wav",70
Sample,101089,0,"clap.wav",70
Sample,101308,0,"whistle.wav",70
Sample,101527,0,"clap.wav",70
Sample,101746,0,"whistle.wav",70
Sample,101965,0,"clap.wav",70
Sample,102184,0,"whistle.wav",70
Sample,102403,0,"clap.wav",70
Sample,102622,0,"whistle.wav",70
Sample,102841,0,"clap.wav",70
Sample,103060,0,"whistle.wav",70
Sample,103279,0,"clap.wav",70
Sample,103498,0,"whistle.wav",70
Sample,103717,0,"clap.wav",70
Sample,103936,0,"whistle.wav",70
Sample,104155,0,"clap.wav",70
Sample,104374,0,"whistle.wav",70
Sample,104593,0,"clap.wav",70
Sample,104812,0,"whistle.wav",70
Sample,105031,0,"clap.wav",70
Sample,105250,0,"whistle.wav",70
Sample,105469,0,"clap.wav",70
Sample,105688,0,"clap.wav",70
Sample,105797,0,"clap.wav",70
Sample,105907,0,"clap.wav",70
Sample,106016,0,"clap.wav",70
Sample,106126,0,"clap.wav",70
Sample,106235,0,"clap.wav",70
Sample,106345,0,"clap.wav",70
Sample,106454,0,"clap.wav",70
Sample,106564,0,"finish.wav",70
Sample,106564,0,"clap.wav",70
Sample,106892,0,"finish.wav",70
Sample,107002,0,"whistle.wav",70
Sample,107221,0,"clap.wav",70
Sample,107221,0,"finish.wav",70
Sample,107659,0,"clap.wav",70
Sample,107987,0,"clap.wav",70
Sample,108206,0,"clap.wav",70
Sample,108316,0,"finish.wav",70
Sample,108316,0,"clap.wav",70
Sample,108644,0,"finish.wav",70
Sample,108972,0,"clap.wav",70
Sample,108972,0,"finish.wav",70
Sample,109520,0,"clap.wav",70
Sample,109739,0,"clap.wav",70
Sample,110067,0,"finish.wav",70
Sample,110067,0,"clap.wav",70
Sample,110396,0,"finish.wav",70
Sample,110505,0,"whistle.wav",70
Sample,110724,0,"clap.wav",70
Sample,110724,0,"finish.wav",70
Sample,111162,0,"clap.wav",70
Sample,111491,0,"clap.wav",70
Sample,111710,0,"clap.wav",70
Sample,111819,0,"clap.wav",70
Sample,111819,0,"finish.wav",70
Sample,112148,0,"clap.wav",70
Sample,112148,0,"finish.wav",70
Sample,112476,0,"clap.wav",70
Sample,112476,0,"finish.wav",70
Sample,112805,0,"clap.wav",70
Sample,113243,0,"clap.wav",70
Sample,113462,0,"clap.wav",70
Sample,113571,0,"finish.wav",70
Sample,113571,0,"clap.wav",70
Sample,113899,0,"finish.wav",70
Sample,114009,0,"whistle.wav",70
Sample,114228,0,"clap.wav",70
Sample,114228,0,"finish.wav",70
Sample,114666,0,"clap.wav",70
Sample,114994,0,"clap.wav",70
Sample,115213,0,"clap.wav",70
Sample,115323,0,"clap.wav",70
Sample,115323,0,"finish.wav",70
Sample,115651,0,"finish.wav",70
Sample,115980,0,"finish.wav",70
Sample,115980,0,"clap.wav",70
Sample,116527,0,"clap.wav",70
Sample,116746,0,"clap.wav",70
Sample,117075,0,"finish.wav",70
Sample,117075,0,"clap.wav",70
Sample,117403,0,"finish.wav",70
Sample,117513,0,"whistle.wav",70
Sample,117732,0,"finish.wav",70
Sample,117732,0,"clap.wav",70
Sample,118170,0,"clap.wav",70
Sample,118498,0,"clap.wav",70
Sample,118717,0,"clap.wav",70
Sample,118826,0,"finish.wav",70
Sample,119155,0,"clap.wav",70
Sample,119264,0,"clap.wav",70
Sample,119483,0,"finish.wav",70
Sample,119593,0,"clap.wav",70
Sample,119812,0,"clap.wav",70
Sample,119921,0,"clap.wav",70
Sample,120140,0,"finish.wav",70
Sample,120250,0,"clap.wav",70
Sample,120469,0,"clap.wav",70
Sample,120578,0,"finish.wav",70
Sample,120797,0,"clap.wav",70
Sample,121016,0,"whistle.wav",70
Sample,121454,0,"whistle.wav",70
Sample,121673,0,"clap.wav",70
Sample,122549,0,"clap.wav",70
Sample,122768,0,"whistle.wav",70
Sample,123316,0,"whistle.wav",70
Sample,126053,0,"clap.wav",70
Sample,126272,0,"whistle.wav",70
Sample,126710,0,"whistle.wav",70
Sample,126929,0,"clap.wav",70
Sample,127914,0,"finish.wav",70
Sample,128024,0,"whistle.wav",70
Sample,128243,0,"finish.wav",70
Sample,128680,0,"whistle.wav",70
Sample,128790,0,"whistle.wav",70
Sample,129009,0,"whistle.wav",70
Sample,129118,0,"whistle.wav",70
Sample,129228,0,"whistle.wav",70
Sample,129666,0,"finish.wav",70
Sample,129775,0,"whistle.wav",70
Sample,129994,0,"finish.wav",70
Sample,130432,0,"whistle.wav",70
Sample,130542,0,"whistle.wav",70
Sample,130761,0,"whistle.wav",70
Sample,130870,0,"whistle.wav",70
Sample,130980,0,"whistle.wav",70
Sample,131199,0,"clap.wav",70
Sample,131527,0,"clap.wav",70
Sample,131856,0,"clap.wav",70
Sample,132184,0,"clap.wav",70
Sample,132294,0,"clap.wav",70
Sample,132513,0,"clap.wav",70
Sample,132622,0,"clap.wav",70
Sample,132732,0,"clap.wav",70
Sample,132951,0,"clap.wav",70
Sample,133279,0,"clap.wav",70
Sample,133607,0,"clap.wav",70
Sample,133936,0,"clap.wav",70
Sample,134045,0,"clap.wav",70
Sample,134264,0,"clap.wav",70
Sample,134374,0,"clap.wav",70
Sample,134483,0,"clap.wav",70
Sample,143464,0,"clap.wav",70
Sample,143797,0,"clap.wav",70
Sample,144960,0,"clap.wav",70
Sample,145276,0,"clap.wav",70
Sample,145481,0,"clap.wav",70
Sample,145881,0,"clap.wav",70
Sample,146481,0,"clap.wav",70
Sample,146876,0,"clap.wav",70
Sample,147257,0,"clap.wav",70
Sample,147828,0,"clap.wav",70

[TimingPoints]
884,218.978102189781,4,2,2,71,1,0
7891,-100,4,2,1,71,0,0
21905,-100,4,2,1,71,0,1
35920,-100,4,2,1,71,0,0
49935,285.714285714286,7,2,1,71,1,0
49935,-76.6423357641856,7,2,1,71,0,0
65935,272.727272727273,7,2,1,71,1,0
65935,-80.2919707999893,7,2,1,71,0,0
69753,260.869565217392,7,2,1,71,1,0
69753,-83.9416058412542,7,2,1,71,0,0
71579,250,7,2,1,71,1,0
71579,-87.591240873355,7,2,1,71,0,0
73329,240,7,2,1,71,1,0
73329,-91.2408759124088,7,2,1,71,0,0
76689,230.769230769231,4,2,1,71,1,0
76689,-94.8905109530609,4,2,1,71,0,0
78535,218.978102189781,4,2,2,71,1,0
85542,-100,4,2,1,71,0,0
92549,-100,4,2,1,71,0,1
106345,-100,4,2,1,71,0,0
106564,-100,4,2,1,71,0,1
120359,-100,4,2,1,71,0,0
120578,-100,4,2,1,71,0,1
134593,300,3,2,1,71,1,0
134593,-72.992700729927,3,2,1,71,0,0
135493,250,7,2,1,71,1,0
135493,-87.591240873355,7,2,1,71,0,0
138993,240,7,2,1,71,1,0
138993,-91.2408759124088,7,2,1,71,0,0
142353,222.222222222222,7,2,1,71,1,0
142353,-98.54014598684,7,2,1,71,0,0
143908,210.526315789474,7,2,1,71,1,0
143908,-104.014598537109,7,2,1,71,0,0
145381,200,7,2,1,71,1,0
145381,-109.489051098886,7,2,1,71,0,0
146781,190.47619047619,7,2,1,71,1,0
146781,-114.96350365509,7,2,1,71,0,0
148114,176.991150442478,7,2,1,71,1,0
148114,-123.722627740387,7,2,1,71,0,1
154308,-123.722627740387,7,2,1,71,0,0

[HitObjects]
64,192,884,128,0,1102:0:0:0:0:
448,192,1102,1,0,0:0:0:0:
192,192,1321,128,0,1540:0:0:0:0:
448,192,1540,1,0,0:0:0:0:
320,192,1759,128,0,2197:0:0:0:0:
448,192,2197,128,0,2635:0:0:0:0:
192,192,2635,128,0,2854:0:0:0:0:
320,192,2854,128,0,3073:0:0:0:0:
448,192,3073,1,0,0:0:0:0:
64,192,3292,1,0,0:0:0:0:
192,192,3511,128,0,3730:0:0:0:0:
448,192,3730,1,0,0:0:0:0:
64,192,3840,1,0,0:0:0:0:
192,192,3949,1,0,0:0:0:0:
320,192,4168,1,0,0:0:0:0:
448,192,4387,128,0,4606:0:0:0:0:
64,192,4606,1,0,0:0:0:0:
320,192,4825,128,0,5044:0:0:0:0:
64,192,5044,1,0,0:0:0:0:
192,192,5263,128,0,5701:0:0:0:0:
64,192,5701,128,0,6139:0:0:0:0:
320,192,6139,128,0,6358:0:0:0:0:
192,192,6358,128,0,6577:0:0:0:0:
64,192,6577,1,0,0:0:0:0:
448,192,6796,1,0,0:0:0:0:
320,192,7015,128,0,7234:0:0:0:0:
64,192,7234,1,0,0:0:0:0:
448,192,7343,1,0,0:0:0:0:
320,192,7453,1,0,0:0:0:0:
192,192,7672,1,0,0:0:0:0:
64,192,7891,128,0,8110:0:0:0:70:whistle.wav
448,192,8110,1,0,0:0:0:70:clap.wav
320,192,8329,128,0,8548:0:0:0:70:whistle.wav
448,192,8548,1,0,0:0:0:70:clap.wav
192,192,8767,128,0,8986:0:0:0:70:whistle.wav
320,192,8986,1,0,0:0:0:70:clap.wav
448,192,9205,128,0,9424:0:0:0:70:whistle.wav
192,192,9424,1,0,0:0:0:70:clap.wav
320,192,9643,128,0,9862:0:0:0:70:whistle.wav
192,192,9862,128,0,10081:0:0:0:70:clap.wav
448,192,10081,1,0,0:0:0:70:whistle.wav
64,192,10300,1,0,0:0:0:70:clap.wav
320,192,10519,128,0,10738:0:0:0:70:whistle.wav
448,192,10738,1,0,0:0:0:70:clap.wav
64,192,10847,1,0,0:0:0:0:
320,192,10956,1,0,0:0:0:70:whistle.wav
192,192,11175,1,0,0:0:0:70:clap.wav
448,192,11394,128,0,11613:0:0:0:70:whistle.wav
64,192,11613,1,0,0:0:0:70:clap.wav
192,192,11832,128,0,12051:0:0:0:70:whistle.wav
64,192,12051,1,0,0:0:0:70:clap.wav
320,192,12270,128,0,12489:0:0:0:70:whistle.wav
192,192,12489,1,0,0:0:0:70:clap.wav
64,192,12708,128,0,12927:0:0:0:70:whistle.wav
320,192,12927,1,0,0:0:0:70:clap.wav
192,192,13146,128,0,13365:0:0:0:70:whistle.wav
320,192,13365,128,0,13584:0:0:0:70:clap.wav
64,192,13584,1,0,0:0:0:70:whistle.wav
448,192,13803,1,0,0:0:0:70:clap.wav
192,192,14022,128,0,14241:0:0:0:70:whistle.wav
64,192,14241,1,0,0:0:0:70:clap.wav
448,192,14351,1,0,0:0:0:0:
192,192,14460,1,0,0:0:0:70:whistle.wav
320,192,14679,1,0,0:0:0:70:clap.wav
192,192,14898,128,0,15117:0:0:0:70:whistle.wav
320,192,15117,1,0,0:0:0:70:clap.wav
448,192,15336,128,0,15555:0:0:0:70:whistle.wav
320,192,15555,1,0,0:0:0:70:clap.wav
64,192,15774,128,0,15993:0:0:0:70:whistle.wav
448,192,15993,1,0,0:0:0:70:clap.wav
320,192,16212,128,0,16431:0:0:0:70:whistle.wav
64,192,16431,1,0,0:0:0:70:clap.wav
448,192,16650,128,0,16869:0:0:0:70:whistle.wav
64,192,16869,128,0,17088:0:0:0:70:clap.wav
320,192,17088,1,0,0:0:0:70:whistle.wav
192,192,17307,1,0,0:0:0:70:clap.wav
448,192,17526,128,0,17745:0:0:0:70:whistle.wav
320,192,17745,1,0,0:0:0:70:clap.wav
192,192,17854,1,0,0:0:0:0:
448,192,17964,1,0,0:0:0:70:whistle.wav
64,192,18183,1,0,0:0:0:70:clap.wav
320,192,18402,128,0,18621:0:0:0:70:whistle.wav
192,192,18621,1,0,0:0:0:70:clap.wav
64,192,18840,128,0,19059:0:0:0:70:whistle.wav
192,192,19059,1,0,0:0:0:70:clap.wav
448,192,19278,128,0,19497:0:0:0:70:whistle.wav
64,192,19497,1,0,0:0:0:70:clap.wav
192,192,19716,128,0,19935:0:0:0:70:whistle.wav
448,192,19935,1,0,0:0:0:70:clap.wav
64,192,20154,128,0,20373:0:0:0:70:whistle.wav
448,192,20373,128,0,20592:0:0:0:70:clap.wav
64,192,20592,1,0,0:0:0:70:whistle.wav
448,192,20811,1,0,0:0:0:70:clap.wav
192,192,21029,1,0,0:0:0:70:clap.wav
192,192,21248,1,0,0:0:0:70:clap.wav
320,192,21467,1,0,0:0:0:70:clap.wav
320,192,21686,1,0,0:0:0:70:clap.wav
64,192,21905,1,0,0:0:0:70:whistle2.wav
448,192,21905,128,0,23657:0:0:0:70:finish2.wav
192,192,22562,1,0,0:0:0:70:whistle2.wav
64,192,23219,1,0,0:0:0:70:whistle2.wav
192,192,23657,128,0,25409:0:0:0:0:
320,192,23876,1,0,0:0:0:70:whistle2.wav
64,192,24533,1,0,0:0:0:70:whistle2.wav
448,192,25190,1,0,0:0:0:70:whistle2.wav
320,192,25409,128,0,27161:0:0:0:0:
64,192,25847,1,0,0:0:0:70:whistle2.wav
192,192,26504,1,0,0:0:0:70:whistle2.wav
64,192,27161,128,0,28913:0:0:0:0:
448,192,27161,1,0,0:0:0:70:whistle2.wav
320,192,27818,1,0,0:0:0:70:whistle2.wav
448,192,28475,1,0,0:0:0:70:whistle2.wav
192,192,28913,1,0,0:0:0:70:whistle.wav
448,192,29132,1,0,0:0:0:70:clap.wav
192,192,29460,1,0,0:0:0:70:clap.wav
320,192,29789,1,0,0:0:0:70:whistle.wav
64,192,30117,1,0,0:0:0:70:whistle.wav
192,192,30446,1,0,0:0:0:70:clap.wav
448,192,30665,1,0,0:0:0:70:whistle.wav
320,192,30883,1,0,0:0:0:70:clap.wav
64,192,31102,1,0,0:0:0:70:whistle.wav
448,192,31321,1,0,0:0:0:70:whistle.wav
192,192,31540,1,0,0:0:0:70:whistle.wav
64,192,31759,1,0,0:0:0:70:clap.wav
320,192,31978,1,0,0:0:0:70:whistle.wav
192,192,32197,1,0,0:0:0:70:clap.wav
320,192,32416,1,0,0:0:0:70:whistle.wav
64,192,32635,1,0,0:0:0:70:clap.wav
320,192,32964,1,0,0:0:0:70:clap.wav
192,192,33292,1,0,0:0:0:70:whistle.wav
448,192,33621,1,0,0:0:0:70:whistle.wav
320,192,33949,1,0,0:0:0:70:clap.wav
64,192,34168,1,0,0:0:0:70:whistle.wav
192,192,34387,1,0,0:0:0:70:clap.wav
448,192,34606,1,0,0:0:0:70:whistle.wav
64,192,34825,1,0,0:0:0:70:whistle.wav
448,192,35044,1,0,0:0:0:70:clap.wav
192,192,35263,1,0,0:0:0:70:clap.wav
448,192,35482,1,0,0:0:0:70:clap.wav
192,192,35701,1,0,0:0:0:70:clap.wav
64,192,35920,1,0,0:0:0:70:finish.wav
320,192,36248,1,0,0:0:0:70:clap.wav
64,192,36577,1,0,0:0:0:70:finish.wav
448,192,36796,1,0,0:0:0:70:clap.wav
320,192,37015,1,0,0:0:0:70:clap.wav
64,192,37234,1,0,0:0:0:70:clap.wav
192,192,37453,1,0,0:0:0:70:clap.wav
448,192,37672,1,0,0:0:0:70:clap.wav
192,192,38000,1,0,0:0:0:70:clap.wav
448,192,38329,1,0,0:0:0:70:clap.wav
64,192,38548,1,0,0:0:0:70:clap.wav
192,192,38767,1,0,0:0:0:70:clap.wav
448,192,38986,1,0,0:0:0:70:clap.wav
320,192,39205,1,0,0:0:0:70:clap.wav
64,192,39424,1,0,0:0:0:70:clap.wav
448,192,39752,1,0,0:0:0:70:finish.wav
64,192,40081,1,0,0:0:0:70:finish.wav
448,192,40300,1,0,0:0:0:70:clap.wav
320,192,40519,1,0,0:0:0:70:clap.wav
64,192,40738,1,0,0:0:0:70:clap.wav
192,192,40956,1,0,0:0:0:70:clap.wav
448,192,41175,1,0,0:0:0:70:clap.wav
64,192,41504,1,0,0:0:0:70:clap.wav
448,192,41832,1,0,0:0:0:70:clap.wav
64,192,42051,1,0,0:0:0:70:clap.wav
192,192,42270,1,0,0:0:0:70:clap.wav
448,192,42489,1,0,0:0:0:70:clap.wav
320,192,42708,1,0,0:0:0:70:clap.wav
448,192,42927,1,0,0:0:0:70:clap.wav
192,192,43256,1,0,0:0:0:70:finish.wav
448,192,43584,1,0,0:0:0:70:clap.wav
64,192,43803,1,0,0:0:0:70:clap.wav
192,192,44022,1,0,0:0:0:70:clap.wav
448,192,44241,1,0,0:0:0:70:clap.wav
320,192,44460,1,0,0:0:0:70:clap.wav
64,192,44679,1,0,0:0:0:70:clap.wav
320,192,45008,1,0,0:0:0:70:clap.wav
64,192,45336,1,0,0:0:0:70:clap.wav
448,192,45555,1,0,0:0:0:70:clap.wav
320,192,45774,1,0,0:0:0:70:clap.wav
64,192,45993,1,0,0:0:0:70:clap.wav
192,192,46212,1,0,0:0:0:70:clap.wav
448,192,46431,1,0,0:0:0:70:clap.wav
320,192,46650,1,0,0:0:0:70:clap.wav
192,192,46869,1,0,0:0:0:70:clap.wav
64,192,47088,1,0,0:0:0:70:clap.wav
448,192,47307,1,0,0:0:0:70:clap.wav
320,192,47526,1,0,0:0:0:70:clap.wav
192,192,47745,1,0,0:0:0:70:clap.wav
64,192,47964,1,0,0:0:0:70:clap.wav
192,192,48183,1,0,0:0:0:70:clap.wav
320,192,48402,1,0,0:0:0:70:clap.wav
448,192,48621,1,0,0:0:0:70:clap.wav
64,192,48840,1,0,0:0:0:70:clap.wav
192,192,49059,1,0,0:0:0:70:clap.wav
320,192,49278,1,0,0:0:0:70:clap.wav
448,192,49497,1,0,0:0:0:70:clap.wav
64,192,49716,1,0,0:0:0:70:clap.wav
448,192,53935,1,0,0:0:0:0:
192,192,54220,1,0,0:0:0:0:
64,192,54506,1,0,0:0:0:0:
320,192,54792,1,0,0:0:0:0:
448,192,55077,1,0,0:0:0:0:
192,192,55363,1,0,0:0:0:0:
64,192,55649,1,0,0:0:0:0:
448,192,55935,1,0,0:0:0:0:
192,192,56220,1,0,0:0:0:0:
64,192,56506,1,0,0:0:0:0:
448,192,56792,1,0,0:0:0:0:
192,192,57077,1,0,0:0:0:0:
320,192,57363,1,0,0:0:0:0:
64,192,57649,1,0,0:0:0:0:
192,192,57935,1,0,0:0:0:70:finish.wav
448,192,57935,1,0,0:0:0:0:
64,192,58220,1,0,0:0:0:0:
320,192,58363,1,0,0:0:0:0:
192,192,58649,1,0,0:0:0:0:
448,192,58792,1,0,0:0:0:0:
64,192,59077,1,0,0:0:0:0:
320,192,59220,1,0,0:0:0:0:
448,192,59506,1,0,0:0:0:0:
192,192,59649,1,0,0:0:0:0:
64,192,59935,1,0,0:0:0:70:finish.wav
320,192,59935,1,0,0:0:0:0:
448,192,60220,1,0,0:0:0:0:
192,192,60363,1,0,0:0:0:0:
320,192,60649,1,0,0:0:0:0:
64,192,60792,1,0,0:0:0:0:
448,192,61077,1,0,0:0:0:0:
192,192,61220,1,0,0:0:0:0:
64,192,61506,1,0,0:0:0:0:
320,192,61649,1,0,0:0:0:0:
64,192,61935,1,0,0:0:0:70:finish.wav
192,192,61935,1,0,0:0:0:0:
448,192,62220,1,0,0:0:0:0:
320,192,62363,1,0,0:0:0:0:
192,192,62649,1,0,0:0:0:0:
64,192,62792,1,0,0:0:0:0:
448,192,63077,1,0,0:0:0:0:
320,192,63220,1,0,0:0:0:0:
64,192,63506,1,0,0:0:0:0:
192,192,63649,1,0,0:0:0:0:
320,192,63935,1,0,0:0:0:70:finish.wav
448,192,63935,1,0,0:0:0:0:
64,192,64220,1,0,0:0:0:0:
192,192,64363,1,0,0:0:0:0:
320,192,64649,1,0,0:0:0:0:
448,192,64792,1,0,0:0:0:0:
64,192,65077,1,0,0:0:0:0:
192,192,65220,1,0,0:0:0:0:
448,192,65506,1,0,0:0:0:0:
320,192,65649,1,0,0:0:0:0:
64,192,65935,1,0,0:0:0:70:finish.wav
448,192,65935,1,0,0:0:0:0:
192,192,66207,1,0,0:0:0:0:
320,192,66344,1,0,0:0:0:0:
64,192,66616,1,0,0:0:0:0:
448,192,66753,1,0,0:0:0:0:
192,192,67025,1,0,0:0:0:0:
320,192,67162,1,0,0:0:0:0:
64,192,67435,1,0,0:0:0:0:
448,192,67571,1,0,0:0:0:0:
192,192,67844,1,0,0:0:0:70:finish.wav
320,192,67844,1,0,0:0:0:0:
64,192,68116,1,0,0:0:0:0:
448,192,68253,1,0,0:0:0:0:
192,192,68525,1,0,0:0:0:0:
320,192,68662,1,0,0:0:0:0:
64,192,68935,1,0,0:0:0:0:
448,192,69071,1,0,0:0:0:0:
192,192,69344,1,0,0:0:0:0:
320,192,69480,1,0,0:0:0:0:
64,192,69753,1,0,0:0:0:70:finish.wav
448,192,69753,1,0,0:0:0:0:
320,192,70013,1,0,0:0:0:0:
64,192,70144,1,0,0:0:0:0:
448,192,70405,1,0,0:0:0:0:
192,192,70535,1,0,0:0:0:0:
320,192,70796,1,0,0:0:0:0:
64,192,70926,1,0,0:0:0:0:
448,192,71187,1,0,0:0:0:0:
192,192,71318,1,0,0:0:0:0:
64,192,71579,1,0,0:0:0:70:finish.wav
448,192,71579,1,0,0:0:0:0:
192,192,71829,1,0,0:0:0:0:
448,192,71954,1,0,0:0:0:0:
64,192,72204,1,0,0:0:0:0:
320,192,72329,1,0,0:0:0:0:
192,192,72579,1,0,0:0:0:0:
448,192,72704,1,0,0:0:0:0:
64,192,72954,1,0,0:0:0:0:
320,192,73079,1,0,0:0:0:0:
448,192,73329,128,0,76689:0:0:0:70:finish2.wav
64,192,75009,128,0,76689:0:0:0:0:
64,192,78535,1,0,0:0:0:0:
192,192,78972,1,0,0:0:0:0:
448,192,79410,1,0,0:0:0:0:
320,192,79848,1,0,0:0:0:0:
448,192,80286,1,0,0:0:0:0:
192,192,80724,1,0,0:0:0:0:
320,192,81162,1,0,0:0:0:0:
64,192,81600,1,0,0:0:0:0:
192,192,82038,1,0,0:0:0:0:
320,192,82476,1,0,0:0:0:0:
448,192,82914,1,0,0:0:0:0:
64,192,83352,1,0,0:0:0:0:
320,192,83790,1,0,0:0:0:0:
192,192,84228,1,0,0:0:0:0:
64,192,84666,1,0,0:0:0:0:
448,192,85104,1,0,0:0:0:0:
64,192,85542,128,0,85761:0:0:0:70:whistle.wav
448,192,85761,1,0,0:0:0:0:
192,192,85980,128,0,86199:0:0:0:0:
448,192,86199,1,0,0:0:0:70:whistle.wav
320,192,86418,128,0,86637:0:0:0:70:whistle.wav
192,192,86637,1,0,0:0:0:0:
448,192,86856,128,0,87075:0:0:0:0:
320,192,87075,1,0,0:0:0:70:whistle.wav
192,192,87294,128,0,87513:0:0:0:70:whistle.wav
320,192,87513,128,0,87732:0:0:0:0:
448,192,87732,1,0,0:0:0:0:
64,192,87951,1,0,0:0:0:70:whistle.wav
192,192,88170,128,0,88389:0:0:0:70:whistle.wav
448,192,88389,1,0,0:0:0:0:
64,192,88498,1,0,0:0:0:70:whistle.wav
192,192,88607,1,0,0:0:0:0:
320,192,88826,1,0,0:0:0:70:whistle.wav
448,192,89045,128,0,89264:0:0:0:70:clap.wav
64,192,89264,1,0,0:0:0:70:clap.wav
320,192,89483,128,0,89702:0:0:0:70:clap.wav
64,192,89702,1,0,0:0:0:70:clap.wav
192,192,89921,128,0,90140:0:0:0:70:clap.wav
320,192,90140,1,0,0:0:0:70:clap.wav
64,192,90359,128,0,90578:0:0:0:70:clap.wav
192,192,90578,1,0,0:0:0:70:clap.wav
320,192,90797,1,0,0:0:0:0:
192,192,91016,1,0,0:0:0:0:
64,192,91235,1,0,0:0:0:0:
448,192,91454,1,0,0:0:0:0:
192,192,91673,128,0,92549:0:0:0:0:
64,192,92549,128,0,92878:0:0:0:0:
448,192,92549,1,0,0:0:0:70:finish.wav
448,192,92878,128,0,93206:0:0:0:0:
192,192,93206,128,0,93425:0:0:0:0:
320,192,93425,128,0,93753:0:0:0:0:
64,192,93753,128,0,94082:0:0:0:0:
448,192,94082,128,0,94301:0:0:0:0:
64,192,94301,1,0,0:0:0:0:
192,192,94410,1,0,0:0:0:0:
448,192,94520,128,0,94848:0:0:0:0:
320,192,94848,128,0,95177:0:0:0:0:
192,192,95177,128,0,95505:0:0:0:0:
64,192,95505,128,0,95834:0:0:0:0:
448,192,95834,1,0,0:0:0:0:
448,192,96053,128,0,96381:0:0:0:0:
192,192,96381,128,0,96710:0:0:0:0:
320,192,96710,128,0,96929:0:0:0:0:
64,192,96929,128,0,97257:0:0:0:0:
192,192,97257,128,0,97586:0:0:0:0:
320,192,97586,128,0,97805:0:0:0:0:
448,192,97805,128,0,98133:0:0:0:0:
192,192,98133,128,0,98462:0:0:0:0:
320,192,98462,128,0,98680:0:0:0:0:
64,192,98680,128,0,99009:0:0:0:0:
192,192,99009,128,0,99337:0:0:0:0:
320,192,99337,128,0,99556:0:0:0:0:
64,192,99556,1,0,0:0:0:70:finish.wav
448,192,99556,128,0,99885:0:0:0:0:
64,192,99885,128,0,100213:0:0:0:0:
320,192,100213,128,0,100432:0:0:0:0:
192,192,100432,128,0,100761:0:0:0:0:
448,192,100761,128,0,101089:0:0:0:0:
64,192,101089,128,0,101308:0:0:0:0:
448,192,101308,1,0,0:0:0:0:
320,192,101418,1,0,0:0:0:0:
64,192,101527,128,0,101856:0:0:0:0:
192,192,101856,128,0,102184:0:0:0:0:
320,192,102184,128,0,102513:0:0:0:0:
448,192,102513,128,0,102841:0:0:0:0:
64,192,102841,1,0,0:0:0:0:
64,192,103060,128,0,103389:0:0:0:0:
320,192,103389,128,0,103717:0:0:0:0:
192,192,103717,128,0,103936:0:0:0:0:
448,192,103936,128,0,104264:0:0:0:0:
320,192,104264,128,0,104593:0:0:0:0:
192,192,104593,128,0,104812:0:0:0:0:
64,192,104812,128,0,105140:0:0:0:0:
320,192,105140,128,0,105469:0:0:0:0:
192,192,105469,128,0,105688:0:0:0:0:
448,192,105688,128,0,106016:0:0:0:0:
320,192,106016,128,0,106345:0:0:0:0:
192,192,106345,128,0,106564:0:0:0:0:
64,192,106564,1,0,0:0:0:70:whistle.wav
448,192,106783,1,0,0:0:0:70:whistle.wav
320,192,106892,1,0,0:0:0:70:clap.wav
64,192,107111,1,0,0:0:0:0:
192,192,107221,1,0,0:0:0:70:whistle.wav
448,192,107440,1,0,0:0:0:70:clap.wav
320,192,107549,1,0,0:0:0:70:clap.wav
64,192,107768,1,0,0:0:0:70:clap.wav
192,192,107878,1,0,0:0:0:70:clap.wav
320,192,108097,1,0,0:0:0:70:clap.wav
192,192,108316,1,0,0:0:0:70:whistle.wav
320,192,108535,1,0,0:0:0:70:whistle.wav
192,192,108644,1,0,0:0:0:70:clap.wav
64,192,108753,1,0,0:0:0:70:whistle.wav
320,192,108972,1,0,0:0:0:70:whistle.wav
192,192,109191,1,0,0:0:0:70:clap.wav
320,192,109301,1,0,0:0:0:70:clap.wav
448,192,109410,1,0,0:0:0:70:clap.wav
192,192,109629,1,0,0:0:0:70:clap.wav
320,192,109848,1,0,0:0:0:70:clap.wav
192,192,109958,1,0,0:0:0:70:clap.wav
64,192,110067,1,0,0:0:0:70:whistle.wav
448,192,110286,1,0,0:0:0:70:whistle.wav
320,192,110396,1,0,0:0:0:70:clap.wav
64,192,110615,1,0,0:0:0:0:
192,192,110724,1,0,0:0:0:70:whistle.wav
448,192,110943,1,0,0:0:0:70:clap.wav
320,192,111053,1,0,0:0:0:70:clap.wav
64,192,111272,1,0,0:0:0:70:clap.wav
320,192,111381,1,0,0:0:0:70:clap.wav
192,192,111600,1,0,0:0:0:70:clap.wav
320,192,111819,1,0,0:0:0:70:whistle.wav
192,192,111929,1,0,0:0:0:0:
64,192,112038,1,0,0:0:0:70:whistle.wav
448,192,112257,1,0,0:0:0:70:whistle.wav
320,192,112367,1,0,0:0:0:0:
192,192,112476,1,0,0:0:0:70:whistle.wav
64,192,112695,1,0,0:0:0:70:clap.wav
192,192,112914,1,0,0:0:0:70:clap.wav
320,192,113024,1,0,0:0:0:70:clap.wav
448,192,113133,1,0,0:0:0:70:clap.wav
192,192,113352,1,0,0:0:0:70:clap.wav
448,192,113571,1,0,0:0:0:70:whistle.wav
64,192,113790,1,0,0:0:0:70:whistle.wav
192,192,113899,1,0,0:0:0:70:clap.wav
448,192,114118,1,0,0:0:0:0:
320,192,114228,1,0,0:0:0:70:whistle.wav
64,192,114447,1,0,0:0:0:70:clap.wav
192,192,114556,1,0,0:0:0:70:clap.wav
448,192,114775,1,0,0:0:0:70:clap.wav
320,192,114885,1,0,0:0:0:70:clap.wav
192,192,115104,1,0,0:0:0:70:clap.wav
320,192,115323,1,0,0:0:0:70:whistle.wav
192,192,115542,1,0,0:0:0:70:whistle.wav
320,192,115651,1,0,0:0:0:70:clap.wav
448,192,115761,1,0,0:0:0:70:whistle.wav
192,192,115980,1,0,0:0:0:70:whistle.wav
320,192,116199,1,0,0:0:0:70:clap.wav
192,192,116308,1,0,0:0:0:70:clap.wav
64,192,116418,1,0,0:0:0:70:clap.wav
320,192,116637,1,0,0:0:0:70:clap.wav
192,192,116856,1,0,0:0:0:70:clap.wav
320,192,116965,1,0,0:0:0:70:clap.wav
448,192,117075,1,0,0:0:0:70:whistle.wav
64,192,117294,1,0,0:0:0:70:whistle.wav
192,192,117403,1,0,0:0:0:70:clap.wav
448,192,117622,1,0,0:0:0:0:
320,192,117732,1,0,0:0:0:70:whistle.wav
64,192,117951,1,0,0:0:0:70:clap.wav
192,192,118060,1,0,0:0:0:70:clap.wav
448,192,118279,1,0,0:0:0:70:clap.wav
192,192,118389,1,0,0:0:0:70:clap.wav
320,192,118607,1,0,0:0:0:70:clap.wav
192,192,118826,1,0,0:0:0:70:clap.wav
320,192,118936,1,0,0:0:0:70:clap.wav
448,192,119045,1,0,0:0:0:70:clap.wav
64,192,119264,1,0,0:0:0:70:finish.wav
192,192,119374,1,0,0:0:0:70:clap.wav
320,192,119483,1,0,0:0:0:70:clap.wav
448,192,119702,1,0,0:0:0:70:clap.wav
320,192,119921,1,0,0:0:0:70:finish.wav
192,192,120031,1,0,0:0:0:70:clap.wav
64,192,120140,1,0,0:0:0:70:clap.wav
320,192,120359,1,0,0:0:0:70:clap.wav
448,192,120578,128,0,120907:0:0:0:70:whistle.wav
192,192,120907,128,0,121235:0:0:0:0:
64,192,121235,128,0,121564:0:0:0:70:clap.wav
320,192,121564,128,0,121892:0:0:0:70:whistle.wav
192,192,121892,128,0,122111:0:0:0:70:whistle.wav
448,192,122111,1,0,0:0:0:70:clap.wav
64,192,122330,128,0,122987:0:0:0:70:whistle.wav
192,192,122987,128,0,123206:0:0:0:70:clap.wav
320,192,123206,128,0,123425:0:0:0:70:whistle.wav
448,192,123425,128,0,123644:0:0:0:70:clap.wav
64,192,123644,128,0,123863:0:0:0:70:whistle.wav
192,192,123863,128,0,124082:0:0:0:70:clap.wav
448,192,124082,1,0,0:0:0:70:whistle.wav
320,192,124301,1,0,0:0:0:70:clap.wav
192,192,124520,1,0,0:0:0:70:whistle.wav
64,192,124739,1,0,0:0:0:70:clap.wav
320,192,124958,1,0,0:0:0:70:whistle.wav
64,192,125177,1,0,0:0:0:70:clap.wav
448,192,125396,1,0,0:0:0:70:whistle.wav
192,192,125615,1,0,0:0:0:70:clap.wav
320,192,125834,128,0,126162:0:0:0:70:whistle.wav
64,192,126162,128,0,126491:0:0:0:0:
192,192,126491,128,0,126819:0:0:0:70:clap.wav
320,192,126819,128,0,127148:0:0:0:0:
64,192,127148,128,0,127367:0:0:0:70:whistle.wav
448,192,127367,128,0,127586:0:0:0:70:clap.wav
192,192,127586,1,0,0:0:0:70:clap.wav
320,192,127586,1,0,0:0:0:70:finish.wav
64,192,127805,1,0,0:0:0:0:
192,192,127914,1,0,0:0:0:70:clap.wav
448,192,128133,1,0,0:0:0:0:
320,192,128243,1,0,0:0:0:70:clap.wav
64,192,128462,1,0,0:0:0:70:whistle.wav
192,192,128571,1,0,0:0:0:70:whistle.wav
320,192,128899,128,0,129337:0:0:0:70:whistle.wav
64,192,129337,1,0,0:0:0:70:clap.wav
192,192,129337,1,0,0:0:0:70:finish.wav
320,192,129556,1,0,0:0:0:0:
448,192,129666,1,0,0:0:0:70:clap.wav
192,192,129885,1,0,0:0:0:0:
64,192,129994,1,0,0:0:0:70:clap.wav
320,192,130213,1,0,0:0:0:70:whistle.wav
448,192,130323,1,0,0:0:0:70:whistle.wav
192,192,130651,128,0,131089:0:0:0:70:whistle.wav
320,192,131089,1,0,0:0:0:70:clap.wav
448,192,131089,1,0,0:0:0:0:
64,192,131308,1,0,0:0:0:70:clap.wav
192,192,131418,1,0,0:0:0:70:clap.wav
448,192,131637,1,0,0:0:0:70:clap.wav
320,192,131746,1,0,0:0:0:70:clap.wav
64,192,131965,1,0,0:0:0:70:clap.wav
192,192,132075,1,0,0:0:0:70:clap.wav
320,192,132403,128,0,132841:0:0:0:70:clap.wav
64,192,132841,1,0,0:0:0:70:clap.wav
192,192,132841,1,0,0:0:0:0:
448,192,133060,1,0,0:0:0:70:clap.wav
320,192,133170,1,0,0:0:0:70:clap.wav
64,192,133389,1,0,0:0:0:70:clap.wav
192,192,133498,1,0,0:0:0:70:clap.wav
448,192,133717,1,0,0:0:0:70:clap.wav
320,192,133826,1,0,0:0:0:70:clap.wav
192,192,134155,128,0,134593:0:0:0:70:clap.wav
320,192,135493,1,0,0:0:0:70:clap.wav
448,192,135493,1,0,0:0:0:70:finish.wav
64,192,135743,1,0,0:0:0:0:
192,192,135868,1,0,0:0:0:0:
320,192,136118,1,0,0:0:0:0:
448,192,136243,1,0,0:0:0:0:
64,192,136493,1,0,0:0:0:0:
192,192,136618,1,0,0:0:0:0:
320,192,136868,1,0,0:0:0:0:
448,192,136993,1,0,0:0:0:0:
64,192,137243,1,0,0:0:0:70:clap.wav
192,192,137243,1,0,0:0:0:70:finish.wav
448,192,137493,1,0,0:0:0:0:
320,192,137618,1,0,0:0:0:0:
192,192,137868,1,0,0:0:0:0:
64,192,137993,1,0,0:0:0:0:
448,192,138243,1,0,0:0:0:0:
320,192,138368,1,0,0:0:0:0:
192,192,138618,1,0,0:0:0:0:
64,192,138743,1,0,0:0:0:0:
320,192,138993,1,0,0:0:0:70:clap.wav
448,192,138993,1,0,0:0:0:70:finish.wav
64,192,139233,1,0,0:0:0:0:
192,192,139353,1,0,0:0:0:0:
320,192,139593,1,0,0:0:0:0:
448,192,139713,1,0,0:0:0:0:
64,192,139953,1,0,0:0:0:0:
192,192,140073,1,0,0:0:0:0:
320,192,140313,1,0,0:0:0:0:
448,192,140433,1,0,0:0:0:0:
64,192,140673,1,0,0:0:0:70:clap.wav
192,192,140673,1,0,0:0:0:70:finish.wav
448,192,140913,1,0,0:0:0:0:
320,192,141033,1,0,0:0:0:0:
192,192,141273,1,0,0:0:0:0:
64,192,141393,1,0,0:0:0:0:
448,192,141633,1,0,0:0:0:0:
320,192,141753,1,0,0:0:0:0:
192,192,141993,1,0,0:0:0:0:
64,192,142113,1,0,0:0:0:0:
320,192,142353,1,0,0:0:0:70:clap.wav
448,192,142353,1,0,0:0:0:70:finish.wav
64,192,142575,1,0,0:0:0:0:
192,192,142686,1,0,0:0:0:70:clap.wav
320,192,142908,1,0,0:0:0:0:
448,192,143019,1,0,0:0:0:70:clap.wav
64,192,143241,1,0,0:0:0:0:
192,192,143353,1,0,0:0:0:70:clap.wav
320,192,143575,1,0,0:0:0:70:clap.wav
448,192,143686,1,0,0:0:0:70:clap.wav
64,192,143908,1,0,0:0:0:70:clap.wav
192,192,143908,1,0,0:0:0:70:finish.wav
448,192,144118,1,0,0:0:0:0:
320,192,144223,1,0,0:0:0:70:clap.wav
192,192,144434,1,0,0:0:0:0:
64,192,144539,1,0,0:0:0:70:clap.wav
448,192,144750,1,0,0:0:0:0:
320,192,144855,1,0,0:0:0:70:clap.wav
192,192,145065,1,0,0:0:0:70:clap.wav
64,192,145171,1,0,0:0:0:70:clap.wav
320,192,145381,1,0,0:0:0:70:clap.wav
448,192,145381,1,0,0:0:0:70:finish.wav
64,192,145581,1,0,0:0:0:70:clap.wav
192,192,145681,1,0,0:0:0:70:clap.wav
320,192,145781,1,0,0:0:0:70:clap.wav
448,192,145981,1,0,0:0:0:70:clap.wav
320,192,146081,1,0,0:0:0:70:clap.wav
192,192,146181,1,0,0:0:0:70:clap.wav
64,192,146281,1,0,0:0:0:70:clap.wav
448,192,146381,1,0,0:0:0:70:clap.wav
320,192,146581,1,0,0:0:0:70:clap.wav
448,192,146681,1,0,0:0:0:70:clap.wav
64,192,146781,1,0,0:0:0:70:finish.wav
192,192,146781,1,0,0:0:0:70:clap.wav
448,192,146971,1,0,0:0:0:70:clap.wav
320,192,147066,1,0,0:0:0:70:clap.wav
192,192,147161,1,0,0:0:0:70:clap.wav
64,192,147352,1,0,0:0:0:70:clap.wav
192,192,147447,1,0,0:0:0:70:clap.wav
320,192,147542,1,0,0:0:0:70:clap.wav
448,192,147638,1,0,0:0:0:70:clap.wav
64,192,147733,1,0,0:0:0:70:clap.wav
192,192,147923,1,0,0:0:0:70:clap.wav
320,192,148019,1,0,0:0:0:70:clap.wav
64,192,148114,128,0,154308:0:0:0:70:finish.wav
448,192,148114,128,0,154308:0:0:0:0:
