osu file format v14

[General]
AudioFilename: audio.mp3
AudioLeadIn: 0
PreviewTime: 91564
Countdown: 0
SampleSet: Normal
StackLeniency: 0
Mode: 1
LetterboxInBreaks: 0
WidescreenStoryboard: 0

[Editor]
DistanceSpacing: 0.6
BeatDivisor: 2
GridSize: 32
TimelineZoom: 8

[Metadata]
Title:Apollo
TitleUnicode:Apollo
Artist:TJ.hangneil
ArtistUnicode:TJ.hangneil
Creator:Axer
Version:Nostradamus
Source:オンゲキ R.E.D. PLUS
Tags:Skull Kid HiroK [Zeth] Genjuro Hivie Dusk- HEAVENLY MOON rubies87 TWC 2022 Taiko World Cup Grand Finals NM4 ongeki red+ r.e.d.+ video game electronic instrumental sasakure.UK artcore O.N.G.E.K.I. 音撃 皇城セツナ 皇城 刹那 スメラギ セツナ Sumeragi Setsuna チャプター Chapter 6 Skid eae finana ryugu _DUSK_ -dusk ginjani nomod no mod
BeatmapID:3556397
BeatmapSetID:1739877

[Difficulty]
HPDrainRate:7.2
CircleSize:2
OverallDifficulty:7.2
ApproachRate:10
SliderMultiplier:1.4
SliderTickRate:1

[Events]
//Background and Video events
Video,30,"output.mp4"
0,0,"156Nostradamus.jpg",0,0
//Break Periods
2,50025,53485
//Storyboard Layer 0 (Background)
//Storyboard Layer 1 (Fail)
//Storyboard Layer 2 (Pass)
//Storyboard Layer 3 (Foreground)
//Storyboard Layer 4 (Overlay)
//Storyboard Sound Samples

[TimingPoints]
9,218.978102189781,4,1,0,25,1,8
9,-12.8700128700129,4,1,0,25,0,0
884,218.978102189781,4,1,0,25,1,0
884,-285.714285714286,4,1,0,25,0,0
1706,-294.117647058824,4,1,0,25,0,0
1760,-285.714285714286,4,1,0,25,0,0
2581,-303.030303030303,4,1,0,25,0,0
2636,-285.714285714286,4,1,0,25,0,0
3457,-312.5,4,1,0,25,0,0
3512,-285.714285714286,4,1,0,25,0,0
4333,-322.58064516129,4,1,11,25,0,0
4388,-285.714285714286,4,1,11,25,0,0
4443,-285.714285714286,4,1,0,25,0,0
4799,-285.714285714286,4,1,11,25,0,0
4853,-285.714285714286,4,1,0,25,0,0
5209,-333.333333333333,4,1,11,25,0,0
5264,-285.714285714286,4,1,11,25,0,0
5319,-285.714285714286,4,1,0,25,0,0
5647,-285.714285714286,4,1,11,25,0,0
5757,-285.714285714286,4,1,0,25,0,0
6085,-344.827586206897,4,1,11,25,0,0
6140,-285.714285714286,4,1,11,25,0,0
6167,-285.714285714286,4,1,0,25,0,0
6961,-357.142857142857,4,1,11,25,0,0
7016,-285.714285714286,4,1,11,25,0,0
7071,-285.714285714286,4,1,0,25,0,0
7426,-285.714285714286,4,1,11,25,0,0
7481,-285.714285714286,4,1,0,25,0,0
7837,-111.111111111111,4,1,0,75,0,0
10516,-109.099966788442,4,1,0,75,0,0
10571,-108.112555537272,4,1,0,75,0,0
10626,-107.142857142857,4,1,0,75,0,0
10681,-106.19039922418,4,1,0,75,0,0
10735,-105.271591091171,4,1,0,75,0,0
10845,-103.448275862069,4,1,0,75,0,0
10954,-101.702786377709,4,1,0,75,0,0
11064,-100,4,1,0,75,0,0
11173,-90.9090909090909,4,1,0,75,0,0
11210,-92.327150084317,4,1,0,75,0,0
11246,-93.75,4,1,0,75,0,0
11283,-95.2588081774685,4,1,0,75,0,0
11319,-96.7741935483871,4,1,0,75,0,0
11356,-98.3827493261455,4,1,0,75,0,0
11392,-100,4,1,0,75,0,0
11501,-111.111111111111,4,1,0,75,0,0
14020,-109.202647336905,4,1,0,75,0,0
14075,-108.26433369786,4,1,0,75,0,0
14130,-107.342007434944,4,1,0,75,0,0
14184,-106.451612903226,4,1,0,75,0,0
14239,-105.559786747906,4,1,0,75,0,0
14349,-103.820224719101,4,1,0,75,0,0
14458,-102.152122641509,4,1,0,75,0,0
14531,-101.064605512615,4,1,0,75,0,0
14604,-100,4,1,0,75,0,0
14677,-90.9090909090909,4,1,0,75,0,0
14714,-92.327150084317,4,1,0,75,0,0
14750,-93.75,4,1,0,75,0,0
14787,-95.2588081774685,4,1,0,75,0,0
14823,-96.7741935483871,4,1,0,75,0,0
14860,-98.3827493261455,4,1,0,75,0,0
14896,-100,4,1,0,75,0,0
15005,-111.111111111111,4,1,0,75,0,0
17524,-109.081852897227,4,1,0,75,0,0
17578,-108.112555537272,4,1,0,75,0,0
17633,-107.142857142857,4,1,0,75,0,0
17688,-106.19039922418,4,1,0,75,0,0
17743,-105.254726049343,4,1,0,75,0,0
17852,-103.448275862069,4,1,0,75,0,0
17962,-101.687045349017,4,1,0,75,0,0
18071,-100,4,1,0,75,0,0
18181,-90.9090909090909,4,1,0,75,0,0
18217,-92.2882427307206,4,1,0,75,0,0
18254,-93.75,4,1,0,75,0,0
18290,-95.2173913043478,4,1,0,75,0,0
18327,-96.7741935483871,4,1,0,75,0,0
18363,-98.3385720700494,4,1,0,75,0,0
18400,-100,4,1,0,75,0,0
18508,-111.111111111111,4,1,0,75,0,0
21027,-107.797537619699,4,1,0,75,0,0
21137,-104.64807436919,4,1,0,75,0,0
21246,-101.703665462055,4,1,0,75,0,0
21356,-98.8955823293173,4,1,0,75,0,0
21465,-96.2619105790374,4,1,0,75,0,0
21575,-93.7425648346419,4,1,0,75,0,0
21684,-91.3729128014842,4,1,0,75,0,0
21794,-89.0999547715966,4,1,0,75,0,0
21903,-86.9565217391304,4,1,0,75,0,0
22016,-153.846153846153,4,1,0,65,0,0
35042,-144.175317185698,4,1,0,65,0,0
35151,-135.648399348888,4,1,0,66,0,0
35261,-128.008192524322,4,1,0,68,0,0
35370,-121.241513094083,4,1,0,69,0,0
35480,-115.101289134438,4,1,0,71,0,0
35589,-109.601052170101,4,1,0,72,0,0
35699,-104.558762024258,4,1,0,74,0,0
35808,-100,4,1,0,75,0,0
35866,-90.9090909090909,4,1,0,90,0,0
36246,-95.2311929265111,4,1,0,90,0,0
36575,-100,4,1,0,90,0,0
36794,-90.9090909090909,4,1,0,90,0,0
36903,-89.5583424209378,4,1,0,90,0,0
37013,-88.2352941176471,4,1,0,90,0,0
37122,-86.9622766379881,4,1,0,90,0,0
37232,-85.7142857142857,4,1,0,90,0,0
37341,-84.5124774890661,4,1,0,90,0,0
37451,-83.3333333333333,4,1,0,90,0,0
37618,-90.9090909090909,4,1,0,90,0,0
37998,-95.2311929265111,4,1,0,90,0,0
38327,-100,4,1,0,90,0,0
38546,-90.9090909090909,4,1,0,90,0,0
38655,-89.5583424209378,4,1,0,90,0,0
38765,-88.2352941176471,4,1,0,90,0,0
38874,-86.9622766379881,4,1,0,90,0,0
38984,-85.7142857142857,4,1,0,90,0,0
39093,-84.5124774890661,4,1,0,90,0,0
39203,-83.3333333333333,4,1,0,90,0,0
39370,-90.9090909090909,4,1,0,90,0,0
39750,-95.2311929265111,4,1,0,90,0,0
40079,-100,4,1,0,90,0,0
40298,-90.9090909090909,4,1,0,90,0,0
40407,-89.5583424209378,4,1,0,90,0,0
40517,-88.2352941176471,4,1,0,90,0,0
40626,-86.9622766379881,4,1,0,90,0,0
40736,-85.7142857142857,4,1,0,90,0,0
40845,-84.5124774890661,4,1,0,90,0,0
40955,-83.3333333333333,4,1,0,90,0,0
41122,-90.9090909090909,4,1,0,90,0,0
41502,-95.2311929265111,4,1,0,90,0,0
41831,-100,4,1,0,90,0,0
42050,-90.9090909090909,4,1,0,90,0,0
42159,-89.5583424209378,4,1,0,90,0,0
42269,-88.2352941176471,4,1,0,90,0,0
42378,-86.9622766379881,4,1,0,90,0,0
42488,-85.7142857142857,4,1,0,90,0,0
42597,-84.5124774890661,4,1,0,90,0,0
42707,-83.3333333333333,4,1,0,90,0,0
42873,-90.9090909090909,4,1,0,90,0,0
43144,-96.7741935483871,4,1,0,90,0,0
43254,-100.015223017202,4,1,0,90,0,0
43473,-107.16033273528,4,1,0,90,0,0
43582,-111.111111111111,4,1,0,90,0,0
43801,-90.9090909090909,4,1,0,90,0,0
43911,-88.2234456828253,4,1,0,90,0,0
44020,-85.7142857142857,4,1,0,90,0,0
44130,-83.3227647431832,4,1,0,90,0,0
44239,-81.0810810810811,4,1,0,90,0,0
44349,-78.9378829748889,4,1,0,90,0,0
44458,-76.9230769230769,4,1,0,90,0,0
44625,-90.9090909090909,4,1,0,90,0,0
44896,-96.7741935483871,4,1,0,90,0,0
45006,-100.015223017202,4,1,0,90,0,0
45225,-107.16033273528,4,1,0,90,0,0
45334,-111.111111111111,4,1,0,90,0,0
45553,-90.9090909090909,4,1,0,90,0,0
45663,-88.2234456828253,4,1,0,90,0,0
45772,-85.7142857142857,4,1,0,90,0,0
45882,-83.3227647431832,4,1,0,90,0,0
45991,-81.0810810810811,4,1,0,90,0,0
46101,-78.9378829748889,4,1,0,90,0,0
46210,-76.9230769230769,4,1,0,90,0,0
46322,-86.9565217391304,4,1,0,100,0,0
46538,-91.484533619969,4,1,0,100,0,0
46648,-96.5586789360897,4,1,0,100,0,0
46757,-102.174203014539,4,1,0,100,0,0
46867,-108.544707382741,4,1,0,100,0,0
46976,-115.69249358103,4,1,0,100,0,0
47086,-123.928166963275,4,1,0,100,0,0
47195,-133.333333333333,4,1,0,100,0,0
47305,-86.9565217391304,4,1,0,100,0,0
47414,-82.8555976203353,4,1,0,100,0,0
47524,-79.0913784202375,4,1,0,100,0,0
47633,-75.6842209267859,4,1,0,100,0,0
47743,-72.5310103209923,4,1,0,100,0,0
47852,-69.6553605528781,4,1,0,100,0,0
47962,-66.9756054909504,4,1,0,100,0,0
48071,-64.5161290322581,4,1,0,100,0,0
48181,-86.9565217391304,4,1,0,100,0,0
48290,-94.5620640701191,4,1,0,100,0,0
48400,-103.716742265249,4,1,0,100,0,0
48509,-114.722180620039,4,1,0,100,0,0
48619,-128.480375712848,4,1,0,100,0,0
48728,-145.807556866851,4,1,0,100,0,0
48838,-168.77823069296,4,1,0,100,0,0
48947,-200,4,1,0,100,0,0
49057,-86.9565217391304,4,1,0,100,0,0
49166,-76.7896704861007,4,1,0,100,0,0
49276,-68.6853832841656,4,1,0,100,0,0
49385,-62.1823908561038,4,1,0,100,0,0
49495,-56.7592400486084,4,1,0,100,0,0
49604,-52.2442521092082,4,1,0,100,0,0
49714,-48.3619443269419,4,1,0,100,0,0
49823,-45.045045045045,4,1,0,100,0,0
49935,285.714285714286,14,1,0,5,1,8
49935,-100,4,1,0,5,0,0
53792,-200,4,1,0,50,0,0
53935,285.714285714286,7,1,0,50,1,0
53935,-200,4,1,0,50,0,0
57899,-133.333333333333,4,1,0,75,0,0
59863,-129.87012987013,4,1,0,77,0,0
61899,-126.582278481013,4,1,0,79,0,0
63863,-123.456790123457,4,1,0,81,0,0
65900,-111.111111111111,4,1,0,90,0,0
65935,272.727272727273,7,1,0,90,1,0
65935,-111.111111111111,4,1,0,90,0,0
67844,-108.695652173913,4,1,0,90,0,0
69753,260.869565217392,7,1,0,90,1,0
69753,-96.1538461538461,4,1,0,90,0,0
71579,250,7,1,0,90,1,0
71579,-86.2068965517241,4,1,0,90,0,0
73269,-10.01001001001,4,1,0,40,0,0
73329,240,7,1,0,40,1,0
73329,-83.3333333333333,7,1,0,40,0,0
73386,-84.4645550527903,7,1,0,40,0,0
73446,-80,7,1,0,40,0,0
73506,-77.5193798449612,7,1,0,40,0,0
73566,-88.0503144654088,7,1,0,40,0,0
73626,-89.3141945773525,7,1,0,40,0,0
73686,-70.9219858156028,7,1,0,40,0,0
73746,-68.9655172413793,7,1,0,40,0,0
73806,-93.3333333333333,7,1,0,40,0,0
73866,-94.7546531302877,7,1,0,40,0,0
73926,-63.6942675159236,7,1,0,40,0,0
73986,-62.111801242236,7,1,0,40,0,0
74046,-99.290780141844,7,1,0,40,0,0
74106,-100.900900900901,7,1,0,40,0,0
74166,-57.8034682080925,7,1,0,40,0,0
74226,-56.4971751412429,7,1,0,40,0,0
74286,-106.060606060606,7,1,0,40,0,0
74346,-107.899807321773,7,1,0,40,0,0
74406,-52.9100529100529,7,1,0,40,0,0
74466,-51.8134715025907,7,1,0,40,0,0
74526,-113.821138211382,7,1,0,40,0,0
74586,-115.942028985507,7,1,0,40,0,0
74646,-48.780487804878,7,1,0,40,0,0
74706,-47.8468899521531,7,1,0,40,0,0
74766,-122.80701754386,7,1,0,40,0,0
74826,-125.279642058166,7,1,0,40,0,0
74886,-45.2488687782805,7,1,0,40,0,0
74946,-44.4444444444444,7,1,0,40,0,0
75006,-133.333333333333,7,1,0,40,0,0
75066,-136.239782016349,7,1,0,40,0,0
75126,-41.6666666666667,7,1,0,40,0,0
75186,-40.8163265306122,7,1,0,40,0,0
75246,-145.772594752187,7,1,0,40,0,0
75306,-149.253731343284,7,1,0,40,0,0
75366,-38.4615384615385,7,1,0,40,0,0
75426,-37.7358490566038,7,1,0,40,0,0
75486,-160.771704180064,7,1,0,40,0,0
75546,-165.016501650165,7,1,0,40,0,0
75606,-35.7142857142857,7,1,0,40,0,0
75666,-35.0877192982456,7,1,0,40,0,0
75726,-179.21146953405,7,1,0,40,0,0
75786,-184.50184501845,7,1,0,40,0,0
75846,-33.3333333333333,7,1,0,40,0,0
75906,-32.7868852459016,7,1,0,40,0,0
75966,-202.429149797571,7,1,0,40,0,0
76026,-209.205020920502,7,1,0,40,0,0
76086,-31.25,7,1,0,40,0,0
76146,-30.7692307692308,7,1,0,40,0,0
76206,-232.558139534884,7,1,0,40,0,0
76266,-241.545893719807,7,1,0,40,0,0
76326,-29.4117647058824,7,1,0,40,0,0
76386,-28.9855072463768,7,1,0,40,0,0
76446,-273.224043715847,7,1,0,40,0,0
76506,-285.714285714286,7,1,0,40,0,0
76566,-27.7777777777778,7,1,0,40,0,0
76626,-27.3972602739726,7,1,0,40,0,0
76689,230.769230769231,8,1,11,5,1,8
76689,-285.714285714286,7,1,11,5,0,0
78477,-285.714285714286,4,1,11,25,0,0
78535,218.978102189781,4,1,11,25,1,0
78535,-285.714285714286,4,1,11,25,0,0
78589,-285.714285714286,4,1,0,25,0,0
78918,-285.714285714286,4,1,11,25,0,0
79027,-285.714285714286,4,1,0,25,0,0
79356,-294.117647058824,4,1,11,25,0,0
79411,-285.714285714286,4,1,11,25,0,0
79465,-285.714285714286,4,1,0,25,0,0
79794,-285.714285714286,4,1,11,25,0,0
79903,-285.714285714286,4,1,0,25,0,0
80232,-303.030303030303,4,1,11,25,0,0
80287,-285.714285714286,4,1,11,25,0,0
80314,-285.714285714286,4,1,0,25,0,0
80670,-285.714285714286,4,1,11,25,0,0
80779,-285.714285714286,4,1,0,25,0,0
81107,-312.5,4,1,11,25,0,0
81163,-285.714285714286,4,1,11,25,0,0
81217,-285.714285714286,4,1,0,25,0,0
81545,-285.714285714286,4,1,11,25,0,0
81654,-285.714285714286,4,1,0,25,0,0
81983,-322.58064516129,4,1,11,25,0,0
82039,-285.714285714286,4,1,11,25,0,0
82093,-285.714285714286,4,1,0,25,0,0
82421,-285.714285714286,4,1,11,25,0,0
82530,-285.714285714286,4,1,0,25,0,0
82859,-333.333333333333,4,1,11,25,0,0
82915,-285.714285714286,4,1,11,25,0,0
82969,-285.714285714286,4,1,0,25,0,0
83297,-285.714285714286,4,1,11,25,0,0
83406,-285.714285714286,4,1,0,25,0,0
83735,-344.827586206897,4,1,11,25,0,0
83791,-285.714285714286,4,1,11,25,0,0
83817,-285.714285714286,4,1,0,25,0,0
84611,-357.142857142857,4,1,11,25,0,0
84667,-285.714285714286,4,1,11,25,0,0
84721,-285.714285714286,4,1,0,25,0,0
85049,-285.714285714286,4,1,11,25,0,0
85158,-285.714285714286,4,1,0,25,0,0
85487,-125,4,1,0,75,0,0
85539,-100,4,1,0,75,0,0
85648,-103.431989924433,4,1,0,75,0,0
85758,-107.142857142857,4,1,0,75,0,0
85867,-111.092323300643,4,1,0,75,0,0
85977,-115.384615384615,4,1,0,75,0,0
86086,-119.978086194302,4,1,0,75,0,0
86196,-125,4,1,0,75,0,0
86415,-100,4,1,0,75,0,0
86524,-103.431989924433,4,1,0,75,0,0
86634,-107.142857142857,4,1,0,75,0,0
86743,-111.092323300643,4,1,0,75,0,0
86853,-115.384615384615,4,1,0,75,0,0
86962,-119.978086194302,4,1,0,75,0,0
87072,-125,4,1,0,75,0,0
87291,-90.9090909090909,4,1,0,75,0,0
87400,-95.2173913043478,4,1,0,75,0,0
87455,-97.5501113585746,4,1,0,75,0,0
87510,-100,4,1,0,75,0,0
87619,-105.23786641038,4,1,0,75,0,0
87729,-111.111111111111,4,1,0,75,0,0
87783,-114.241001564945,4,1,0,75,0,0
87838,-117.615467239527,4,1,0,75,0,0
87948,-125,4,1,0,75,0,0
88167,-100,4,1,0,75,0,0
88276,-103.437401450646,4,1,0,75,0,0
88331,-105.263157894737,4,1,0,75,0,0
88386,-107.154524665142,4,1,0,75,0,0
88495,-111.111111111111,4,1,0,75,0,0
88604,-115.371086880056,4,1,0,75,0,0
88659,-117.647058823529,4,1,0,75,0,0
88714,-120.014635931211,4,1,0,75,0,0
88823,-125,4,1,0,75,0,0
89042,-133.333333333333,4,1,0,75,0,0
89152,-130.422702917245,4,1,0,75,0,0
89207,-129.014526894386,4,1,0,75,0,0
89261,-127.661227661228,4,1,0,75,0,0
89371,-124.990490680867,4,1,0,75,0,0
89480,-122.452021613564,4,1,0,75,0,0
89590,-119.992696731787,4,1,0,75,0,0
89645,-118.79971077368,4,1,0,75,0,0
89699,-117.65127103473,4,1,0,75,0,0
89754,-116.504165928027,4,1,0,75,0,0
89809,-115.379213483146,4,1,0,75,0,0
89918,-113.212747631352,4,1,0,75,0,0
90028,-111.107354184277,4,1,0,75,0,0
90137,-109.096945551129,4,1,0,75,0,0
90192,-108.109886494489,4,1,0,75,0,0
90247,-107.140528203456,4,1,0,75,0,0
90356,-105.269902290565,4,1,0,75,0,0
90466,-103.447190303793,4,1,0,75,0,0
90575,-101.702259362427,4,1,0,75,0,0
90630,-100.843946601197,4,1,0,75,0,0
90685,-100,4,1,0,75,0,0
91235,-125,4,1,0,60,0,0
91743,-122.222222222222,4,1,0,63,0,0
91816,-119.565217391304,4,1,0,65,0,0
91889,-117.021276595745,4,1,0,68,0,0
91962,-114.583333333333,4,1,0,71,0,0
92035,-112.244897959184,4,1,0,74,0,0
92108,-110,4,1,0,76,0,0
92181,-107.843137254902,4,1,0,79,0,0
92254,-105.769230769231,4,1,0,82,0,0
92327,-103.77358490566,4,1,0,85,0,0
92400,-101.851851851852,4,1,0,87,0,0
92473,-100,4,1,0,90,0,0
92513,-100,4,1,0,100,0,0
92549,-86.9565217391304,4,1,0,100,0,1
92550,-50,4,1,0,100,0,1
92659,-86.9565217391304,4,1,0,100,0,1
98677,-86.2629246676514,4,1,0,100,0,1
98732,-85.5677655677656,4,1,0,100,0,1
98787,-84.8837209302326,4,1,0,100,0,1
98842,-84.2105263157895,4,1,0,100,0,1
98896,-83.5598798111318,4,1,0,100,0,1
98951,-82.9074389551391,4,1,0,100,0,1
99006,-82.2651077616566,4,1,0,100,0,1
99061,-81.6326530612245,4,1,0,100,0,1
99115,-81.0210876803552,4,1,0,100,0,1
99170,-80.40754509156,4,1,0,100,0,1
99225,-79.8032249248429,4,1,0,100,0,1
99280,-79.2079207920792,4,1,0,100,0,1
99334,-78.6320183115659,4,1,0,100,0,1
99389,-78.0539962576851,4,1,0,100,0,1
99444,-77.4844102428022,4,1,0,100,0,1
99499,-76.9230769230769,4,1,0,100,0,1
99557,-50,4,1,0,100,0,1
99666,-86.9565217391304,4,1,0,100,0,1
104809,-100,4,1,0,100,0,1
104864,-98.9344526961576,4,1,0,100,0,1
104918,-97.9101425193328,4,1,0,100,0,1
104973,-96.8884391601316,4,1,0,100,0,1
105028,-95.8878387682293,4,1,0,100,0,1
105083,-94.9076942138521,4,1,0,100,0,1
105137,-93.9646712463199,4,1,0,100,0,1
105192,-93.0232558139535,4,1,0,100,0,1
105247,-92.1005170133462,4,1,0,100,0,1
105302,-91.1959045181261,4,1,0,100,0,1
105356,-90.3248629208183,4,1,0,100,0,1
105411,-89.4546303865468,4,1,0,100,0,1
105466,-88.6010063038575,4,1,0,100,0,1
105521,-87.7635197066911,4,1,0,100,0,1
105575,-86.9565217391304,4,1,0,100,0,1
105685,-100,4,1,0,100,0,1
105740,-98.9344526961576,4,1,0,100,0,1
105794,-97.9101425193328,4,1,0,100,0,1
105849,-96.8884391601316,4,1,0,100,0,1
105904,-95.8878387682293,4,1,0,100,0,1
105959,-94.9076942138521,4,1,0,100,0,1
106013,-93.9646712463199,4,1,0,100,0,1
106068,-93.0232558139535,4,1,0,100,0,1
106123,-92.1005170133462,4,1,0,100,0,1
106177,-91.212193379376,4,1,0,100,0,1
106232,-90.3248629208183,4,1,0,100,0,1
106287,-89.4546303865468,4,1,0,100,0,1
106342,-88.6010063038575,4,1,0,100,0,1
106396,-87.7786053973529,4,1,0,100,0,1
106451,-86.9565217391304,4,1,0,100,0,1
106564,-80,4,1,0,100,0,0
106670,-82.7455919395466,4,1,0,100,0,0
106780,-85.7142857142857,4,1,0,100,0,0
106889,-88.873858640514,4,1,0,100,0,0
106999,-92.3076923076923,4,1,0,100,0,0
107108,-95.9824689554419,4,1,0,100,0,0
107218,-100,4,1,0,100,0,0
107440,-80,4,1,0,100,0,1
107546,-77.4307601649971,4,1,0,100,0,1
107656,-75,4,1,0,100,0,1
107765,-72.7373373927484,4,1,0,100,0,1
107875,-70.5882352941176,4,1,0,100,0,1
107984,-68.580375782881,4,1,0,100,0,1
108094,-66.6666666666667,4,1,0,100,0,1
108316,-80,4,1,0,100,0,0
108422,-82.7455919395466,4,1,0,100,0,0
108532,-85.7142857142857,4,1,0,100,0,0
108641,-88.873858640514,4,1,0,100,0,0
108751,-92.3076923076923,4,1,0,100,0,0
108860,-95.9824689554419,4,1,0,100,0,0
108970,-100,4,1,0,100,0,0
109191,-80,4,1,0,100,0,1
109298,-77.4307601649971,4,1,0,100,0,1
109408,-75,4,1,0,100,0,1
109517,-72.7373373927484,4,1,0,100,0,1
109627,-70.5882352941176,4,1,0,100,0,1
109736,-68.580375782881,4,1,0,100,0,1
109846,-66.6666666666667,4,1,0,100,0,1
110067,-80,4,1,0,100,0,0
110173,-82.7455919395466,4,1,0,100,0,0
110283,-85.7142857142857,4,1,0,100,0,0
110392,-88.873858640514,4,1,0,100,0,0
110502,-92.3076923076923,4,1,0,100,0,0
110611,-95.9824689554419,4,1,0,100,0,0
110721,-100,4,1,0,100,0,0
110943,-80,4,1,0,100,0,1
111049,-77.4307601649971,4,1,0,100,0,1
111159,-75,4,1,0,100,0,1
111268,-72.7373373927484,4,1,0,100,0,1
111378,-70.5882352941176,4,1,0,100,0,1
111487,-68.580375782881,4,1,0,100,0,1
111597,-66.6666666666667,4,1,0,100,0,1
111819,-80,4,1,0,100,0,0
111925,-82.7455919395466,4,1,0,100,0,0
112035,-85.7142857142857,4,1,0,100,0,0
112144,-88.873858640514,4,1,0,100,0,0
112254,-92.3076923076923,4,1,0,100,0,0
112363,-95.9824689554419,4,1,0,100,0,0
112473,-100,4,1,0,100,0,0
112695,-80,4,1,0,100,0,1
112801,-77.4307601649971,4,1,0,100,0,1
112911,-75,4,1,0,100,0,1
113020,-72.7373373927484,4,1,0,100,0,1
113130,-70.5882352941176,4,1,0,100,0,1
113239,-68.580375782881,4,1,0,100,0,1
113349,-66.6666666666667,4,1,0,100,0,1
113571,-80,4,1,0,100,0,0
113677,-83.897331119908,4,1,0,100,0,0
113732,-86.0116515022583,4,1,0,100,0,0
113787,-88.2352941176471,4,1,0,100,0,0
113896,-93.0002123292519,4,1,0,100,0,0
114006,-98.3606557377049,4,1,0,100,0,0
114061,-101.279482041005,4,1,0,100,0,0
114115,-104.31883137504,4,1,0,100,0,0
114225,-111.111111111111,4,1,0,100,0,0
114447,-80,4,1,0,100,0,1
114553,-76.4486851291599,4,1,0,100,0,1
114663,-73.1707317073171,4,1,0,100,0,1
114772,-70.1885583035094,4,1,0,100,0,1
114882,-67.4157303370786,4,1,0,100,0,1
114991,-64.8760738619532,4,1,0,100,0,1
115101,-62.5,4,1,0,100,0,1
115323,-80,4,1,0,100,0,0
115429,-83.897331119908,4,1,0,100,0,0
115484,-86.0116515022583,4,1,0,100,0,0
115539,-88.2352941176471,4,1,0,100,0,0
115648,-93.0002123292519,4,1,0,100,0,0
115758,-98.3606557377049,4,1,0,100,0,0
115813,-101.279482041005,4,1,0,100,0,0
115867,-104.31883137504,4,1,0,100,0,0
115977,-111.111111111111,4,1,0,100,0,0
116199,-80,4,1,0,100,0,1
116305,-76.4486851291599,4,1,0,100,0,1
116415,-73.1707317073171,4,1,0,100,0,1
116524,-70.1885583035094,4,1,0,100,0,1
116634,-67.4157303370786,4,1,0,100,0,1
116743,-64.8760738619532,4,1,0,100,0,1
116853,-62.5,4,1,0,100,0,1
117075,-80,4,1,0,100,0,0
117181,-83.897331119908,4,1,0,100,0,0
117236,-86.0116515022583,4,1,0,100,0,0
117291,-88.2352941176471,4,1,0,100,0,0
117400,-93.0002123292519,4,1,0,100,0,0
117510,-98.3606557377049,4,1,0,100,0,0
117565,-101.279482041005,4,1,0,100,0,0
117619,-104.31883137504,4,1,0,100,0,0
117729,-111.111111111111,4,1,0,100,0,0
117951,-80,4,1,0,100,0,1
118057,-76.4486851291599,4,1,0,100,0,1
118167,-73.1707317073171,4,1,0,100,0,1
118276,-70.1885583035094,4,1,0,100,0,1
118386,-67.4157303370786,4,1,0,100,0,1
118495,-64.8760738619532,4,1,0,100,0,1
118605,-62.5,4,1,0,100,0,1
118826,-80,4,1,0,100,0,0
118932,-83.897331119908,4,1,0,100,0,0
118987,-86.0116515022583,4,1,0,100,0,0
119042,-88.2352941176471,4,1,0,100,0,0
119151,-93.0002123292519,4,1,0,100,0,0
119261,-98.3606557377049,4,1,0,100,0,0
119316,-101.279482041005,4,1,0,100,0,0
119370,-104.31883137504,4,1,0,100,0,0
119480,-111.111111111111,4,1,0,100,0,0
119702,-80,4,1,0,100,0,1
119808,-76.4486851291599,4,1,0,100,0,1
119918,-73.1707317073171,4,1,0,100,0,1
120027,-70.1885583035094,4,1,0,100,0,1
120137,-67.4157303370786,4,1,0,100,0,1
120246,-64.8760738619532,4,1,0,100,0,1
120356,-62.5,4,1,0,100,0,1
120578,-100,4,1,0,100,0,0
122984,-98.5274913315621,4,1,0,100,0,0
123039,-97.8008224566422,4,1,0,100,0,0
123094,-97.0847938944846,4,1,0,100,0,0
123148,-96.3919115379532,4,1,0,100,0,0
123203,-95.6962911126662,4,1,0,100,0,0
123258,-95.0106387598246,4,1,0,100,0,0
123313,-94.3347417435544,4,1,0,100,0,0
123367,-93.680424730262,4,1,0,100,0,0
123422,-93.0232558139535,4,1,0,100,0,0
123532,-91.7361955473565,4,1,0,100,0,0
123641,-90.4954917693771,4,1,0,100,0,0
123696,-89.882101630859,4,1,0,100,0,0
123750,-89.287900428484,4,1,0,100,0,0
123860,-88.1014697000201,4,1,0,100,0,0
123969,-86.9565217391304,4,1,0,100,0,0
124079,-80,4,1,0,100,0,0
124134,-80.6952857519094,4,1,0,100,0,0
124188,-81.3897890878181,4,1,0,100,0,0
124243,-82.1095508629006,4,1,0,100,0,0
124298,-82.8421564916455,4,1,0,100,0,0
124353,-83.5879528590135,4,1,0,100,0,0
124407,-84.3333700319278,4,1,0,100,0,0
124462,-85.1063829787234,4,1,0,100,0,0
124517,-85.8936981385961,4,1,0,100,0,0
124572,-86.6957161450965,4,1,0,100,0,0
124626,-87.4978582443315,4,1,0,100,0,0
124681,-88.330258302583,4,1,0,100,0,0
124736,-89.1786483497293,4,1,0,100,0,0
124791,-90.0434935935112,4,1,0,100,0,0
124845,-90.9090909090909,4,1,0,100,0,0
124955,-76.9230769230769,4,1,0,100,0,0
125010,-78.0539962576851,4,1,0,100,0,0
125064,-79.1971792785462,4,1,0,100,0,0
125119,-80.3964757709251,4,1,0,100,0,0
125174,-81.6326530612245,4,1,0,100,0,0
125229,-82.9074389551391,4,1,0,100,0,0
125283,-84.1983852364475,4,1,0,100,0,0
125338,-85.55523000293,4,1,0,100,0,0
125393,-86.9565217391304,4,1,0,100,0,0
125448,-88.404480775053,4,1,0,100,0,0
125502,-89.8738073253309,4,1,0,100,0,0
125557,-91.4214151534126,4,1,0,100,0,0
125612,-93.0232558139535,4,1,0,100,0,0
125667,-94.6822308690013,4,1,0,100,0,0
125721,-96.3696369636964,4,1,0,100,0,0
125831,-100,4,1,0,100,0,0
126816,-98.5969880293474,4,1,0,100,0,0
126853,-98.1296438636946,4,1,0,100,0,0
126889,-97.6791634787044,4,1,0,100,0,0
126926,-97.2204594491687,4,1,0,100,0,0
127035,-95.8938407611417,4,1,0,100,0,0
127090,-95.2380952380952,4,1,0,100,0,0
127145,-94.5912571005186,4,1,0,100,0,0
127181,-94.1726088025572,4,1,0,100,0,0
127218,-93.746175498715,4,1,0,100,0,0
127254,-93.3349579627148,4,1,0,100,0,0
127309,-92.7136286613411,4,1,0,100,0,0
127364,-92.1005170133462,4,1,0,100,0,0
127418,-91.506391112173,4,1,0,100,0,0
127473,-90.9090909090909,4,1,0,100,0,0
127531,-83.3333333333333,4,1,0,100,0,0
127586,-83.3333333333333,4,1,0,100,0,1
127802,-87.0792282430213,4,1,0,100,0,1
127911,-89.0720134369095,4,1,0,100,0,1
128021,-91.1777347947561,4,1,0,100,0,1
128075,-92.2483148510546,4,1,0,100,0,1
128130,-93.3648767605634,4,1,0,100,0,1
128240,-95.681100586378,4,1,0,100,0,1
128349,-98.092485549133,4,1,0,100,0,1
128459,-100.652431791222,4,1,0,100,0,1
128568,-103.324403312226,4,1,0,100,0,1
128677,-106.142106579935,4,1,0,100,0,1
128732,-107.623033992897,4,1,0,100,0,1
128787,-109.145870851556,4,1,0,100,0,1
128896,-112.294865007941,4,1,0,100,0,1
128951,-113.953800698362,4,1,0,100,0,1
129006,-115.662486368593,4,1,0,100,0,1
129061,-117.423194021589,4,1,0,100,0,1
129115,-119.204832818207,4,1,0,100,0,1
129170,-121.075913242009,4,1,0,100,0,1
129225,-123.006668599594,4,1,0,100,0,1
129280,-125,4,1,0,100,0,1
129334,-83.3333333333333,4,1,0,100,0,1
129553,-87.0769230769231,4,1,0,100,0,1
129663,-89.087093389297,4,1,0,100,0,1
129772,-91.1726804123711,4,1,0,100,0,1
129827,-92.2625516192132,4,1,0,100,0,1
129882,-93.3787945446546,4,1,0,100,0,1
129991,-95.6727518593644,4,1,0,100,0,1
130101,-98.1049225791541,4,1,0,100,0,1
130210,-100.640113798009,4,1,0,100,0,1
130320,-103.334956183057,4,1,0,100,0,1
130429,-106.151537884471,4,1,0,100,0,1
130484,-107.631845841785,4,1,0,100,0,1
130539,-109.154024170738,4,1,0,100,0,1
130648,-112.301587301587,4,1,0,100,0,1
130703,-113.959731543624,4,1,0,100,0,1
130758,-115.66757493188,4,1,0,100,0,1
130813,-117.427385892116,4,1,0,100,0,1
130867,-119.208087615838,4,1,0,100,0,1
130922,-121.078151739875,4,1,0,100,0,1
130977,-123.007823819183,4,1,0,100,0,1
131032,-125,4,1,0,100,0,1
131086,-86.9565217391304,4,1,0,100,0,1
131196,-91.5219855617207,4,1,0,100,0,1
131305,-96.544779407137,4,1,0,100,0,1
131415,-102.20534346059,4,1,0,100,0,1
131524,-108.509584777534,4,1,0,100,0,1
131634,-115.712453797994,4,1,0,100,0,1
131743,-123.859507468712,4,1,0,100,0,1
131853,-133.333333333333,4,1,0,100,0,1
131962,-86.9565217391304,4,1,0,100,0,1
132072,-82.8249014632039,4,1,0,100,0,1
132181,-79.1007064404682,4,1,0,100,0,1
132291,-75.6671434913432,4,1,0,100,0,1
132400,-72.5467013478364,4,1,0,100,0,1
132510,-69.6481271282633,4,1,0,100,0,1
132619,-66.9956762894702,4,1,0,100,0,1
132729,-64.5161290322581,4,1,0,100,0,1
132838,-86.9565217391304,4,1,0,100,0,1
132948,-94.6380034593526,4,1,0,100,0,1
133057,-103.716742265249,4,1,0,100,0,1
133167,-114.833970466981,4,1,0,100,0,1
133276,-128.480375712848,4,1,0,100,0,1
133386,-145.988183724033,4,1,0,100,0,1
133495,-168.77823069296,4,1,0,100,0,1
133604,-200,4,1,0,100,0,1
133714,-86.9565217391304,4,1,0,100,0,1
133823,-76.7896704861007,4,1,0,100,0,1
133933,-68.6853832841656,4,1,0,100,0,1
134042,-62.1823908561038,4,1,0,100,0,1
134152,-56.7592400486084,4,1,0,100,0,1
134261,-52.2442521092082,4,1,0,100,0,1
134371,-48.3619443269419,4,1,0,100,0,1
134483,-45.045045045045,4,1,0,100,0,0
134593,300,3,1,0,5,1,8
134593,-100,4,1,0,5,0,0
135193,-133.333333333333,4,1,0,75,0,0
135493,250,7,1,0,75,1,0
135493,-133.333333333333,4,1,0,75,0,0
137243,-129.87012987013,4,1,0,77,0,0
138993,240,7,1,0,79,1,0
138993,-129.87012987013,4,1,0,79,0,0
140673,-123.456790123457,4,1,0,81,0,0
142353,222.222222222222,7,1,0,81,1,0
142353,-123.456790123457,4,1,0,81,0,0
143855,-120.481927710843,4,1,0,90,0,0
143908,210.526315789474,7,1,0,90,1,0
143908,-120.481927710843,4,1,0,90,0,0
145381,200,7,1,0,100,1,0
145381,-117.647058823529,4,1,0,90,0,0
146781,190.47619047619,7,1,0,100,1,0
146781,-111.111111111111,4,1,0,90,0,0
147539,-104.370039229997,4,1,0,90,0,0
147587,-101.26582278481,4,1,0,90,0,0
147635,-98.3409266741167,4,1,0,90,0,0
147682,-95.6361812405952,4,1,0,90,0,0
147730,-93.0232558139535,4,1,0,90,0,0
147778,-90.5493113819851,4,1,0,90,0,0
147825,-88.2511764252102,4,1,0,90,0,0
147873,-86.0215053763441,4,1,0,90,0,0
147920,-83.9448194892868,4,1,0,90,0,0
147968,-81.9249498710971,4,1,0,90,0,0
148016,-80,4,1,0,90,0,0
148066,-10000,7,1,11,25,0,0
148114,176.991150442478,42,1,0,25,1,1
148114,-80,7,1,11,25,0,1
148158,-27.3972602739726,7,1,11,25,0,1
154308,-27.3972602739726,7,1,11,25,0,0

[Colours]
Combo1 : 18,124,255
Combo2 : 0,202,0

[HitObjects]
256,192,884,5,0,0:0:0:0:
256,192,993,1,8,0:0:0:0:
256,192,1102,1,0,0:0:0:0:
256,192,1157,1,0,0:0:0:0:
256,192,1212,1,8,0:0:0:0:
256,192,1321,1,0,0:0:0:0:
256,192,1431,1,0,0:0:0:0:
256,192,1540,1,8,0:0:0:0:
256,192,1595,1,8,0:0:0:0:
256,192,1650,1,0,0:0:0:0:
256,192,1760,1,8,0:0:0:0:
256,192,1978,1,8,0:0:0:0:
256,192,2033,1,0,0:0:0:0:
256,192,2088,1,0,0:0:0:0:
256,192,2197,1,8,0:0:0:0:
256,192,2416,1,8,0:0:0:0:
256,192,2471,1,0,0:0:0:0:
256,192,2526,1,0,0:0:0:0:
256,192,2636,1,8,0:0:0:0:
256,192,2690,1,8,0:0:0:0:
256,192,2745,1,8,0:0:0:0:
256,192,2854,1,0,0:0:0:0:
256,192,2964,1,8,0:0:0:0:
256,192,3183,1,0,0:0:0:0:
256,192,3237,1,0,0:0:0:0:
256,192,3292,1,8,0:0:0:0:
256,192,3402,1,0,0:0:0:0:
256,192,3512,1,8,0:0:0:0:
256,192,3621,1,8,0:0:0:0:
256,192,3675,1,8,0:0:0:0:
256,192,3730,1,0,0:0:0:0:
256,192,3840,1,0,0:0:0:0:
256,192,3949,1,8,0:0:0:0:
256,192,4168,1,8,0:0:0:0:
256,192,4223,1,0,0:0:0:0:
256,192,4278,1,8,0:0:0:0:
256,192,4388,5,0,0:0:0:0:
256,192,4497,1,8,0:0:0:0:
256,192,4606,1,0,0:0:0:0:
256,192,4661,1,0,0:0:0:0:
256,192,4716,1,8,0:0:0:0:
256,192,4825,1,0,0:0:0:0:
256,192,4935,1,0,0:0:0:0:
256,192,5044,1,8,0:0:0:0:
256,192,5099,1,8,0:0:0:0:
256,192,5154,1,0,0:0:0:0:
256,192,5264,1,8,0:0:0:0:
256,192,5482,1,8,0:0:0:0:
256,192,5537,1,0,0:0:0:0:
256,192,5592,1,0,0:0:0:0:
256,192,5701,1,8,0:0:0:0:
256,192,5920,1,8,0:0:0:0:
256,192,5975,1,0,0:0:0:0:
256,192,6029,1,0,0:0:0:0:
256,192,6140,1,8,0:0:0:0:
256,192,6194,1,8,0:0:0:0:
256,192,6248,1,8,0:0:0:0:
256,192,6358,1,0,0:0:0:0:
256,192,6467,1,8,0:0:0:0:
256,192,6686,1,0,0:0:0:0:
256,192,6741,1,0,0:0:0:0:
256,192,6796,1,8,0:0:0:0:
256,192,6905,1,0,0:0:0:0:
256,192,7016,1,8,0:0:0:0:
256,192,7124,1,8,0:0:0:0:
256,192,7179,1,8,0:0:0:0:
256,192,7234,1,0,0:0:0:0:
256,192,7343,1,0,0:0:0:0:
256,192,7453,1,8,0:0:0:0:
256,192,7562,1,0,0:0:0:0:
256,192,7672,1,8,0:0:0:0:
256,192,7726,1,0,0:0:0:0:
256,192,7781,1,8,0:0:0:0:
256,192,7891,1,4,0:0:0:0:
256,192,8110,5,8,0:0:0:0:
256,192,8219,1,8,0:0:0:0:
256,192,8329,1,0,0:0:0:0:
256,192,8383,1,8,0:0:0:0:
256,192,8438,1,0,0:0:0:0:
256,192,8548,1,8,0:0:0:0:
256,192,8602,1,8,0:0:0:0:
256,192,8657,1,0,0:0:0:0:
256,192,8712,1,0,0:0:0:0:
256,192,8767,1,8,0:0:0:0:
256,192,8876,1,0,0:0:0:0:
256,192,8986,1,8,0:0:0:0:
256,192,9040,1,8,0:0:0:0:
256,192,9095,1,0,0:0:0:0:
256,192,9205,1,8,0:0:0:0:
256,192,9314,1,0,0:0:0:0:
256,192,9369,1,0,0:0:0:0:
256,192,9424,1,8,0:0:0:0:
256,192,9478,1,8,0:0:0:0:
256,192,9533,1,0,0:0:0:0:
256,192,9643,1,8,0:0:0:0:
256,192,9697,1,0,0:0:0:0:
256,192,9752,1,0,0:0:0:0:
256,192,9862,1,8,0:0:0:0:
256,192,9971,1,8,0:0:0:0:
256,192,10080,1,0,0:0:0:0:
256,192,10190,1,0,0:0:0:0:
256,192,10226,1,8,0:0:0:0:
256,192,10263,1,8,0:0:0:0:
256,192,10299,1,0,0:0:0:0:
256,192,10409,1,8,0:0:0:0:
256,192,10518,1,0,0:0:0:0:
256,192,10573,1,0,0:0:0:0:
256,192,10628,1,8,0:0:0:0:
256,192,10683,1,8,0:0:0:0:
256,192,10737,1,0,0:0:0:0:
256,192,10847,1,8,0:0:0:0:
256,192,10956,1,0,0:0:0:0:
256,192,11066,1,0,0:0:0:0:
256,192,11175,1,8,0:0:0:0:
256,192,11212,1,8,0:0:0:0:
256,192,11248,1,0,0:0:0:0:
256,192,11285,1,0,0:0:0:0:
256,192,11321,1,8,0:0:0:0:
256,192,11358,1,8,0:0:0:0:
256,192,11394,1,0,0:0:0:0:
256,192,11504,1,0,0:0:0:0:
256,192,11559,1,0,0:0:0:0:
256,192,11613,1,8,0:0:0:0:
256,192,11723,1,8,0:0:0:0:
256,192,11832,1,0,0:0:0:0:
256,192,11887,1,8,0:0:0:0:
256,192,11942,1,0,0:0:0:0:
256,192,12051,1,8,0:0:0:0:
256,192,12106,1,8,0:0:0:0:
256,192,12161,1,0,0:0:0:0:
256,192,12216,1,0,0:0:0:0:
256,192,12270,1,8,0:0:0:0:
256,192,12380,1,0,0:0:0:0:
256,192,12489,1,8,0:0:0:0:
256,192,12544,1,8,0:0:0:0:
256,192,12599,1,0,0:0:0:0:
256,192,12708,1,8,0:0:0:0:
256,192,12818,1,0,0:0:0:0:
256,192,12872,1,0,0:0:0:0:
256,192,12927,1,8,0:0:0:0:
256,192,12982,1,8,0:0:0:0:
256,192,13037,1,0,0:0:0:0:
256,192,13146,1,8,0:0:0:0:
256,192,13201,1,0,0:0:0:0:
256,192,13256,1,0,0:0:0:0:
256,192,13365,1,8,0:0:0:0:
256,192,13475,1,8,0:0:0:0:
256,192,13584,1,0,0:0:0:0:
256,192,13694,1,0,0:0:0:0:
256,192,13730,1,8,0:0:0:0:
256,192,13767,1,8,0:0:0:0:
256,192,13803,1,0,0:0:0:0:
256,192,13913,1,8,0:0:0:0:
256,192,14022,1,0,0:0:0:0:
256,192,14077,1,0,0:0:0:0:
256,192,14132,1,8,0:0:0:0:
256,192,14186,1,8,0:0:0:0:
256,192,14241,1,8,0:0:0:0:
256,192,14351,1,0,0:0:0:0:
256,192,14460,1,8,0:0:0:0:
256,192,14533,1,0,0:0:0:0:
256,192,14606,1,0,0:0:0:0:
256,192,14679,1,8,0:0:0:0:
256,192,14716,1,8,0:0:0:0:
256,192,14752,1,0,0:0:0:0:
256,192,14789,1,0,0:0:0:0:
256,192,14825,1,8,0:0:0:0:
256,192,14862,1,8,0:0:0:0:
256,192,14898,1,4,0:0:0:0:
256,192,15008,5,0,0:0:0:0:
256,192,15062,1,0,0:0:0:0:
256,192,15117,1,8,0:0:0:0:
256,192,15226,1,8,0:0:0:0:
256,192,15336,1,0,0:0:0:0:
256,192,15391,1,8,0:0:0:0:
256,192,15445,1,0,0:0:0:0:
256,192,15555,1,8,0:0:0:0:
256,192,15610,1,8,0:0:0:0:
256,192,15664,1,0,0:0:0:0:
256,192,15719,1,0,0:0:0:0:
256,192,15774,1,8,0:0:0:0:
256,192,15883,1,0,0:0:0:0:
256,192,15993,1,8,0:0:0:0:
256,192,16048,1,8,0:0:0:0:
256,192,16102,1,0,0:0:0:0:
256,192,16212,1,8,0:0:0:0:
256,192,16321,1,0,0:0:0:0:
256,192,16376,1,0,0:0:0:0:
256,192,16431,1,8,0:0:0:0:
256,192,16486,1,8,0:0:0:0:
256,192,16540,1,0,0:0:0:0:
256,192,16650,1,8,0:0:0:0:
256,192,16705,1,0,0:0:0:0:
256,192,16759,1,0,0:0:0:0:
256,192,16869,1,8,0:0:0:0:
256,192,16978,1,8,0:0:0:0:
256,192,17088,1,0,0:0:0:0:
256,192,17197,1,0,0:0:0:0:
256,192,17234,1,8,0:0:0:0:
256,192,17270,1,8,0:0:0:0:
256,192,17307,1,0,0:0:0:0:
256,192,17416,1,8,0:0:0:0:
256,192,17526,1,0,0:0:0:0:
256,192,17580,1,0,0:0:0:0:
256,192,17635,1,8,0:0:0:0:
256,192,17690,1,8,0:0:0:0:
256,192,17745,1,0,0:0:0:0:
256,192,17854,1,8,0:0:0:0:
256,192,17964,1,0,0:0:0:0:
256,192,18073,1,0,0:0:0:0:
256,192,18183,1,8,0:0:0:0:
256,192,18219,1,8,0:0:0:0:
256,192,18256,1,0,0:0:0:0:
256,192,18292,1,0,0:0:0:0:
256,192,18329,1,8,0:0:0:0:
256,192,18365,1,8,0:0:0:0:
256,192,18402,1,0,0:0:0:0:
256,192,18511,1,0,0:0:0:0:
256,192,18566,1,0,0:0:0:0:
256,192,18621,1,8,0:0:0:0:
256,192,18730,1,8,0:0:0:0:
256,192,18840,1,0,0:0:0:0:
256,192,18894,1,8,0:0:0:0:
256,192,18949,1,0,0:0:0:0:
256,192,19059,1,8,0:0:0:0:
256,192,19113,1,8,0:0:0:0:
256,192,19168,1,0,0:0:0:0:
256,192,19223,1,0,0:0:0:0:
256,192,19278,1,8,0:0:0:0:
256,192,19387,1,0,0:0:0:0:
256,192,19497,1,8,0:0:0:0:
256,192,19551,1,8,0:0:0:0:
256,192,19606,1,0,0:0:0:0:
256,192,19716,1,8,0:0:0:0:
256,192,19825,1,0,0:0:0:0:
256,192,19880,1,0,0:0:0:0:
256,192,19935,1,8,0:0:0:0:
256,192,19989,1,8,0:0:0:0:
256,192,20044,1,0,0:0:0:0:
256,192,20153,1,8,0:0:0:0:
256,192,20208,1,0,0:0:0:0:
256,192,20263,1,0,0:0:0:0:
256,192,20372,1,8,0:0:0:0:
256,192,20482,1,8,0:0:0:0:
256,192,20591,1,0,0:0:0:0:
256,192,20701,1,0,0:0:0:0:
256,192,20737,1,8,0:0:0:0:
256,192,20774,1,8,0:0:0:0:
256,192,20810,1,0,0:0:0:0:
256,192,20920,1,0,0:0:0:0:
256,192,21029,5,8,0:0:0:0:
256,192,21139,1,8,0:0:0:0:
256,192,21248,1,8,0:0:0:0:
256,192,21358,1,8,0:0:0:0:
256,192,21467,1,8,0:0:0:0:
256,192,21577,1,8,0:0:0:0:
256,192,21686,1,8,0:0:0:0:
256,192,21796,1,8,0:0:0:0:
256,192,21905,1,4,0:0:0:0:
256,192,22124,5,8,0:0:0:0:
256,192,22234,1,8,0:0:0:0:
256,192,22343,1,0,0:0:0:0:
256,192,22453,1,8,0:0:0:0:
256,192,22562,1,0,0:0:0:0:
256,192,22672,1,0,0:0:0:0:
256,192,22781,1,8,0:0:0:0:
256,192,22836,1,8,0:0:0:0:
256,192,22891,1,8,0:0:0:0:
256,192,22945,1,8,0:0:0:0:
256,192,23000,1,0,0:0:0:0:
256,192,23110,1,8,0:0:0:0:
256,192,23219,1,0,0:0:0:0:
256,192,23329,1,0,0:0:0:0:
256,192,23438,1,8,0:0:0:0:
256,192,23548,1,8,0:0:0:0:
256,192,23657,1,0,0:0:0:0:
256,192,23876,1,0,0:0:0:0:
256,192,23986,1,8,0:0:0:0:
256,192,24095,1,0,0:0:0:0:
256,192,24205,1,0,0:0:0:0:
256,192,24314,1,8,0:0:0:0:
256,192,24424,1,8,0:0:0:0:
256,192,24533,1,0,0:0:0:0:
256,192,24588,1,0,0:0:0:0:
256,192,24643,1,8,0:0:0:0:
256,192,24697,1,8,0:0:0:0:
256,192,24752,1,0,0:0:0:0:
256,192,24862,1,0,0:0:0:0:
256,192,24971,1,8,0:0:0:0:
256,192,25080,1,8,0:0:0:0:
256,192,25190,1,0,0:0:0:0:
256,192,25299,1,8,0:0:0:0:
256,192,25409,1,0,0:0:0:0:
256,192,25628,1,8,0:0:0:0:
256,192,25737,1,8,0:0:0:0:
256,192,25847,1,0,0:0:0:0:
256,192,25956,1,8,0:0:0:0:
256,192,26066,1,0,0:0:0:0:
256,192,26175,1,0,0:0:0:0:
256,192,26285,1,8,0:0:0:0:
256,192,26340,1,8,0:0:0:0:
256,192,26394,1,8,0:0:0:0:
256,192,26449,1,8,0:0:0:0:
256,192,26504,1,0,0:0:0:0:
256,192,26613,1,8,0:0:0:0:
256,192,26723,1,0,0:0:0:0:
256,192,26832,1,0,0:0:0:0:
256,192,26942,1,8,0:0:0:0:
256,192,27051,1,8,0:0:0:0:
256,192,27161,1,0,0:0:0:0:
256,192,27270,1,8,0:0:0:0:
256,192,27380,1,8,0:0:0:0:
256,192,27489,1,0,0:0:0:0:
256,192,27708,1,0,0:0:0:0:
256,192,27818,1,0,0:0:0:0:
256,192,27927,1,8,0:0:0:0:
256,192,28037,1,0,0:0:0:0:
256,192,28091,1,0,0:0:0:0:
256,192,28146,1,0,0:0:0:0:
256,192,28201,1,0,0:0:0:0:
256,192,28256,1,8,0:0:0:0:
256,192,28292,1,8,0:0:0:0:
256,192,28329,1,0,0:0:0:0:
256,192,28365,1,0,0:0:0:0:
256,192,28475,1,8,0:0:0:0:
256,192,28529,1,8,0:0:0:0:
256,192,28584,1,8,0:0:0:0:
256,192,28694,1,8,0:0:0:0:
256,192,28803,1,8,0:0:0:0:
256,192,28913,1,0,0:0:0:0:
256,192,29132,5,8,0:0:0:0:
256,192,29241,1,8,0:0:0:0:
256,192,29351,1,0,0:0:0:0:
256,192,29460,1,8,0:0:0:0:
256,192,29570,1,0,0:0:0:0:
256,192,29679,1,0,0:0:0:0:
256,192,29789,1,8,0:0:0:0:
256,192,29843,1,8,0:0:0:0:
256,192,29898,1,8,0:0:0:0:
256,192,29953,1,8,0:0:0:0:
256,192,30007,1,0,0:0:0:0:
256,192,30117,1,8,0:0:0:0:
256,192,30226,1,0,0:0:0:0:
256,192,30281,1,0,0:0:0:0:
256,192,30336,1,0,0:0:0:0:
256,192,30445,1,8,0:0:0:0:
256,192,30555,1,8,0:0:0:0:
256,192,30664,1,0,0:0:0:0:
256,192,30883,1,0,0:0:0:0:
256,192,30993,1,8,0:0:0:0:
256,192,31102,1,0,0:0:0:0:
256,192,31212,1,0,0:0:0:0:
256,192,31321,1,8,0:0:0:0:
256,192,31431,1,8,0:0:0:0:
256,192,31540,1,0,0:0:0:0:
256,192,31595,1,0,0:0:0:0:
256,192,31650,1,8,0:0:0:0:
256,192,31705,1,8,0:0:0:0:
256,192,31759,1,0,0:0:0:0:
256,192,31869,1,0,0:0:0:0:
256,192,31978,1,8,0:0:0:0:
256,192,32033,1,8,0:0:0:0:
256,192,32088,1,8,0:0:0:0:
256,192,32197,1,0,0:0:0:0:
256,192,32307,1,8,0:0:0:0:
256,192,32416,1,0,0:0:0:0:
256,192,32635,1,8,0:0:0:0:
256,192,32745,1,8,0:0:0:0:
256,192,32854,1,0,0:0:0:0:
256,192,32964,1,8,0:0:0:0:
256,192,33073,1,0,0:0:0:0:
256,192,33183,1,0,0:0:0:0:
256,192,33292,1,8,0:0:0:0:
256,192,33347,1,8,0:0:0:0:
256,192,33402,1,8,0:0:0:0:
256,192,33456,1,8,0:0:0:0:
256,192,33511,1,0,0:0:0:0:
256,192,33621,1,8,0:0:0:0:
256,192,33730,1,0,0:0:0:0:
256,192,33785,1,0,0:0:0:0:
256,192,33840,1,0,0:0:0:0:
256,192,33949,1,8,0:0:0:0:
256,192,34059,1,8,0:0:0:0:
256,192,34168,1,0,0:0:0:0:
256,192,34278,1,8,0:0:0:0:
256,192,34387,1,8,0:0:0:0:
256,192,34497,1,0,0:0:0:0:
256,192,34716,1,0,0:0:0:0:
256,192,34825,1,8,0:0:0:0:
256,192,34935,1,8,0:0:0:0:
256,192,35044,5,4,0:0:0:0:
256,192,35153,1,4,0:0:0:0:
256,192,35263,1,4,0:0:0:0:
256,192,35372,1,4,0:0:0:0:
256,192,35482,1,4,0:0:0:0:
256,192,35591,1,4,0:0:0:0:
256,192,35701,1,4,0:0:0:0:
256,192,35810,1,4,0:0:0:0:
256,192,35920,5,12,0:0:0:0:
256,192,36248,1,12,0:0:0:0:
256,192,36577,1,12,0:0:0:0:
256,192,36796,5,12,0:0:0:0:
256,192,36905,1,12,0:0:0:0:
256,192,37015,1,4,0:0:0:0:
256,192,37124,1,4,0:0:0:0:
256,192,37234,1,12,0:0:0:0:
256,192,37343,1,4,0:0:0:0:
256,192,37453,1,12,0:0:0:0:
256,192,37672,5,4,0:0:0:0:
256,192,38000,1,4,0:0:0:0:
256,192,38329,1,4,0:0:0:0:
256,192,38548,5,4,0:0:0:0:
256,192,38657,1,4,0:0:0:0:
256,192,38767,1,12,0:0:0:0:
256,192,38876,1,12,0:0:0:0:
256,192,38986,1,4,0:0:0:0:
256,192,39095,1,12,0:0:0:0:
256,192,39205,1,4,0:0:0:0:
256,192,39424,5,12,0:0:0:0:
256,192,39752,1,4,0:0:0:0:
256,192,40080,1,12,0:0:0:0:
256,192,40299,5,12,0:0:0:0:
256,192,40409,1,4,0:0:0:0:
256,192,40518,1,12,0:0:0:0:
256,192,40628,1,12,0:0:0:0:
256,192,40737,1,4,0:0:0:0:
256,192,40847,1,4,0:0:0:0:
256,192,40956,1,12,0:0:0:0:
256,192,41175,5,4,0:0:0:0:
256,192,41504,1,12,0:0:0:0:
256,192,41832,1,4,0:0:0:0:
256,192,42051,5,4,0:0:0:0:
256,192,42161,1,12,0:0:0:0:
256,192,42270,1,4,0:0:0:0:
256,192,42380,1,4,0:0:0:0:
256,192,42489,1,12,0:0:0:0:
256,192,42599,1,12,0:0:0:0:
256,192,42708,1,4,0:0:0:0:
256,192,42927,5,12,0:0:0:0:
256,192,43146,1,0,0:0:0:0:
256,192,43256,1,12,0:0:0:0:
256,192,43475,1,0,0:0:0:0:
256,192,43584,1,12,0:0:0:0:
256,192,43803,5,12,0:0:0:0:
256,192,43913,1,12,0:0:0:0:
256,192,44022,1,4,0:0:0:0:
256,192,44132,1,4,0:0:0:0:
256,192,44241,1,12,0:0:0:0:
256,192,44351,1,4,0:0:0:0:
256,192,44460,1,12,0:0:0:0:
256,192,44679,5,4,0:0:0:0:
256,192,44898,1,8,0:0:0:0:
256,192,45007,1,4,0:0:0:0:
256,192,45226,1,8,0:0:0:0:
256,192,45336,1,4,0:0:0:0:
256,192,45555,5,4,0:0:0:0:
256,192,45664,1,4,0:0:0:0:
256,192,45774,1,12,0:0:0:0:
256,192,45883,1,12,0:0:0:0:
256,192,45993,1,4,0:0:0:0:
256,192,46102,1,12,0:0:0:0:
256,192,46212,1,4,0:0:0:0:
256,192,46431,5,4,0:0:0:0:
256,192,46540,1,4,0:0:0:0:
256,192,46650,1,4,0:0:0:0:
256,192,46759,1,4,0:0:0:0:
256,192,46869,1,4,0:0:0:0:
256,192,46978,1,4,0:0:0:0:
256,192,47088,1,4,0:0:0:0:
256,192,47197,1,4,0:0:0:0:
256,192,47307,5,12,0:0:0:0:
256,192,47416,1,12,0:0:0:0:
256,192,47526,1,12,0:0:0:0:
256,192,47635,1,12,0:0:0:0:
256,192,47745,1,12,0:0:0:0:
256,192,47854,1,12,0:0:0:0:
256,192,47964,1,12,0:0:0:0:
256,192,48073,1,12,0:0:0:0:
256,192,48183,5,4,0:0:0:0:
256,192,48292,1,4,0:0:0:0:
256,192,48402,1,4,0:0:0:0:
256,192,48511,1,4,0:0:0:0:
256,192,48621,1,4,0:0:0:0:
256,192,48730,1,4,0:0:0:0:
256,192,48840,1,4,0:0:0:0:
256,192,48949,1,4,0:0:0:0:
256,192,49059,5,12,0:0:0:0:
256,192,49168,1,12,0:0:0:0:
256,192,49278,1,12,0:0:0:0:
256,192,49387,1,12,0:0:0:0:
256,192,49497,1,12,0:0:0:0:
256,192,49606,1,12,0:0:0:0:
256,192,49716,1,12,0:0:0:0:
256,192,49825,1,12,0:0:0:0:
256,192,53935,5,0,0:0:0:0:
256,192,54077,1,0,0:0:0:0:
256,192,54220,1,8,0:0:0:0:
256,192,54363,1,0,0:0:0:0:
256,192,54435,1,0,0:0:0:0:
256,192,54506,1,0,0:0:0:0:
256,192,54577,1,8,0:0:0:0:
256,192,54649,1,0,0:0:0:0:
256,192,54792,1,0,0:0:0:0:
256,192,54935,1,8,0:0:0:0:
256,192,55077,1,0,0:0:0:0:
256,192,55149,1,8,0:0:0:0:
256,192,55220,1,0,0:0:0:0:
256,192,55292,1,0,0:0:0:0:
256,192,55363,1,0,0:0:0:0:
256,192,55506,1,0,0:0:0:0:
256,192,55649,1,8,0:0:0:0:
256,192,55720,1,8,0:0:0:0:
256,192,55792,1,0,0:0:0:0:
256,192,55935,1,0,0:0:0:0:
256,192,56077,1,0,0:0:0:0:
256,192,56220,1,8,0:0:0:0:
256,192,56363,1,0,0:0:0:0:
256,192,56435,1,0,0:0:0:0:
256,192,56506,1,0,0:0:0:0:
256,192,56577,1,8,0:0:0:0:
256,192,56649,1,0,0:0:0:0:
256,192,56792,1,0,0:0:0:0:
256,192,56935,1,8,0:0:0:0:
256,192,57077,1,0,0:0:0:0:
256,192,57149,1,8,0:0:0:0:
256,192,57220,1,0,0:0:0:0:
256,192,57292,1,0,0:0:0:0:
256,192,57363,1,0,0:0:0:0:
256,192,57506,1,0,0:0:0:0:
256,192,57649,1,8,0:0:0:0:
256,192,57720,1,0,0:0:0:0:
256,192,57792,1,8,0:0:0:0:
256,192,57863,1,8,0:0:0:0:
256,192,57935,1,4,0:0:0:0:
256,192,58077,5,0,0:0:0:0:
256,192,58220,1,8,0:0:0:0:
256,192,58363,1,0,0:0:0:0:
256,192,58435,1,0,0:0:0:0:
256,192,58506,1,8,0:0:0:0:
256,192,58577,1,8,0:0:0:0:
256,192,58649,1,0,0:0:0:0:
256,192,58792,1,0,0:0:0:0:
256,192,58935,1,8,0:0:0:0:
256,192,59077,1,0,0:0:0:0:
256,192,59149,1,8,0:0:0:0:
256,192,59220,1,0,0:0:0:0:
256,192,59292,1,0,0:0:0:0:
256,192,59363,1,8,0:0:0:0:
256,192,59435,1,8,0:0:0:0:
256,192,59506,1,0,0:0:0:0:
256,192,59649,1,8,0:0:0:0:
256,192,59792,1,8,0:0:0:0:
256,192,59935,1,4,0:0:0:0:
256,192,60077,5,0,0:0:0:0:
256,192,60220,1,8,0:0:0:0:
256,192,60363,1,0,0:0:0:0:
256,192,60435,1,0,0:0:0:0:
256,192,60506,1,8,0:0:0:0:
256,192,60577,1,8,0:0:0:0:
256,192,60649,1,0,0:0:0:0:
256,192,60792,1,0,0:0:0:0:
256,192,60935,1,8,0:0:0:0:
256,192,61077,1,0,0:0:0:0:
256,192,61149,1,8,0:0:0:0:
256,192,61220,1,0,0:0:0:0:
256,192,61292,1,0,0:0:0:0:
256,192,61363,1,8,0:0:0:0:
256,192,61506,1,0,0:0:0:0:
256,192,61649,1,8,0:0:0:0:
256,192,61720,1,0,0:0:0:0:
256,192,61792,1,8,0:0:0:0:
256,192,61863,1,8,0:0:0:0:
256,192,61935,1,4,0:0:0:0:
256,192,62077,5,0,0:0:0:0:
256,192,62220,1,8,0:0:0:0:
256,192,62363,1,0,0:0:0:0:
256,192,62435,1,0,0:0:0:0:
256,192,62506,1,8,0:0:0:0:
256,192,62577,1,8,0:0:0:0:
256,192,62649,1,0,0:0:0:0:
256,192,62792,1,0,0:0:0:0:
256,192,62935,1,8,0:0:0:0:
256,192,63077,1,0,0:0:0:0:
256,192,63149,1,8,0:0:0:0:
256,192,63220,1,0,0:0:0:0:
256,192,63292,1,0,0:0:0:0:
256,192,63363,1,8,0:0:0:0:
256,192,63435,1,8,0:0:0:0:
256,192,63506,1,0,0:0:0:0:
256,192,63649,1,8,0:0:0:0:
256,192,63792,1,8,0:0:0:0:
256,192,63935,1,4,0:0:0:0:
256,192,64077,5,0,0:0:0:0:
256,192,64220,1,8,0:0:0:0:
256,192,64363,1,0,0:0:0:0:
256,192,64435,1,0,0:0:0:0:
256,192,64506,1,8,0:0:0:0:
256,192,64577,1,8,0:0:0:0:
256,192,64649,1,0,0:0:0:0:
256,192,64792,1,0,0:0:0:0:
256,192,64935,1,8,0:0:0:0:
256,192,65077,1,0,0:0:0:0:
256,192,65149,1,8,0:0:0:0:
256,192,65220,1,0,0:0:0:0:
256,192,65292,1,0,0:0:0:0:
256,192,65363,1,8,0:0:0:0:
256,192,65506,1,0,0:0:0:0:
256,192,65649,1,8,0:0:0:0:
256,192,65720,1,0,0:0:0:0:
256,192,65792,1,8,0:0:0:0:
256,192,65863,1,8,0:0:0:0:
256,192,65935,1,4,0:0:0:0:
256,192,66071,5,0,0:0:0:0:
256,192,66207,1,8,0:0:0:0:
256,192,66275,1,0,0:0:0:0:
256,192,66344,1,0,0:0:0:0:
256,192,66412,1,0,0:0:0:0:
256,192,66480,1,8,0:0:0:0:
256,192,66548,1,8,0:0:0:0:
256,192,66616,1,0,0:0:0:0:
256,192,66753,1,0,0:0:0:0:
256,192,66889,1,8,0:0:0:0:
256,192,67025,1,0,0:0:0:0:
256,192,67094,1,8,0:0:0:0:
256,192,67162,1,0,0:0:0:0:
256,192,67230,1,0,0:0:0:0:
256,192,67298,1,8,0:0:0:0:
256,192,67366,1,8,0:0:0:0:
256,192,67435,1,0,0:0:0:0:
256,192,67571,1,8,0:0:0:0:
256,192,67707,1,8,0:0:0:0:
256,192,67844,1,4,0:0:0:0:
256,192,67980,5,0,0:0:0:0:
256,192,68116,1,8,0:0:0:0:
256,192,68185,1,0,0:0:0:0:
256,192,68253,1,0,0:0:0:0:
256,192,68321,1,0,0:0:0:0:
256,192,68389,1,8,0:0:0:0:
256,192,68457,1,8,0:0:0:0:
256,192,68525,1,0,0:0:0:0:
256,192,68662,1,0,0:0:0:0:
256,192,68798,1,8,0:0:0:0:
256,192,68935,1,0,0:0:0:0:
256,192,69003,1,8,0:0:0:0:
256,192,69071,1,0,0:0:0:0:
256,192,69139,1,0,0:0:0:0:
256,192,69207,1,8,0:0:0:0:
256,192,69344,1,0,0:0:0:0:
256,192,69480,1,8,0:0:0:0:
256,192,69548,1,0,0:0:0:0:
256,192,69616,1,8,0:0:0:0:
256,192,69685,1,8,0:0:0:0:
256,192,69753,1,4,0:0:0:0:
256,192,69883,5,0,0:0:0:0:
256,192,70013,1,8,0:0:0:0:
256,192,70079,1,0,0:0:0:0:
256,192,70144,1,0,0:0:0:0:
256,192,70209,1,8,0:0:0:0:
256,192,70274,1,8,0:0:0:0:
256,192,70339,1,8,0:0:0:0:
256,192,70405,1,0,0:0:0:0:
256,192,70535,1,0,0:0:0:0:
256,192,70666,1,8,0:0:0:0:
256,192,70796,1,0,0:0:0:0:
256,192,70861,1,8,0:0:0:0:
256,192,70926,1,0,0:0:0:0:
256,192,70992,1,0,0:0:0:0:
256,192,71057,1,8,0:0:0:0:
256,192,71122,1,8,0:0:0:0:
256,192,71187,1,0,0:0:0:0:
256,192,71318,1,8,0:0:0:0:
256,192,71448,1,8,0:0:0:0:
256,192,71579,1,4,0:0:0:0:
256,192,71704,5,0,0:0:0:0:
256,192,71829,1,8,0:0:0:0:
256,192,71891,1,0,0:0:0:0:
256,192,71954,1,0,0:0:0:0:
256,192,72016,1,8,0:0:0:0:
256,192,72079,1,8,0:0:0:0:
256,192,72141,1,8,0:0:0:0:
256,192,72204,1,0,0:0:0:0:
256,192,72329,1,0,0:0:0:0:
256,192,72454,1,8,0:0:0:0:
256,192,72579,1,0,0:0:0:0:
256,192,72641,1,8,0:0:0:0:
256,192,72704,1,0,0:0:0:0:
256,192,72766,1,0,0:0:0:0:
256,192,72829,1,8,0:0:0:0:
256,192,72891,1,8,0:0:0:0:
256,192,72954,1,0,0:0:0:0:
256,192,73079,1,8,0:0:0:0:
256,192,73204,1,8,0:0:0:0:
256,192,73329,5,0,0:0:0:0:
256,192,73389,1,0,0:0:0:0:
256,192,73449,1,8,0:0:0:0:
256,192,73509,1,8,0:0:0:0:
256,192,73569,1,0,0:0:0:0:
256,192,73629,1,0,0:0:0:0:
256,192,73689,1,8,0:0:0:0:
256,192,73749,1,8,0:0:0:0:
256,192,73809,1,0,0:0:0:0:
256,192,73869,1,0,0:0:0:0:
256,192,73929,1,8,0:0:0:0:
256,192,73989,1,8,0:0:0:0:
256,192,74049,1,0,0:0:0:0:
256,192,74109,1,0,0:0:0:0:
256,192,74169,1,8,0:0:0:0:
256,192,74229,1,8,0:0:0:0:
256,192,74289,1,0,0:0:0:0:
256,192,74349,1,0,0:0:0:0:
256,192,74409,1,8,0:0:0:0:
256,192,74469,1,8,0:0:0:0:
256,192,74529,1,0,0:0:0:0:
256,192,74589,1,0,0:0:0:0:
256,192,74649,1,8,0:0:0:0:
256,192,74709,1,8,0:0:0:0:
256,192,74769,1,0,0:0:0:0:
256,192,74829,1,0,0:0:0:0:
256,192,74889,1,8,0:0:0:0:
256,192,74949,1,8,0:0:0:0:
256,192,75009,1,0,0:0:0:0:
256,192,75069,1,0,0:0:0:0:
256,192,75129,1,8,0:0:0:0:
256,192,75189,1,8,0:0:0:0:
256,192,75249,1,0,0:0:0:0:
256,192,75309,1,0,0:0:0:0:
256,192,75369,1,8,0:0:0:0:
256,192,75429,1,8,0:0:0:0:
256,192,75489,1,0,0:0:0:0:
256,192,75549,1,0,0:0:0:0:
256,192,75609,1,8,0:0:0:0:
256,192,75669,1,8,0:0:0:0:
256,192,75729,1,0,0:0:0:0:
256,192,75789,1,0,0:0:0:0:
256,192,75849,1,8,0:0:0:0:
256,192,75909,1,8,0:0:0:0:
256,192,75969,1,0,0:0:0:0:
256,192,76029,1,0,0:0:0:0:
256,192,76089,1,8,0:0:0:0:
256,192,76149,1,8,0:0:0:0:
256,192,76209,1,0,0:0:0:0:
256,192,76269,1,0,0:0:0:0:
256,192,76329,1,8,0:0:0:0:
256,192,76389,1,8,0:0:0:0:
256,192,76449,1,0,0:0:0:0:
256,192,76509,1,0,0:0:0:0:
256,192,76569,1,8,0:0:0:0:
256,192,76629,1,8,0:0:0:0:
256,192,78535,5,0,0:0:0:0:
256,192,78644,1,8,0:0:0:0:
256,192,78753,1,0,0:0:0:0:
256,192,78808,1,0,0:0:0:0:
256,192,78863,1,8,0:0:0:0:
256,192,78972,1,0,0:0:0:0:
256,192,79082,1,0,0:0:0:0:
256,192,79191,1,8,0:0:0:0:
256,192,79246,1,8,0:0:0:0:
256,192,79301,1,0,0:0:0:0:
256,192,79411,1,8,0:0:0:0:
256,192,79629,1,8,0:0:0:0:
256,192,79684,1,0,0:0:0:0:
256,192,79739,1,0,0:0:0:0:
256,192,79848,1,8,0:0:0:0:
256,192,80067,1,8,0:0:0:0:
256,192,80122,1,0,0:0:0:0:
256,192,80177,1,0,0:0:0:0:
256,192,80287,1,8,0:0:0:0:
256,192,80341,1,8,0:0:0:0:
256,192,80396,1,8,0:0:0:0:
256,192,80505,1,0,0:0:0:0:
256,192,80615,1,8,0:0:0:0:
256,192,80724,1,0,0:0:0:0:
256,192,81163,1,8,0:0:0:0:
256,192,81600,1,0,0:0:0:0:
256,192,82039,5,0,0:0:0:0:
256,192,82148,1,8,0:0:0:0:
256,192,82257,1,0,0:0:0:0:
256,192,82312,1,0,0:0:0:0:
256,192,82367,1,8,0:0:0:0:
256,192,82476,1,0,0:0:0:0:
256,192,82586,1,0,0:0:0:0:
256,192,82695,1,8,0:0:0:0:
256,192,82750,1,8,0:0:0:0:
256,192,82805,1,0,0:0:0:0:
256,192,82915,1,8,0:0:0:0:
256,192,83133,1,8,0:0:0:0:
256,192,83188,1,0,0:0:0:0:
256,192,83243,1,0,0:0:0:0:
256,192,83352,1,8,0:0:0:0:
256,192,83571,1,8,0:0:0:0:
256,192,83626,1,0,0:0:0:0:
256,192,83680,1,0,0:0:0:0:
256,192,83791,1,8,0:0:0:0:
256,192,83845,1,8,0:0:0:0:
256,192,83899,1,8,0:0:0:0:
256,192,84009,1,0,0:0:0:0:
256,192,84118,1,8,0:0:0:0:
256,192,84337,1,0,0:0:0:0:
256,192,84392,1,0,0:0:0:0:
256,192,84447,1,8,0:0:0:0:
256,192,84556,1,0,0:0:0:0:
256,192,84667,1,8,0:0:0:0:
256,192,84775,1,8,0:0:0:0:
256,192,84830,1,8,0:0:0:0:
256,192,84885,1,0,0:0:0:0:
256,192,84994,1,0,0:0:0:0:
256,192,85104,1,8,0:0:0:0:
256,192,85213,1,0,0:0:0:0:
256,192,85323,1,8,0:0:0:0:
256,192,85378,1,0,0:0:0:0:
256,192,85432,1,8,0:0:0:0:
256,192,85542,5,4,0:0:0:0:
256,192,85651,1,8,0:0:0:0:
256,192,85761,1,8,0:0:0:0:
256,192,85870,1,4,0:0:0:0:
256,192,85980,1,8,0:0:0:0:
256,192,86089,1,8,0:0:0:0:
256,192,86199,1,4,0:0:0:0:
256,192,86418,5,12,0:0:0:0:
256,192,86527,1,0,0:0:0:0:
256,192,86637,1,0,0:0:0:0:
256,192,86746,1,12,0:0:0:0:
256,192,86856,1,0,0:0:0:0:
256,192,86965,1,0,0:0:0:0:
256,192,87075,1,12,0:0:0:0:
256,192,87294,5,4,0:0:0:0:
256,192,87403,1,8,0:0:0:0:
256,192,87458,1,8,0:0:0:0:
256,192,87513,1,8,0:0:0:0:
256,192,87622,1,4,0:0:0:0:
256,192,87732,1,8,0:0:0:0:
256,192,87786,1,8,0:0:0:0:
256,192,87841,1,8,0:0:0:0:
256,192,87951,1,4,0:0:0:0:
256,192,88170,5,12,0:0:0:0:
256,192,88279,1,0,0:0:0:0:
256,192,88334,1,0,0:0:0:0:
256,192,88389,1,0,0:0:0:0:
256,192,88498,1,12,0:0:0:0:
256,192,88607,1,0,0:0:0:0:
256,192,88662,1,0,0:0:0:0:
256,192,88717,1,0,0:0:0:0:
256,192,88826,1,12,0:0:0:0:
256,192,89045,5,0,0:0:0:0:
256,192,89155,1,0,0:0:0:0:
256,192,89210,1,0,0:0:0:0:
256,192,89264,1,8,0:0:0:0:
256,192,89374,1,8,0:0:0:0:
256,192,89483,1,0,0:0:0:0:
256,192,89593,1,0,0:0:0:0:
256,192,89648,1,0,0:0:0:0:
256,192,89702,1,8,0:0:0:0:
256,192,89757,1,8,0:0:0:0:
256,192,89812,1,0,0:0:0:0:
256,192,89921,1,8,0:0:0:0:
256,192,90031,1,0,0:0:0:0:
256,192,90140,1,8,0:0:0:0:
256,192,90195,1,0,0:0:0:0:
256,192,90250,1,0,0:0:0:0:
256,192,90359,1,8,0:0:0:0:
256,192,90469,1,8,0:0:0:0:
256,192,90578,1,0,0:0:0:0:
256,192,90633,1,0,0:0:0:0:
256,192,90688,1,0,0:0:0:0:
256,192,91673,5,0,0:0:0:0:
256,192,91746,1,0,0:0:0:0:
256,192,91819,1,0,0:0:0:0:
256,192,91892,1,0,0:0:0:0:
256,192,91965,1,0,0:0:0:0:
256,192,92038,1,0,0:0:0:0:
256,192,92111,1,8,0:0:0:0:
256,192,92184,1,8,0:0:0:0:
256,192,92257,1,8,0:0:0:0:
256,192,92330,1,8,0:0:0:0:
256,192,92403,1,8,0:0:0:0:
256,192,92476,1,8,0:0:0:0:
256,192,92550,1,4,0:0:0:0:
256,192,92768,5,0,0:0:0:0:
256,192,92823,1,0,0:0:0:0:
256,192,92878,1,8,0:0:0:0:
256,192,92932,1,8,0:0:0:0:
256,192,92987,1,0,0:0:0:0:
256,192,93042,1,8,0:0:0:0:
256,192,93097,1,0,0:0:0:0:
256,192,93151,1,0,0:0:0:0:
256,192,93206,1,8,0:0:0:0:
256,192,93261,1,8,0:0:0:0:
256,192,93316,1,0,0:0:0:0:
256,192,93370,1,0,0:0:0:0:
256,192,93425,1,8,0:0:0:0:
256,192,93480,1,0,0:0:0:0:
256,192,93535,1,8,0:0:0:0:
256,192,93589,1,8,0:0:0:0:
256,192,93644,1,0,0:0:0:0:
256,192,93699,1,0,0:0:0:0:
256,192,93753,1,8,0:0:0:0:
256,192,93808,1,8,0:0:0:0:
256,192,93863,1,0,0:0:0:0:
256,192,93918,1,8,0:0:0:0:
256,192,93972,1,0,0:0:0:0:
256,192,94027,1,0,0:0:0:0:
256,192,94082,1,8,0:0:0:0:
256,192,94137,1,8,0:0:0:0:
256,192,94191,1,0,0:0:0:0:
256,192,94246,1,0,0:0:0:0:
256,192,94301,5,8,0:0:0:0:
256,192,94356,1,0,0:0:0:0:
256,192,94410,1,8,0:0:0:0:
256,192,94465,1,0,0:0:0:0:
256,192,94520,1,8,0:0:0:0:
256,192,94575,1,8,0:0:0:0:
256,192,94629,1,8,0:0:0:0:
256,192,94684,1,8,0:0:0:0:
256,192,94739,1,0,0:0:0:0:
256,192,94794,1,0,0:0:0:0:
256,192,94848,1,8,0:0:0:0:
256,192,94903,1,0,0:0:0:0:
256,192,94958,1,8,0:0:0:0:
256,192,95013,1,8,0:0:0:0:
256,192,95067,1,0,0:0:0:0:
256,192,95122,1,0,0:0:0:0:
256,192,95177,1,8,0:0:0:0:
256,192,95232,1,8,0:0:0:0:
256,192,95286,1,0,0:0:0:0:
256,192,95341,1,8,0:0:0:0:
256,192,95396,1,0,0:0:0:0:
256,192,95451,1,0,0:0:0:0:
256,192,95505,1,8,0:0:0:0:
256,192,95560,1,0,0:0:0:0:
256,192,95615,1,0,0:0:0:0:
256,192,95670,1,8,0:0:0:0:
256,192,95724,1,0,0:0:0:0:
256,192,95779,1,0,0:0:0:0:
256,192,95834,1,8,0:0:0:0:
256,192,95889,1,8,0:0:0:0:
256,192,95943,1,0,0:0:0:0:
256,192,95998,1,0,0:0:0:0:
256,192,96053,5,8,0:0:0:0:
256,192,96107,1,8,0:0:0:0:
256,192,96162,1,8,0:0:0:0:
256,192,96217,1,8,0:0:0:0:
256,192,96272,1,0,0:0:0:0:
256,192,96326,1,0,0:0:0:0:
256,192,96381,1,8,0:0:0:0:
256,192,96436,1,8,0:0:0:0:
256,192,96491,1,0,0:0:0:0:
256,192,96545,1,0,0:0:0:0:
256,192,96600,1,8,0:0:0:0:
256,192,96655,1,0,0:0:0:0:
256,192,96710,1,8,0:0:0:0:
256,192,96764,1,8,0:0:0:0:
256,192,96819,1,0,0:0:0:0:
256,192,96874,1,8,0:0:0:0:
256,192,96929,5,8,0:0:0:0:
256,192,96983,1,8,0:0:0:0:
256,192,97038,1,0,0:0:0:0:
256,192,97093,1,0,0:0:0:0:
256,192,97148,1,8,0:0:0:0:
256,192,97202,1,0,0:0:0:0:
256,192,97257,1,8,0:0:0:0:
256,192,97312,1,8,0:0:0:0:
256,192,97367,1,0,0:0:0:0:
256,192,97421,1,0,0:0:0:0:
256,192,97476,1,8,0:0:0:0:
256,192,97531,1,0,0:0:0:0:
256,192,97586,1,8,0:0:0:0:
256,192,97640,1,8,0:0:0:0:
256,192,97695,1,0,0:0:0:0:
256,192,97750,1,8,0:0:0:0:
256,192,97805,5,8,0:0:0:0:
256,192,97859,1,8,0:0:0:0:
256,192,97914,1,0,0:0:0:0:
256,192,97969,1,0,0:0:0:0:
256,192,98024,1,8,0:0:0:0:
256,192,98078,1,0,0:0:0:0:
256,192,98133,1,8,0:0:0:0:
256,192,98188,1,8,0:0:0:0:
256,192,98243,1,0,0:0:0:0:
256,192,98297,1,0,0:0:0:0:
256,192,98352,1,8,0:0:0:0:
256,192,98407,1,0,0:0:0:0:
256,192,98462,1,8,0:0:0:0:
256,192,98516,1,8,0:0:0:0:
256,192,98571,1,8,0:0:0:0:
256,192,98626,1,8,0:0:0:0:
256,192,98680,1,0,0:0:0:0:
256,192,98735,1,0,0:0:0:0:
256,192,98790,1,0,0:0:0:0:
256,192,98845,1,0,0:0:0:0:
256,192,98899,1,8,0:0:0:0:
256,192,98954,1,0,0:0:0:0:
256,192,99009,1,8,0:0:0:0:
256,192,99064,1,8,0:0:0:0:
256,192,99118,1,0,0:0:0:0:
256,192,99173,1,8,0:0:0:0:
256,192,99228,1,0,0:0:0:0:
256,192,99283,1,0,0:0:0:0:
256,192,99337,1,8,0:0:0:0:
256,192,99392,1,8,0:0:0:0:
256,192,99447,1,8,0:0:0:0:
256,192,99502,1,8,0:0:0:0:
256,192,99557,1,4,0:0:0:0:
256,192,99775,5,0,0:0:0:0:
256,192,99830,1,0,0:0:0:0:
256,192,99885,1,8,0:0:0:0:
256,192,99940,1,8,0:0:0:0:
256,192,99994,1,0,0:0:0:0:
256,192,100049,1,8,0:0:0:0:
256,192,100104,1,0,0:0:0:0:
256,192,100159,1,0,0:0:0:0:
256,192,100213,1,8,0:0:0:0:
256,192,100268,1,8,0:0:0:0:
256,192,100323,1,0,0:0:0:0:
256,192,100378,1,0,0:0:0:0:
256,192,100432,1,8,0:0:0:0:
256,192,100487,1,0,0:0:0:0:
256,192,100542,1,8,0:0:0:0:
256,192,100597,1,8,0:0:0:0:
256,192,100651,1,0,0:0:0:0:
256,192,100706,1,0,0:0:0:0:
256,192,100761,1,8,0:0:0:0:
256,192,100816,1,8,0:0:0:0:
256,192,100870,1,0,0:0:0:0:
256,192,100925,1,8,0:0:0:0:
256,192,100980,1,0,0:0:0:0:
256,192,101035,1,0,0:0:0:0:
256,192,101089,1,8,0:0:0:0:
256,192,101144,1,8,0:0:0:0:
256,192,101199,1,0,0:0:0:0:
256,192,101253,1,0,0:0:0:0:
256,192,101308,5,8,0:0:0:0:
256,192,101363,1,0,0:0:0:0:
256,192,101418,1,8,0:0:0:0:
256,192,101472,1,0,0:0:0:0:
256,192,101527,1,8,0:0:0:0:
256,192,101582,1,8,0:0:0:0:
256,192,101637,1,8,0:0:0:0:
256,192,101691,1,8,0:0:0:0:
256,192,101746,1,0,0:0:0:0:
256,192,101801,1,0,0:0:0:0:
256,192,101856,1,8,0:0:0:0:
256,192,101910,1,0,0:0:0:0:
256,192,101965,1,8,0:0:0:0:
256,192,102020,1,8,0:0:0:0:
256,192,102075,1,0,0:0:0:0:
256,192,102129,1,0,0:0:0:0:
256,192,102184,1,8,0:0:0:0:
256,192,102239,1,8,0:0:0:0:
256,192,102294,1,0,0:0:0:0:
256,192,102348,1,8,0:0:0:0:
256,192,102403,1,0,0:0:0:0:
256,192,102458,1,0,0:0:0:0:
256,192,102513,1,8,0:0:0:0:
256,192,102567,1,0,0:0:0:0:
256,192,102622,1,0,0:0:0:0:
256,192,102677,1,8,0:0:0:0:
256,192,102732,1,0,0:0:0:0:
256,192,102786,1,0,0:0:0:0:
256,192,102841,1,8,0:0:0:0:
256,192,102896,1,8,0:0:0:0:
256,192,102951,1,0,0:0:0:0:
256,192,103005,1,0,0:0:0:0:
256,192,103060,5,8,0:0:0:0:
256,192,103115,1,8,0:0:0:0:
256,192,103170,1,8,0:0:0:0:
256,192,103224,1,8,0:0:0:0:
256,192,103279,1,0,0:0:0:0:
256,192,103334,1,0,0:0:0:0:
256,192,103389,1,8,0:0:0:0:
256,192,103443,1,8,0:0:0:0:
256,192,103498,1,0,0:0:0:0:
256,192,103553,1,0,0:0:0:0:
256,192,103607,1,8,0:0:0:0:
256,192,103662,1,0,0:0:0:0:
256,192,103717,1,8,0:0:0:0:
256,192,103772,1,8,0:0:0:0:
256,192,103826,1,0,0:0:0:0:
256,192,103881,1,8,0:0:0:0:
256,192,103936,5,8,0:0:0:0:
256,192,103991,1,8,0:0:0:0:
256,192,104045,1,0,0:0:0:0:
256,192,104100,1,0,0:0:0:0:
256,192,104155,1,8,0:0:0:0:
256,192,104210,1,0,0:0:0:0:
256,192,104264,1,8,0:0:0:0:
256,192,104319,1,8,0:0:0:0:
256,192,104374,1,0,0:0:0:0:
256,192,104429,1,0,0:0:0:0:
256,192,104483,1,8,0:0:0:0:
256,192,104538,1,0,0:0:0:0:
256,192,104593,1,8,0:0:0:0:
256,192,104648,1,8,0:0:0:0:
256,192,104702,1,0,0:0:0:0:
256,192,104812,5,0,0:0:0:0:
256,192,104867,1,8,0:0:0:0:
256,192,104921,1,0,0:0:0:0:
256,192,104976,1,0,0:0:0:0:
256,192,105031,1,8,0:0:0:0:
256,192,105086,1,0,0:0:0:0:
256,192,105140,1,8,0:0:0:0:
256,192,105195,1,8,0:0:0:0:
256,192,105250,1,0,0:0:0:0:
256,192,105305,1,8,0:0:0:0:
256,192,105359,1,0,0:0:0:0:
256,192,105414,1,0,0:0:0:0:
256,192,105469,1,8,0:0:0:0:
256,192,105524,1,8,0:0:0:0:
256,192,105578,1,0,0:0:0:0:
256,192,105688,5,8,0:0:0:0:
256,192,105743,1,8,0:0:0:0:
256,192,105797,1,0,0:0:0:0:
256,192,105852,1,8,0:0:0:0:
256,192,105907,1,0,0:0:0:0:
256,192,105962,1,0,0:0:0:0:
256,192,106016,1,8,0:0:0:0:
256,192,106071,1,8,0:0:0:0:
256,192,106126,1,0,0:0:0:0:
256,192,106180,1,8,0:0:0:0:
256,192,106235,1,0,0:0:0:0:
256,192,106290,1,0,0:0:0:0:
256,192,106345,1,8,0:0:0:0:
256,192,106399,1,8,0:0:0:0:
256,192,106454,1,0,0:0:0:0:
256,192,106564,5,12,0:0:0:0:
256,192,106673,1,0,0:0:0:0:
256,192,106783,1,0,0:0:0:0:
256,192,106892,1,12,0:0:0:0:
256,192,107002,1,0,0:0:0:0:
256,192,107111,1,0,0:0:0:0:
256,192,107221,1,12,0:0:0:0:
256,192,107440,5,12,0:0:0:0:
256,192,107549,1,12,0:0:0:0:
256,192,107659,1,4,0:0:0:0:
256,192,107768,1,4,0:0:0:0:
256,192,107878,1,12,0:0:0:0:
256,192,107987,1,4,0:0:0:0:
256,192,108097,1,12,0:0:0:0:
256,192,108316,5,4,0:0:0:0:
256,192,108425,1,8,0:0:0:0:
256,192,108535,1,8,0:0:0:0:
256,192,108644,1,4,0:0:0:0:
256,192,108753,1,8,0:0:0:0:
256,192,108863,1,8,0:0:0:0:
256,192,108972,1,4,0:0:0:0:
256,192,109191,5,4,0:0:0:0:
256,192,109301,1,4,0:0:0:0:
256,192,109410,1,12,0:0:0:0:
256,192,109520,1,12,0:0:0:0:
256,192,109629,1,4,0:0:0:0:
256,192,109739,1,12,0:0:0:0:
256,192,109848,1,4,0:0:0:0:
256,192,110067,5,12,0:0:0:0:
256,192,110177,1,0,0:0:0:0:
256,192,110286,1,8,0:0:0:0:
256,192,110396,1,4,0:0:0:0:
256,192,110505,1,8,0:0:0:0:
256,192,110615,1,0,0:0:0:0:
256,192,110724,1,12,0:0:0:0:
256,192,110943,5,12,0:0:0:0:
256,192,111053,1,4,0:0:0:0:
256,192,111162,1,12,0:0:0:0:
256,192,111272,1,12,0:0:0:0:
256,192,111381,1,4,0:0:0:0:
256,192,111491,1,4,0:0:0:0:
256,192,111600,1,12,0:0:0:0:
256,192,111819,5,4,0:0:0:0:
256,192,111929,1,8,0:0:0:0:
256,192,112038,1,0,0:0:0:0:
256,192,112148,1,12,0:0:0:0:
256,192,112257,1,0,0:0:0:0:
256,192,112367,1,8,0:0:0:0:
256,192,112476,1,4,0:0:0:0:
256,192,112695,5,4,0:0:0:0:
256,192,112805,1,12,0:0:0:0:
256,192,112914,1,4,0:0:0:0:
256,192,113024,1,4,0:0:0:0:
256,192,113133,1,12,0:0:0:0:
256,192,113243,1,12,0:0:0:0:
256,192,113352,1,4,0:0:0:0:
256,192,113571,5,12,0:0:0:0:
256,192,113680,1,0,0:0:0:0:
256,192,113735,1,0,0:0:0:0:
256,192,113790,1,0,0:0:0:0:
256,192,113899,1,12,0:0:0:0:
256,192,114009,1,0,0:0:0:0:
256,192,114064,1,0,0:0:0:0:
256,192,114118,1,0,0:0:0:0:
256,192,114228,1,12,0:0:0:0:
256,192,114447,5,12,0:0:0:0:
256,192,114556,1,12,0:0:0:0:
256,192,114666,1,4,0:0:0:0:
256,192,114775,1,4,0:0:0:0:
256,192,114885,1,12,0:0:0:0:
256,192,114994,1,4,0:0:0:0:
256,192,115104,1,12,0:0:0:0:
256,192,115323,5,4,0:0:0:0:
256,192,115432,1,8,0:0:0:0:
256,192,115487,1,8,0:0:0:0:
256,192,115542,1,8,0:0:0:0:
256,192,115651,1,4,0:0:0:0:
256,192,115761,1,8,0:0:0:0:
256,192,115816,1,8,0:0:0:0:
256,192,115870,1,8,0:0:0:0:
256,192,115980,1,4,0:0:0:0:
256,192,116199,5,4,0:0:0:0:
256,192,116308,1,4,0:0:0:0:
256,192,116418,1,12,0:0:0:0:
256,192,116527,1,12,0:0:0:0:
256,192,116637,1,4,0:0:0:0:
256,192,116746,1,12,0:0:0:0:
256,192,116856,1,4,0:0:0:0:
256,192,117075,5,12,0:0:0:0:
256,192,117184,1,0,0:0:0:0:
256,192,117239,1,0,0:0:0:0:
256,192,117294,1,8,0:0:0:0:
256,192,117403,1,4,0:0:0:0:
256,192,117513,1,8,0:0:0:0:
256,192,117567,1,8,0:0:0:0:
256,192,117622,1,0,0:0:0:0:
256,192,117732,1,12,0:0:0:0:
256,192,117951,5,12,0:0:0:0:
256,192,118060,1,4,0:0:0:0:
256,192,118170,1,12,0:0:0:0:
256,192,118279,1,12,0:0:0:0:
256,192,118389,1,4,0:0:0:0:
256,192,118498,1,4,0:0:0:0:
256,192,118607,1,12,0:0:0:0:
256,192,118826,5,4,0:0:0:0:
256,192,118936,1,8,0:0:0:0:
256,192,118991,1,8,0:0:0:0:
256,192,119045,1,0,0:0:0:0:
256,192,119155,1,12,0:0:0:0:
256,192,119264,1,0,0:0:0:0:
256,192,119319,1,0,0:0:0:0:
256,192,119374,1,8,0:0:0:0:
256,192,119483,1,4,0:0:0:0:
256,192,119702,5,4,0:0:0:0:
256,192,119812,1,12,0:0:0:0:
256,192,119921,1,4,0:0:0:0:
256,192,120031,1,4,0:0:0:0:
256,192,120140,1,12,0:0:0:0:
256,192,120250,1,12,0:0:0:0:
256,192,120359,1,4,0:0:0:0:
256,192,120578,5,4,0:0:0:0:
256,192,120797,1,8,0:0:0:0:
256,192,120907,1,8,0:0:0:0:
256,192,120962,1,8,0:0:0:0:
256,192,121016,1,0,0:0:0:0:
256,192,121126,1,0,0:0:0:0:
256,192,121235,1,8,0:0:0:0:
256,192,121345,1,0,0:0:0:0:
256,192,121399,1,8,0:0:0:0:
256,192,121454,1,0,0:0:0:0:
256,192,121509,1,0,0:0:0:0:
256,192,121564,1,8,0:0:0:0:
256,192,121618,1,8,0:0:0:0:
256,192,121673,1,0,0:0:0:0:
256,192,121783,1,0,0:0:0:0:
256,192,121892,1,8,0:0:0:0:
256,192,122002,1,0,0:0:0:0:
256,192,122056,1,0,0:0:0:0:
256,192,122111,1,8,0:0:0:0:
256,192,122221,1,8,0:0:0:0:
256,192,122275,1,8,0:0:0:0:
256,192,122330,1,0,0:0:0:0:
256,192,122440,1,0,0:0:0:0:
256,192,122549,1,8,0:0:0:0:
256,192,122659,1,0,0:0:0:0:
256,192,122768,1,0,0:0:0:0:
256,192,122878,1,8,0:0:0:0:
256,192,122987,1,0,0:0:0:0:
256,192,123042,1,0,0:0:0:0:
256,192,123097,1,8,0:0:0:0:
256,192,123151,1,8,0:0:0:0:
256,192,123206,1,0,0:0:0:0:
256,192,123261,1,0,0:0:0:0:
256,192,123316,1,8,0:0:0:0:
256,192,123370,1,0,0:0:0:0:
256,192,123425,1,8,0:0:0:0:
256,192,123535,1,0,0:0:0:0:
256,192,123644,1,8,0:0:0:0:
256,192,123699,1,8,0:0:0:0:
256,192,123753,1,0,0:0:0:0:
256,192,123863,1,8,0:0:0:0:
256,192,123972,1,8,0:0:0:0:
256,192,124082,5,0,0:0:0:0:
256,192,124137,1,8,0:0:0:0:
256,192,124191,1,0,0:0:0:0:
256,192,124246,1,8,0:0:0:0:
256,192,124301,1,0,0:0:0:0:
256,192,124356,1,0,0:0:0:0:
256,192,124410,1,8,0:0:0:0:
256,192,124465,1,8,0:0:0:0:
256,192,124520,1,0,0:0:0:0:
256,192,124575,1,8,0:0:0:0:
256,192,124629,1,0,0:0:0:0:
256,192,124684,1,0,0:0:0:0:
256,192,124739,1,8,0:0:0:0:
256,192,124794,1,8,0:0:0:0:
256,192,124848,1,0,0:0:0:0:
256,192,124958,5,0,0:0:0:0:
256,192,125013,1,8,0:0:0:0:
256,192,125067,1,0,0:0:0:0:
256,192,125122,1,8,0:0:0:0:
256,192,125177,1,0,0:0:0:0:
256,192,125232,1,0,0:0:0:0:
256,192,125286,1,8,0:0:0:0:
256,192,125341,1,8,0:0:0:0:
256,192,125396,1,0,0:0:0:0:
256,192,125451,1,0,0:0:0:0:
256,192,125505,1,8,0:0:0:0:
256,192,125560,1,0,0:0:0:0:
256,192,125615,1,8,0:0:0:0:
256,192,125670,1,8,0:0:0:0:
256,192,125724,1,0,0:0:0:0:
256,192,125834,5,8,0:0:0:0:
256,192,125943,1,0,0:0:0:0:
256,192,125998,1,0,0:0:0:0:
256,192,126053,1,8,0:0:0:0:
256,192,126162,1,0,0:0:0:0:
256,192,126272,1,0,0:0:0:0:
256,192,126381,1,8,0:0:0:0:
256,192,126436,1,8,0:0:0:0:
256,192,126491,1,0,0:0:0:0:
256,192,126600,1,8,0:0:0:0:
256,192,126710,1,0,0:0:0:0:
256,192,126819,1,8,0:0:0:0:
256,192,126856,1,8,0:0:0:0:
256,192,126892,1,8,0:0:0:0:
256,192,126929,1,0,0:0:0:0:
256,192,127038,1,8,0:0:0:0:
256,192,127093,1,8,0:0:0:0:
256,192,127148,1,0,0:0:0:0:
256,192,127184,1,0,0:0:0:0:
256,192,127221,1,0,0:0:0:0:
256,192,127257,1,8,0:0:0:0:
256,192,127312,1,8,0:0:0:0:
256,192,127367,1,0,0:0:0:0:
256,192,127421,1,0,0:0:0:0:
256,192,127476,1,8,0:0:0:0:
256,192,127586,1,4,0:0:0:0:
256,192,127805,5,8,0:0:0:0:
256,192,127914,1,4,0:0:0:0:
256,192,128024,1,8,0:0:0:0:
256,192,128078,1,8,0:0:0:0:
256,192,128133,1,8,0:0:0:0:
256,192,128243,1,4,0:0:0:0:
256,192,128352,1,8,0:0:0:0:
256,192,128462,1,8,0:0:0:0:
256,192,128571,1,0,0:0:0:0:
256,192,128680,1,8,0:0:0:0:
256,192,128735,1,8,0:0:0:0:
256,192,128790,1,0,0:0:0:0:
256,192,128899,1,0,0:0:0:0:
256,192,128954,1,0,0:0:0:0:
256,192,129009,1,8,0:0:0:0:
256,192,129064,1,8,0:0:0:0:
256,192,129118,1,0,0:0:0:0:
256,192,129173,1,0,0:0:0:0:
256,192,129228,1,8,0:0:0:0:
256,192,129283,1,8,0:0:0:0:
256,192,129337,1,4,0:0:0:0:
256,192,129556,5,8,0:0:0:0:
256,192,129666,1,4,0:0:0:0:
256,192,129775,1,8,0:0:0:0:
256,192,129830,1,8,0:0:0:0:
256,192,129885,1,8,0:0:0:0:
256,192,129994,1,4,0:0:0:0:
256,192,130104,1,8,0:0:0:0:
256,192,130213,1,8,0:0:0:0:
256,192,130323,1,0,0:0:0:0:
256,192,130432,1,8,0:0:0:0:
256,192,130487,1,8,0:0:0:0:
256,192,130542,1,0,0:0:0:0:
256,192,130651,1,0,0:0:0:0:
256,192,130706,1,0,0:0:0:0:
256,192,130761,1,8,0:0:0:0:
256,192,130816,1,8,0:0:0:0:
256,192,130870,1,0,0:0:0:0:
256,192,130925,1,0,0:0:0:0:
256,192,130980,1,8,0:0:0:0:
256,192,131035,1,8,0:0:0:0:
256,192,131089,5,4,0:0:0:0:
256,192,131199,1,4,0:0:0:0:
256,192,131308,1,4,0:0:0:0:
256,192,131418,1,4,0:0:0:0:
256,192,131527,1,4,0:0:0:0:
256,192,131637,1,4,0:0:0:0:
256,192,131746,1,4,0:0:0:0:
256,192,131856,1,4,0:0:0:0:
256,192,131965,5,12,0:0:0:0:
256,192,132075,1,12,0:0:0:0:
256,192,132184,1,12,0:0:0:0:
256,192,132294,1,12,0:0:0:0:
256,192,132403,1,12,0:0:0:0:
256,192,132513,1,12,0:0:0:0:
256,192,132622,1,12,0:0:0:0:
256,192,132732,1,12,0:0:0:0:
256,192,132841,5,4,0:0:0:0:
256,192,132951,1,4,0:0:0:0:
256,192,133060,1,4,0:0:0:0:
256,192,133170,1,4,0:0:0:0:
256,192,133279,1,4,0:0:0:0:
256,192,133389,1,4,0:0:0:0:
256,192,133498,1,4,0:0:0:0:
256,192,133607,1,4,0:0:0:0:
256,192,133717,5,12,0:0:0:0:
256,192,133826,1,12,0:0:0:0:
256,192,133936,1,12,0:0:0:0:
256,192,134045,1,12,0:0:0:0:
256,192,134155,1,12,0:0:0:0:
256,192,134264,1,12,0:0:0:0:
256,192,134374,1,12,0:0:0:0:
256,192,134483,1,12,0:0:0:0:
256,192,135493,5,4,0:0:0:0:
256,192,135618,1,0,0:0:0:0:
256,192,135743,1,8,0:0:0:0:
256,192,135868,1,0,0:0:0:0:
256,192,135930,1,0,0:0:0:0:
256,192,135993,1,0,0:0:0:0:
256,192,136055,1,8,0:0:0:0:
256,192,136118,1,0,0:0:0:0:
256,192,136243,1,0,0:0:0:0:
256,192,136368,1,8,0:0:0:0:
256,192,136493,1,0,0:0:0:0:
256,192,136555,1,8,0:0:0:0:
256,192,136618,1,0,0:0:0:0:
256,192,136680,1,0,0:0:0:0:
256,192,136743,1,8,0:0:0:0:
256,192,136805,1,8,0:0:0:0:
256,192,136868,1,0,0:0:0:0:
256,192,136993,1,8,0:0:0:0:
256,192,137055,1,0,0:0:0:0:
256,192,137118,1,8,0:0:0:0:
256,192,137180,1,8,0:0:0:0:
256,192,137243,1,4,0:0:0:0:
256,192,137368,5,0,0:0:0:0:
256,192,137493,1,8,0:0:0:0:
256,192,137618,1,0,0:0:0:0:
256,192,137680,1,0,0:0:0:0:
256,192,137743,1,0,0:0:0:0:
256,192,137805,1,8,0:0:0:0:
256,192,137868,1,0,0:0:0:0:
256,192,137993,1,0,0:0:0:0:
256,192,138118,1,8,0:0:0:0:
256,192,138243,1,8,0:0:0:0:
256,192,138305,1,8,0:0:0:0:
256,192,138368,1,0,0:0:0:0:
256,192,138430,1,8,0:0:0:0:
256,192,138493,1,0,0:0:0:0:
256,192,138555,1,0,0:0:0:0:
256,192,138618,1,0,0:0:0:0:
256,192,138743,1,8,0:0:0:0:
256,192,138805,1,0,0:0:0:0:
256,192,138868,1,8,0:0:0:0:
256,192,138930,1,8,0:0:0:0:
256,192,138993,1,4,0:0:0:0:
256,192,139113,5,0,0:0:0:0:
256,192,139233,1,8,0:0:0:0:
256,192,139353,1,0,0:0:0:0:
256,192,139413,1,0,0:0:0:0:
256,192,139473,1,8,0:0:0:0:
256,192,139533,1,8,0:0:0:0:
256,192,139593,1,0,0:0:0:0:
256,192,139713,1,0,0:0:0:0:
256,192,139833,1,8,0:0:0:0:
256,192,139893,1,8,0:0:0:0:
256,192,139953,1,0,0:0:0:0:
256,192,140073,1,8,0:0:0:0:
256,192,140133,1,0,0:0:0:0:
256,192,140193,1,0,0:0:0:0:
256,192,140253,1,0,0:0:0:0:
256,192,140313,1,0,0:0:0:0:
256,192,140433,1,8,0:0:0:0:
256,192,140493,1,8,0:0:0:0:
256,192,140553,1,0,0:0:0:0:
256,192,140613,1,8,0:0:0:0:
256,192,140673,1,4,0:0:0:0:
256,192,140793,5,0,0:0:0:0:
256,192,140913,1,8,0:0:0:0:
256,192,141033,1,0,0:0:0:0:
256,192,141093,1,0,0:0:0:0:
256,192,141153,1,8,0:0:0:0:
256,192,141213,1,8,0:0:0:0:
256,192,141273,1,0,0:0:0:0:
256,192,141393,1,0,0:0:0:0:
256,192,141513,1,8,0:0:0:0:
256,192,141573,1,0,0:0:0:0:
256,192,141633,1,0,0:0:0:0:
256,192,141753,1,8,0:0:0:0:
256,192,141813,1,8,0:0:0:0:
256,192,141873,1,0,0:0:0:0:
256,192,141933,1,0,0:0:0:0:
256,192,141993,1,0,0:0:0:0:
256,192,142113,1,8,0:0:0:0:
256,192,142173,1,8,0:0:0:0:
256,192,142233,1,8,0:0:0:0:
256,192,142293,1,8,0:0:0:0:
256,192,142353,1,4,0:0:0:0:
256,192,142575,5,8,0:0:0:0:
256,192,142686,1,4,0:0:0:0:
256,192,142797,1,8,0:0:0:0:
256,192,142853,1,8,0:0:0:0:
256,192,142908,1,8,0:0:0:0:
256,192,143019,1,4,0:0:0:0:
256,192,143130,1,8,0:0:0:0:
256,192,143241,1,8,0:0:0:0:
256,192,143353,1,0,0:0:0:0:
256,192,143464,1,8,0:0:0:0:
256,192,143519,1,8,0:0:0:0:
256,192,143575,1,0,0:0:0:0:
256,192,143686,1,8,0:0:0:0:
256,192,143797,1,8,0:0:0:0:
256,192,143908,1,4,0:0:0:0:
256,192,144118,5,8,0:0:0:0:
256,192,144223,1,4,0:0:0:0:
256,192,144329,1,8,0:0:0:0:
256,192,144381,1,8,0:0:0:0:
256,192,144434,1,8,0:0:0:0:
256,192,144539,1,4,0:0:0:0:
256,192,144644,1,8,0:0:0:0:
256,192,144750,1,8,0:0:0:0:
256,192,144855,1,0,0:0:0:0:
256,192,144960,1,8,0:0:0:0:
256,192,145013,1,8,0:0:0:0:
256,192,145065,1,0,0:0:0:0:
256,192,145171,1,8,0:0:0:0:
256,192,145223,1,8,0:0:0:0:
256,192,145276,1,8,0:0:0:0:
256,192,145329,1,8,0:0:0:0:
256,192,145381,1,4,0:0:0:0:
256,192,145581,5,0,0:0:0:0:
256,192,145681,1,8,0:0:0:0:
256,192,145731,1,0,0:0:0:0:
256,192,145781,1,8,0:0:0:0:
256,192,145831,1,8,0:0:0:0:
256,192,145881,1,0,0:0:0:0:
256,192,145981,1,8,0:0:0:0:
256,192,146031,1,8,0:0:0:0:
256,192,146081,1,8,0:0:0:0:
256,192,146181,1,0,0:0:0:0:
256,192,146281,1,8,0:0:0:0:
256,192,146381,1,0,0:0:0:0:
256,192,146431,1,0,0:0:0:0:
256,192,146481,1,8,0:0:0:0:
256,192,146531,1,8,0:0:0:0:
256,192,146581,1,0,0:0:0:0:
256,192,146681,1,0,0:0:0:0:
256,192,146781,5,8,0:0:0:0:
256,192,146828,1,8,0:0:0:0:
256,192,146876,1,8,0:0:0:0:
256,192,146971,1,0,0:0:0:0:
256,192,147066,1,8,0:0:0:0:
256,192,147114,1,0,0:0:0:0:
256,192,147161,1,8,0:0:0:0:
256,192,147209,1,8,0:0:0:0:
256,192,147257,1,0,0:0:0:0:
256,192,147304,1,0,0:0:0:0:
256,192,147352,1,8,0:0:0:0:
256,192,147447,1,0,0:0:0:0:
256,192,147542,1,8,0:0:0:0:
256,192,147590,1,8,0:0:0:0:
256,192,147638,1,8,0:0:0:0:
256,192,147685,1,8,0:0:0:0:
256,192,147733,1,0,0:0:0:0:
256,192,147781,1,0,0:0:0:0:
256,192,147828,1,8,0:0:0:0:
256,192,147876,1,8,0:0:0:0:
256,192,147923,1,0,0:0:0:0:
256,192,147971,1,0,0:0:0:0:
256,192,148019,1,8,0:0:0:0:
256,192,148113,8,0,154307,0:0:0:0:
