osu file format v14

[General]
AudioFilename: audio.mp3
AudioLeadIn: 0
PreviewTime: 91564
Countdown: 0
SampleSet: Normal
StackLeniency: 0.7
Mode: 1
LetterboxInBreaks: 0
WidescreenStoryboard: 1

[Editor]
DistanceSpacing: 0.6
BeatDivisor: 4
GridSize: 32
TimelineZoom: 2.500001

[Metadata]
Title:Apollo
TitleUnicode:Apollo
Artist:TJ.hangneil
ArtistUnicode:TJ.hangneil
Creator:Axer
Version:Hivie's Oni
Source:オンゲキ R.E.D. PLUS
Tags:Skull Kid HiroK [Zeth] Genjuro Hivie Dusk- HEAVENLY MOON rubies87 TWC 2022 Taiko World Cup Grand Finals NM4 ongeki red+ r.e.d.+ video game electronic instrumental sasakure.UK artcore O.N.G.E.K.I. 音撃 皇城セツナ 皇城 刹那 スメラギ セツナ Sumeragi Setsuna チャプター Chapter 6 Skid eae finana ryugu _DUSK_ -dusk ginjani nomod no mod
BeatmapID:3560837
BeatmapSetID:1739877

[Difficulty]
HPDrainRate:6
CircleSize:2
OverallDifficulty:6
ApproachRate:10
SliderMultiplier:1.4
SliderTickRate:1

[Events]
//Background and Video events
Video,30,"output.mp4"
0,0,"76Oni.jpg",0,0
//Break Periods
//Storyboard Layer 0 (Background)
//Storyboard Layer 1 (Fail)
//Storyboard Layer 2 (Pass)
//Storyboard Layer 3 (Foreground)
//Storyboard Layer 4 (Overlay)
//Storyboard Sound Samples

[TimingPoints]
9,218.978102189781,4,1,0,25,1,8
884,218.978102189781,4,1,0,25,1,0
884,-250,4,1,0,25,0,0
4387,-266.653981543145,4,1,0,25,0,0
4388,-200,4,1,0,25,0,0
5263,-290.897768552154,4,1,0,25,0,0
5264,-200,4,1,0,25,0,0
6139,-319.990866537276,4,1,0,25,0,0
6140,-200,4,1,0,25,0,0
7015,-355.549917544082,4,1,0,25,0,0
7016,-200,4,1,0,25,0,0
7781,-114.285714285714,4,1,0,75,0,0
7836,-117.647058823529,4,1,0,90,0,0
22015,-133.333333333333,4,1,0,75,0,0
35151,-127.976625273923,4,1,0,75,0,0
35260,-123.076923076923,4,1,0,75,0,0
35370,-118.498478187352,4,1,0,75,0,0
35479,-114.285714285714,4,1,0,75,0,0
35589,-110.327455919395,4,1,0,75,0,0
35698,-106.666666666667,4,1,0,75,0,0
35808,-103.210603829161,4,1,0,75,0,0
35917,-100,4,1,0,75,0,0
36245,-108.094768015795,4,1,0,75,0,0
36574,-117.647058823529,4,1,0,75,0,0
36793,-125,4,1,0,75,0,0
36902,-121.228895654581,4,1,0,75,0,0
37012,-117.647058823529,4,1,0,75,0,0
37121,-114.300626304802,4,1,0,75,0,0
37231,-111.111111111111,4,1,0,75,0,0
37340,-108.121451493458,4,1,0,75,0,0
37450,-105.263157894737,4,1,0,75,0,0
37559,-102.576112412178,4,1,0,75,0,0
37667,-100,4,1,0,75,0,0
37995,-108.094768015795,4,1,0,75,0,0
38324,-117.647058823529,4,1,0,75,0,0
38543,-125,4,1,0,75,0,0
38652,-121.228895654581,4,1,0,75,0,0
38762,-117.647058823529,4,1,0,75,0,0
38871,-114.300626304802,4,1,0,75,0,0
38981,-111.111111111111,4,1,0,75,0,0
39090,-108.121451493458,4,1,0,75,0,0
39200,-105.263157894737,4,1,0,75,0,0
39309,-102.576112412178,4,1,0,75,0,0
39419,-100,4,1,0,75,0,0
39747,-108.094768015795,4,1,0,75,0,0
40076,-117.647058823529,4,1,0,75,0,0
40295,-125,4,1,0,75,0,0
40404,-121.228895654581,4,1,0,75,0,0
40514,-117.647058823529,4,1,0,75,0,0
40623,-114.300626304802,4,1,0,75,0,0
40733,-111.111111111111,4,1,0,75,0,0
40842,-108.121451493458,4,1,0,75,0,0
40952,-105.263157894737,4,1,0,75,0,0
41061,-102.576112412178,4,1,0,75,0,0
41170,-100,4,1,0,75,0,0
41498,-108.094768015795,4,1,0,75,0,0
41827,-117.647058823529,4,1,0,75,0,0
42046,-125,4,1,0,75,0,0
42155,-121.228895654581,4,1,0,75,0,0
42265,-117.647058823529,4,1,0,75,0,0
42374,-114.300626304802,4,1,0,75,0,0
42484,-111.111111111111,4,1,0,75,0,0
42593,-108.121451493458,4,1,0,75,0,0
42703,-105.263157894737,4,1,0,75,0,0
42812,-102.576112412178,4,1,0,75,0,0
42922,-100,4,1,0,75,0,0
43250,-108.094768015795,4,1,0,75,0,0
43579,-117.647058823529,4,1,0,75,0,0
43798,-125,4,1,0,75,0,0
43907,-121.228895654581,4,1,0,75,0,0
44017,-117.647058823529,4,1,0,75,0,0
44126,-114.300626304802,4,1,0,75,0,0
44236,-111.111111111111,4,1,0,75,0,0
44345,-108.121451493458,4,1,0,75,0,0
44455,-105.263157894737,4,1,0,75,0,0
44564,-102.576112412178,4,1,0,75,0,0
44674,-100,4,1,0,75,0,0
45002,-108.094768015795,4,1,0,75,0,0
45331,-117.647058823529,4,1,0,75,0,0
45550,-125,4,1,0,75,0,0
45659,-121.228895654581,4,1,0,75,0,0
45769,-117.647058823529,4,1,0,75,0,0
45878,-114.300626304802,4,1,0,75,0,0
45988,-111.111111111111,4,1,0,75,0,0
46097,-108.121451493458,4,1,0,75,0,0
46207,-105.263157894737,4,1,0,75,0,0
46316,-102.576112412178,4,1,0,75,0,0
46428,-100,4,1,0,75,0,0
46537,-102.552095527979,4,1,0,90,0,0
46647,-105.263157894737,4,1,0,90,0,0
46756,-108.094768015795,4,1,0,90,0,0
46866,-111.111111111111,4,1,0,90,0,0
46975,-114.270806157057,4,1,0,90,0,0
47085,-117.647058823529,4,1,0,90,0,0
47304,-100,4,1,0,90,0,0
47413,-102.552095527979,4,1,0,90,0,0
47523,-105.263157894737,4,1,0,90,0,0
47632,-108.094768015795,4,1,0,90,0,0
47742,-111.111111111111,4,1,0,90,0,0
47851,-114.270806157057,4,1,0,90,0,0
47961,-117.647058823529,4,1,0,90,0,0
48180,-100,4,1,0,90,0,0
48289,-98.6897463637456,4,1,0,90,0,0
48399,-97.4018270257445,4,1,0,90,0,0
48508,-96.1583509018506,4,1,0,90,0,0
48618,-94.9352451433858,4,1,0,90,0,0
48727,-93.7535685737125,4,1,0,90,0,0
48837,-92.5905041163866,4,1,0,90,0,0
48946,-91.4661319073084,4,1,0,90,0,0
49056,-90.3587937486243,4,1,0,90,0,0
49165,-89.2876563349647,4,1,0,90,0,0
49275,-88.2321332616873,4,1,0,90,0,0
49384,-87.2105374973444,4,1,0,90,0,0
49494,-86.2032759344813,4,1,0,90,0,0
49603,-85.2278625557978,4,1,0,90,0,0
49713,-84.2656266037155,4,1,0,90,0,0
49822,-83.3333333333333,4,1,0,90,0,0
49935,285.714285714286,14,1,0,5,1,8
49935,-133.333333333333,7,1,0,5,0,0
53863,-133.333333333333,7,1,0,75,0,0
53935,285.714285714286,7,1,0,75,1,0
53935,-133.333333333333,7,1,0,75,0,0
57899,-111.111111111111,7,1,0,90,0,0
61935,-105.263157894737,7,1,0,90,0,0
65935,272.727272727273,7,1,0,90,1,0
69753,260.869565217392,7,1,0,90,1,0
71579,250,7,1,0,90,1,0
73329,240,7,1,11,40,1,0
73329,-25,7,1,11,40,0,0
75009,-50,7,1,11,40,0,0
76689,230.769230769231,8,1,0,5,1,8
76689,-25,8,1,0,5,0,0
78535,218.978102189781,4,1,0,50,1,0
78535,-166.666666666667,4,1,0,50,0,0
85542,-125,4,1,0,90,0,0
86418,-117.647058823529,4,1,0,90,0,0
87294,-111.111111111111,4,1,0,90,0,0
88170,-105.263157894737,4,1,0,90,0,0
88991,-100,4,1,0,90,0,0
89141,-98.760237433316,4,1,0,90,0,0
89251,-97.561699758768,4,1,0,90,0,0
89360,-96.381301558203,4,1,0,90,0,0
89470,-95.239475400333,4,1,0,90,0,0
89579,-94.114277531147,4,1,0,90,0,0
89689,-93.02523089989,4,1,0,90,0,0
89798,-91.951449858337,4,1,0,90,0,0
89908,-90.911606031263,4,1,0,90,0,0
90017,-89.885796348219,4,1,0,90,0,0
90127,-88.891894633618,4,1,0,90,0,0
90236,-87.910911948634,4,1,0,90,0,0
90346,-86.959973536222,4,1,0,90,0,0
90455,-86.020942408377,4,1,0,90,0,0
90565,-85.110240554279,4,1,0,90,0,0
90674,-84.210526315789,4,1,0,90,0,0
90797,-10,4,1,0,5,0,0
91673,-125,4,1,11,30,0,0
92494,-100,4,1,0,100,0,0
92549,-100,4,1,0,100,0,1
131196,-99.3559718969555,4,1,0,100,0,1
131305,-98.7259293734365,4,1,0,100,0,1
131415,-98.0981559627724,4,1,0,100,0,1
131524,-97.4839154411765,4,1,0,100,0,1
131634,-96.8717890170111,4,1,0,100,0,1
131743,-96.2727633743689,4,1,0,100,0,1
131853,-95.6757061509838,4,1,0,100,0,1
131962,-95.0913369942844,4,1,0,100,0,1
132072,-94.5087992871464,4,1,0,100,0,1
132181,-93.938555217271,4,1,0,100,0,1
132291,-93.3700137551582,4,1,0,100,0,1
132400,-92.8133887551958,4,1,0,100,0,1
132510,-92.2583451125367,4,1,0,100,0,1
132619,-91.7148570502081,4,1,0,100,0,1
132729,-91.1728361897598,4,1,0,100,0,1
132838,-90.6420254246341,4,1,0,100,0,1
132948,-90.1125743415463,4,1,0,100,0,1
133057,-89.5940024285941,4,1,0,100,0,1
133167,-89.0766888877224,4,1,0,100,0,1
133276,-88.5699373695198,4,1,0,100,0,1
133386,-88.0643487285937,4,1,0,100,0,1
133495,-87.5690180091852,4,1,0,100,0,1
133604,-87.0792282430213,4,1,0,100,0,1
133714,-86.5904684151444,4,1,0,100,0,1
133823,-86.1115339727,4,1,0,100,0,1
133933,-85.6335469546349,4,1,0,100,0,1
134042,-85.1651109103684,4,1,0,100,0,1
134152,-84.6975444200439,4,1,0,100,0,1
134261,-84.2392653263837,4,1,0,100,0,1
134371,-83.7817822759812,4,1,0,100,0,1
134480,-83.3333333333333,4,1,0,100,0,1
134593,300,3,1,0,5,1,8
134593,-133.333333333333,3,1,0,5,0,0
135418,-133.333333333333,3,1,0,75,0,0
135493,250,7,1,0,75,1,0
138993,240,7,1,0,79,1,0
142353,222.222222222222,7,1,0,81,1,1
143908,210.526315789474,7,1,0,90,1,1
145381,200,7,1,0,100,1,1
146781,190.47619047619,7,1,0,100,1,1
148114,176.991150442478,42,1,11,25,1,0
148114,-20,7,1,11,25,0,0
149352,-111.111111111111,7,1,11,25,0,0
150591,-125,7,1,11,25,0,0
151830,-142.857142857143,7,1,11,25,0,0
153069,-166.666666666667,7,1,11,25,0,0
154308,-200,7,1,11,25,0,0

[HitObjects]
256,192,4388,5,8,0:0:0:0:
256,192,4606,1,8,0:0:0:0:
256,192,4825,1,8,0:0:0:0:
256,192,5044,1,8,0:0:0:0:
256,192,5264,1,8,0:0:0:0:
256,192,5482,1,8,0:0:0:0:
256,192,5701,1,8,0:0:0:0:
256,192,5920,1,8,0:0:0:0:
256,192,6140,1,8,0:0:0:0:
256,192,6358,1,8,0:0:0:0:
256,192,6577,1,8,0:0:0:0:
256,192,6796,1,8,0:0:0:0:
256,192,7016,1,8,0:0:0:0:
256,192,7234,1,8,0:0:0:0:
256,192,7453,1,8,0:0:0:0:
256,192,7672,1,8,0:0:0:0:
256,192,7891,1,4,0:0:0:0:
256,192,8110,1,8,0:0:0:0:
256,192,8219,1,8,0:0:0:0:
256,192,8329,1,0,0:0:0:0:
256,192,8438,1,8,0:0:0:0:
256,192,8548,1,0,0:0:0:0:
256,192,8602,1,0,0:0:0:0:
256,192,8657,1,8,0:0:0:0:
256,192,8767,1,0,0:0:0:0:
256,192,8986,1,8,0:0:0:0:
256,192,9040,1,8,0:0:0:0:
256,192,9095,1,0,0:0:0:0:
256,192,9205,1,8,0:0:0:0:
256,192,9424,1,8,0:0:0:0:
256,192,9533,1,8,0:0:0:0:
256,192,9643,1,0,0:0:0:0:
256,192,9752,1,8,0:0:0:0:
256,192,9862,1,0,0:0:0:0:
256,192,9971,1,8,0:0:0:0:
256,192,10190,1,0,0:0:0:0:
256,192,10300,1,8,0:0:0:0:
256,192,10409,1,8,0:0:0:0:
256,192,10519,1,0,0:0:0:0:
256,192,10573,1,0,0:0:0:0:
256,192,10628,1,8,0:0:0:0:
256,192,10738,1,8,0:0:0:0:
256,192,10847,1,0,0:0:0:0:
256,192,10956,1,8,0:0:0:0:
256,192,11066,1,8,0:0:0:0:
256,192,11175,1,8,0:0:0:0:
256,192,11394,1,0,0:0:0:0:
256,192,11613,1,8,0:0:0:0:
256,192,11722,1,8,0:0:0:0:
256,192,11832,1,0,0:0:0:0:
256,192,11941,1,0,0:0:0:0:
256,192,12051,1,8,0:0:0:0:
256,192,12105,1,8,0:0:0:0:
256,192,12160,1,0,0:0:0:0:
256,192,12270,1,8,0:0:0:0:
256,192,12489,1,0,0:0:0:0:
256,192,12544,1,0,0:0:0:0:
256,192,12598,1,0,0:0:0:0:
256,192,12708,1,8,0:0:0:0:
256,192,12927,1,0,0:0:0:0:
256,192,13037,1,0,0:0:0:0:
256,192,13146,1,8,0:0:0:0:
256,192,13255,1,8,0:0:0:0:
256,192,13365,1,0,0:0:0:0:
256,192,13474,1,8,0:0:0:0:
256,192,13693,1,0,0:0:0:0:
256,192,13803,1,8,0:0:0:0:
256,192,13912,1,0,0:0:0:0:
256,192,14022,1,8,0:0:0:0:
256,192,14076,1,8,0:0:0:0:
256,192,14131,1,8,0:0:0:0:
256,192,14241,1,0,0:0:0:0:
256,192,14350,1,8,0:0:0:0:
256,192,14459,1,8,0:0:0:0:
256,192,14569,1,0,0:0:0:0:
256,192,14679,1,8,0:0:0:0:
256,192,14898,1,4,0:0:0:0:
256,192,15117,1,8,0:0:0:0:
256,192,15226,1,8,0:0:0:0:
256,192,15336,1,0,0:0:0:0:
256,192,15445,1,8,0:0:0:0:
256,192,15555,1,0,0:0:0:0:
256,192,15609,1,0,0:0:0:0:
256,192,15664,1,8,0:0:0:0:
256,192,15774,1,0,0:0:0:0:
256,192,15993,1,8,0:0:0:0:
256,192,16047,1,8,0:0:0:0:
256,192,16102,1,0,0:0:0:0:
256,192,16212,1,8,0:0:0:0:
256,192,16431,1,8,0:0:0:0:
256,192,16540,1,8,0:0:0:0:
256,192,16650,1,0,0:0:0:0:
256,192,16759,1,8,0:0:0:0:
256,192,16869,1,0,0:0:0:0:
256,192,16978,1,8,0:0:0:0:
256,192,17197,1,0,0:0:0:0:
256,192,17307,1,8,0:0:0:0:
256,192,17416,1,8,0:0:0:0:
256,192,17526,1,0,0:0:0:0:
256,192,17580,1,0,0:0:0:0:
256,192,17635,1,8,0:0:0:0:
256,192,17745,1,8,0:0:0:0:
256,192,17854,1,0,0:0:0:0:
256,192,17963,1,8,0:0:0:0:
256,192,18073,1,8,0:0:0:0:
256,192,18182,1,8,0:0:0:0:
256,192,18401,1,0,0:0:0:0:
256,192,18620,1,8,0:0:0:0:
256,192,18729,1,8,0:0:0:0:
256,192,18839,1,0,0:0:0:0:
256,192,18948,1,0,0:0:0:0:
256,192,19058,1,8,0:0:0:0:
256,192,19112,1,8,0:0:0:0:
256,192,19167,1,0,0:0:0:0:
256,192,19277,1,8,0:0:0:0:
256,192,19496,1,0,0:0:0:0:
256,192,19551,1,0,0:0:0:0:
256,192,19605,1,0,0:0:0:0:
256,192,19715,1,8,0:0:0:0:
256,192,19934,1,0,0:0:0:0:
256,192,20044,1,0,0:0:0:0:
256,192,20153,1,8,0:0:0:0:
256,192,20262,1,8,0:0:0:0:
256,192,20372,1,0,0:0:0:0:
256,192,20481,1,8,0:0:0:0:
256,192,20700,5,0,0:0:0:0:
256,192,20810,1,8,0:0:0:0:
256,192,21029,1,8,0:0:0:0:
256,192,21138,1,8,0:0:0:0:
256,192,21248,1,0,0:0:0:0:
256,192,21358,1,8,0:0:0:0:
256,192,21467,1,0,0:0:0:0:
256,192,21577,1,0,0:0:0:0:
256,192,21686,1,8,0:0:0:0:
256,192,21796,1,8,0:0:0:0:
256,192,21905,1,4,0:0:0:0:
256,192,22124,1,8,0:0:0:0:
256,192,22343,1,0,0:0:0:0:
256,192,22453,1,8,0:0:0:0:
256,192,22562,1,0,0:0:0:0:
256,192,22672,1,0,0:0:0:0:
256,192,22781,1,8,0:0:0:0:
256,192,22891,1,0,0:0:0:0:
256,192,23000,1,8,0:0:0:0:
256,192,23110,1,8,0:0:0:0:
256,192,23329,1,0,0:0:0:0:
256,192,23438,1,0,0:0:0:0:
256,192,23657,1,8,0:0:0:0:
256,192,23767,1,8,0:0:0:0:
256,192,23876,1,0,0:0:0:0:
256,192,23986,1,0,0:0:0:0:
256,192,24205,1,0,0:0:0:0:
256,192,24314,1,8,0:0:0:0:
256,192,24424,1,8,0:0:0:0:
256,192,24533,1,0,0:0:0:0:
256,192,24643,1,0,0:0:0:0:
256,192,24862,1,0,0:0:0:0:
256,192,24971,1,8,0:0:0:0:
256,192,25081,1,0,0:0:0:0:
256,192,25190,1,8,0:0:0:0:
256,192,25300,1,8,0:0:0:0:
256,192,25409,1,0,0:0:0:0:
256,192,25628,1,8,0:0:0:0:
256,192,25738,1,0,0:0:0:0:
256,192,25847,1,0,0:0:0:0:
256,192,25956,1,8,0:0:0:0:
256,192,26066,1,0,0:0:0:0:
256,192,26175,1,0,0:0:0:0:
256,192,26285,1,8,0:0:0:0:
256,192,26504,1,0,0:0:0:0:
256,192,26613,1,8,0:0:0:0:
256,192,26723,1,0,0:0:0:0:
256,192,26942,1,8,0:0:0:0:
256,192,27051,1,0,0:0:0:0:
256,192,27161,1,8,0:0:0:0:
256,192,27270,1,0,0:0:0:0:
256,192,27380,1,0,0:0:0:0:
256,192,27489,1,8,0:0:0:0:
256,192,27708,1,0,0:0:0:0:
256,192,27818,1,8,0:0:0:0:
256,192,27927,1,8,0:0:0:0:
256,192,28037,1,0,0:0:0:0:
256,192,28092,1,0,0:0:0:0:
256,192,28146,1,0,0:0:0:0:
256,192,28256,1,8,0:0:0:0:
256,192,28475,1,8,0:0:0:0:
256,192,28584,1,8,0:0:0:0:
256,192,28694,1,0,0:0:0:0:
256,192,28803,1,8,0:0:0:0:
256,192,28913,1,0,0:0:0:0:
256,192,29132,1,8,0:0:0:0:
256,192,29351,1,0,0:0:0:0:
256,192,29460,1,8,0:0:0:0:
256,192,29570,1,0,0:0:0:0:
256,192,29679,1,0,0:0:0:0:
256,192,29789,1,8,0:0:0:0:
256,192,29898,1,0,0:0:0:0:
256,192,30008,1,8,0:0:0:0:
256,192,30117,1,8,0:0:0:0:
256,192,30336,1,0,0:0:0:0:
256,192,30446,1,0,0:0:0:0:
256,192,30665,1,8,0:0:0:0:
256,192,30774,1,8,0:0:0:0:
256,192,30883,1,0,0:0:0:0:
256,192,30993,1,0,0:0:0:0:
256,192,31212,1,0,0:0:0:0:
256,192,31321,1,8,0:0:0:0:
256,192,31431,1,8,0:0:0:0:
256,192,31540,1,0,0:0:0:0:
256,192,31650,1,0,0:0:0:0:
256,192,31869,1,0,0:0:0:0:
256,192,31978,1,8,0:0:0:0:
256,192,32088,1,0,0:0:0:0:
256,192,32197,1,8,0:0:0:0:
256,192,32307,1,8,0:0:0:0:
256,192,32416,1,0,0:0:0:0:
256,192,32635,1,8,0:0:0:0:
256,192,32745,1,0,0:0:0:0:
256,192,32854,1,0,0:0:0:0:
256,192,32964,1,8,0:0:0:0:
256,192,33073,1,0,0:0:0:0:
256,192,33183,1,0,0:0:0:0:
256,192,33292,1,8,0:0:0:0:
256,192,33511,1,0,0:0:0:0:
256,192,33621,1,8,0:0:0:0:
256,192,33730,1,0,0:0:0:0:
256,192,33949,1,8,0:0:0:0:
256,192,34059,1,0,0:0:0:0:
256,192,34168,1,8,0:0:0:0:
256,192,34387,1,0,0:0:0:0:
256,192,34497,1,8,0:0:0:0:
256,192,34716,1,0,0:0:0:0:
256,192,34825,1,8,0:0:0:0:
256,192,35044,1,8,0:0:0:0:
256,192,35154,1,8,0:0:0:0:
256,192,35263,1,0,0:0:0:0:
256,192,35373,1,8,0:0:0:0:
256,192,35482,1,0,0:0:0:0:
256,192,35592,1,0,0:0:0:0:
256,192,35701,1,8,0:0:0:0:
256,192,35811,1,8,0:0:0:0:
256,192,35920,1,4,0:0:0:0:
256,192,36248,1,12,0:0:0:0:
256,192,36577,1,4,0:0:0:0:
256,192,36796,1,8,0:0:0:0:
256,192,36905,1,8,0:0:0:0:
256,192,37015,1,0,0:0:0:0:
256,192,37124,1,0,0:0:0:0:
256,192,37234,1,8,0:0:0:0:
256,192,37343,1,8,0:0:0:0:
256,192,37453,1,0,0:0:0:0:
256,192,37562,1,0,0:0:0:0:
256,192,37672,1,12,0:0:0:0:
256,192,38000,1,4,0:0:0:0:
256,192,38329,1,12,0:0:0:0:
256,192,38548,1,0,0:0:0:0:
256,192,38657,1,0,0:0:0:0:
256,192,38767,1,8,0:0:0:0:
256,192,38876,1,0,0:0:0:0:
256,192,38986,1,8,0:0:0:0:
256,192,39095,1,8,0:0:0:0:
256,192,39205,1,0,0:0:0:0:
256,192,39314,1,0,0:0:0:0:
256,192,39424,1,12,0:0:0:0:
256,192,39752,1,4,0:0:0:0:
256,192,40081,1,12,0:0:0:0:
256,192,40300,1,0,0:0:0:0:
256,192,40409,1,0,0:0:0:0:
256,192,40519,1,8,0:0:0:0:
256,192,40628,1,8,0:0:0:0:
256,192,40738,1,0,0:0:0:0:
256,192,40847,1,8,0:0:0:0:
256,192,40956,1,0,0:0:0:0:
256,192,41066,1,0,0:0:0:0:
256,192,41175,1,12,0:0:0:0:
256,192,41504,1,12,0:0:0:0:
256,192,41832,1,4,0:0:0:0:
256,192,42051,1,8,0:0:0:0:
256,192,42161,1,8,0:0:0:0:
256,192,42270,1,0,0:0:0:0:
256,192,42380,1,0,0:0:0:0:
256,192,42489,1,8,0:0:0:0:
256,192,42599,1,0,0:0:0:0:
256,192,42708,1,8,0:0:0:0:
256,192,42818,1,8,0:0:0:0:
256,192,42927,1,4,0:0:0:0:
256,192,43256,1,12,0:0:0:0:
256,192,43584,1,4,0:0:0:0:
256,192,43803,1,8,0:0:0:0:
256,192,43913,1,8,0:0:0:0:
256,192,44022,1,0,0:0:0:0:
256,192,44132,1,0,0:0:0:0:
256,192,44241,1,8,0:0:0:0:
256,192,44351,1,8,0:0:0:0:
256,192,44460,1,0,0:0:0:0:
256,192,44570,1,0,0:0:0:0:
256,192,44679,1,12,0:0:0:0:
256,192,45008,1,4,0:0:0:0:
256,192,45336,1,12,0:0:0:0:
256,192,45555,1,0,0:0:0:0:
256,192,45665,1,0,0:0:0:0:
256,192,45774,1,8,0:0:0:0:
256,192,45883,1,0,0:0:0:0:
256,192,45993,1,8,0:0:0:0:
256,192,46102,1,8,0:0:0:0:
256,192,46212,1,0,0:0:0:0:
256,192,46321,1,8,0:0:0:0:
256,192,46431,1,0,0:0:0:0:
256,192,46540,1,0,0:0:0:0:
256,192,46650,1,0,0:0:0:0:
256,192,46759,1,0,0:0:0:0:
256,192,46869,1,8,0:0:0:0:
256,192,46978,1,8,0:0:0:0:
256,192,47088,1,8,0:0:0:0:
256,192,47307,1,0,0:0:0:0:
256,192,47416,1,0,0:0:0:0:
256,192,47526,1,8,0:0:0:0:
256,192,47635,1,8,0:0:0:0:
256,192,47745,1,0,0:0:0:0:
256,192,47854,1,0,0:0:0:0:
256,192,47964,1,8,0:0:0:0:
256,192,48183,1,0,0:0:0:0:
256,192,48292,1,8,0:0:0:0:
256,192,48402,1,0,0:0:0:0:
256,192,48511,1,0,0:0:0:0:
256,192,48621,1,8,0:0:0:0:
256,192,48730,1,0,0:0:0:0:
256,192,48840,1,8,0:0:0:0:
256,192,48949,1,8,0:0:0:0:
256,192,49059,1,0,0:0:0:0:
256,192,49168,1,0,0:0:0:0:
256,192,49278,1,8,0:0:0:0:
256,192,49387,1,0,0:0:0:0:
256,192,49497,1,8,0:0:0:0:
256,192,49606,1,8,0:0:0:0:
256,192,49716,1,8,0:0:0:0:
256,192,49825,1,8,0:0:0:0:
256,192,53935,1,0,0:0:0:0:
256,192,54077,1,0,0:0:0:0:
256,192,54220,1,8,0:0:0:0:
256,192,54363,1,0,0:0:0:0:
256,192,54435,1,8,0:0:0:0:
256,192,54506,1,0,0:0:0:0:
256,192,54649,1,0,0:0:0:0:
256,192,54792,1,0,0:0:0:0:
256,192,54935,1,8,0:0:0:0:
256,192,55077,1,0,0:0:0:0:
256,192,55149,1,8,0:0:0:0:
256,192,55220,1,0,0:0:0:0:
256,192,55363,1,0,0:0:0:0:
256,192,55506,1,0,0:0:0:0:
256,192,55649,1,8,0:0:0:0:
256,192,55935,1,0,0:0:0:0:
256,192,56077,1,0,0:0:0:0:
256,192,56220,1,8,0:0:0:0:
256,192,56363,1,0,0:0:0:0:
256,192,56435,1,8,0:0:0:0:
256,192,56506,1,0,0:0:0:0:
256,192,56649,1,0,0:0:0:0:
256,192,56792,1,0,0:0:0:0:
256,192,56935,1,8,0:0:0:0:
256,192,57077,1,0,0:0:0:0:
256,192,57149,1,8,0:0:0:0:
256,192,57220,1,0,0:0:0:0:
256,192,57363,1,0,0:0:0:0:
256,192,57506,1,0,0:0:0:0:
256,192,57649,1,8,0:0:0:0:
256,192,57720,1,8,0:0:0:0:
256,192,57792,1,8,0:0:0:0:
256,192,57935,1,4,0:0:0:0:
256,192,58220,1,0,0:0:0:0:
256,192,58363,1,8,0:0:0:0:
256,192,58506,1,0,0:0:0:0:
256,192,58577,1,8,0:0:0:0:
256,192,58649,1,0,0:0:0:0:
256,192,58792,1,8,0:0:0:0:
256,192,58935,1,8,0:0:0:0:
256,192,59077,1,0,0:0:0:0:
256,192,59149,1,0,0:0:0:0:
256,192,59220,1,8,0:0:0:0:
256,192,59363,1,0,0:0:0:0:
256,192,59506,1,0,0:0:0:0:
256,192,59649,1,8,0:0:0:0:
256,192,59720,1,8,0:0:0:0:
256,192,59792,1,8,0:0:0:0:
256,192,59935,1,4,0:0:0:0:
256,192,60220,1,0,0:0:0:0:
256,192,60363,1,8,0:0:0:0:
256,192,60435,1,0,0:0:0:0:
256,192,60506,1,8,0:0:0:0:
256,192,60649,1,0,0:0:0:0:
256,192,60792,1,8,0:0:0:0:
256,192,60935,1,8,0:0:0:0:
256,192,61077,1,0,0:0:0:0:
256,192,61149,1,8,0:0:0:0:
256,192,61220,1,0,0:0:0:0:
256,192,61292,1,0,0:0:0:0:
256,192,61363,1,8,0:0:0:0:
256,192,61506,1,0,0:0:0:0:
256,192,61649,1,8,0:0:0:0:
256,192,61720,1,8,0:0:0:0:
256,192,61792,1,8,0:0:0:0:
256,192,61935,1,4,0:0:0:0:
256,192,62220,1,0,0:0:0:0:
256,192,62363,1,8,0:0:0:0:
256,192,62435,1,8,0:0:0:0:
256,192,62506,1,0,0:0:0:0:
256,192,62649,1,0,0:0:0:0:
256,192,62792,1,8,0:0:0:0:
256,192,62935,1,0,0:0:0:0:
256,192,63077,1,8,0:0:0:0:
256,192,63149,1,0,0:0:0:0:
256,192,63220,1,8,0:0:0:0:
256,192,63292,1,8,0:0:0:0:
256,192,63363,1,0,0:0:0:0:
256,192,63506,1,0,0:0:0:0:
256,192,63649,1,8,0:0:0:0:
256,192,63720,1,8,0:0:0:0:
256,192,63792,1,8,0:0:0:0:
256,192,63935,1,4,0:0:0:0:
256,192,64220,1,0,0:0:0:0:
256,192,64363,1,8,0:0:0:0:
256,192,64435,1,0,0:0:0:0:
256,192,64506,1,8,0:0:0:0:
256,192,64649,1,0,0:0:0:0:
256,192,64792,1,8,0:0:0:0:
256,192,64935,1,8,0:0:0:0:
256,192,65077,1,0,0:0:0:0:
256,192,65149,1,0,0:0:0:0:
256,192,65220,1,8,0:0:0:0:
256,192,65292,1,8,0:0:0:0:
256,192,65363,1,0,0:0:0:0:
256,192,65506,1,0,0:0:0:0:
256,192,65649,1,8,0:0:0:0:
256,192,65720,1,8,0:0:0:0:
256,192,65792,1,8,0:0:0:0:
256,192,65935,1,4,0:0:0:0:
256,192,66207,1,8,0:0:0:0:
256,192,66344,1,0,0:0:0:0:
256,192,66412,1,0,0:0:0:0:
256,192,66480,1,8,0:0:0:0:
256,192,66616,1,0,0:0:0:0:
256,192,66753,1,0,0:0:0:0:
256,192,66889,1,8,0:0:0:0:
256,192,67025,1,0,0:0:0:0:
256,192,67094,1,0,0:0:0:0:
256,192,67162,1,8,0:0:0:0:
256,192,67230,1,8,0:0:0:0:
256,192,67298,1,0,0:0:0:0:
256,192,67435,1,8,0:0:0:0:
256,192,67571,1,0,0:0:0:0:
256,192,67707,1,8,0:0:0:0:
256,192,67844,1,4,0:0:0:0:
256,192,68116,1,8,0:0:0:0:
256,192,68253,1,0,0:0:0:0:
256,192,68389,1,8,0:0:0:0:
256,192,68457,1,8,0:0:0:0:
256,192,68525,1,0,0:0:0:0:
256,192,68662,1,0,0:0:0:0:
256,192,68798,1,8,0:0:0:0:
256,192,68935,1,0,0:0:0:0:
256,192,69071,1,8,0:0:0:0:
256,192,69139,1,8,0:0:0:0:
256,192,69207,1,0,0:0:0:0:
256,192,69275,1,0,0:0:0:0:
256,192,69344,1,8,0:0:0:0:
256,192,69480,1,0,0:0:0:0:
256,192,69616,1,8,0:0:0:0:
256,192,69753,1,4,0:0:0:0:
256,192,70013,1,8,0:0:0:0:
256,192,70144,1,0,0:0:0:0:
256,192,70209,1,0,0:0:0:0:
256,192,70274,1,8,0:0:0:0:
256,192,70405,1,0,0:0:0:0:
256,192,70535,1,8,0:0:0:0:
256,192,70666,1,8,0:0:0:0:
256,192,70796,1,0,0:0:0:0:
256,192,70861,1,0,0:0:0:0:
256,192,70926,1,8,0:0:0:0:
256,192,70992,1,8,0:0:0:0:
256,192,71057,1,0,0:0:0:0:
256,192,71187,1,8,0:0:0:0:
256,192,71318,1,0,0:0:0:0:
256,192,71448,1,8,0:0:0:0:
256,192,71579,1,4,0:0:0:0:
256,192,71829,1,8,0:0:0:0:
256,192,71954,1,0,0:0:0:0:
256,192,72016,1,0,0:0:0:0:
256,192,72079,1,8,0:0:0:0:
256,192,72204,1,0,0:0:0:0:
256,192,72329,1,8,0:0:0:0:
256,192,72454,1,8,0:0:0:0:
256,192,72579,1,0,0:0:0:0:
256,192,72641,1,0,0:0:0:0:
256,192,72704,1,8,0:0:0:0:
256,192,72829,1,0,0:0:0:0:
256,192,72954,1,8,0:0:0:0:
256,192,73016,1,8,0:0:0:0:
256,192,73079,1,0,0:0:0:0:
256,192,73204,1,8,0:0:0:0:
256,192,73329,12,0,74949,0:0:0:0:
256,192,75009,12,0,76689,0:0:0:0:
256,192,78535,5,0,0:0:0:0:
256,192,78753,1,8,0:0:0:0:
256,192,78972,1,0,0:0:0:0:
256,192,79082,1,0,0:0:0:0:
256,192,79191,1,8,0:0:0:0:
256,192,79301,1,8,0:0:0:0:
256,192,79410,1,0,0:0:0:0:
256,192,79629,1,8,0:0:0:0:
256,192,79739,1,0,0:0:0:0:
256,192,79848,1,8,0:0:0:0:
256,192,80067,1,0,0:0:0:0:
256,192,80286,1,8,0:0:0:0:
256,192,80505,1,0,0:0:0:0:
256,192,80615,1,8,0:0:0:0:
256,192,80834,1,0,0:0:0:0:
256,192,80943,1,0,0:0:0:0:
256,192,81162,1,8,0:0:0:0:
256,192,81381,1,8,0:0:0:0:
256,192,81491,1,8,0:0:0:0:
256,192,81600,1,0,0:0:0:0:
256,192,81710,1,0,0:0:0:0:
256,192,81819,1,8,0:0:0:0:
256,192,82038,5,0,0:0:0:0:
256,192,82256,1,8,0:0:0:0:
256,192,82475,1,0,0:0:0:0:
256,192,82585,1,0,0:0:0:0:
256,192,82694,1,8,0:0:0:0:
256,192,82805,1,0,0:0:0:0:
256,192,82914,1,8,0:0:0:0:
256,192,83132,1,0,0:0:0:0:
256,192,83243,1,8,0:0:0:0:
256,192,83352,1,0,0:0:0:0:
256,192,83570,1,8,0:0:0:0:
256,192,83789,1,0,0:0:0:0:
256,192,84008,1,8,0:0:0:0:
256,192,84118,1,8,0:0:0:0:
256,192,84337,1,0,0:0:0:0:
256,192,84446,1,0,0:0:0:0:
256,192,84665,1,8,0:0:0:0:
256,192,84884,1,8,0:0:0:0:
256,192,84994,1,8,0:0:0:0:
256,192,85103,1,0,0:0:0:0:
256,192,85213,1,0,0:0:0:0:
256,192,85322,1,8,0:0:0:0:
256,192,85542,1,4,0:0:0:0:
256,192,85870,1,4,0:0:0:0:
256,192,86199,1,4,0:0:0:0:
256,192,86418,1,12,0:0:0:0:
256,192,86746,1,12,0:0:0:0:
256,192,87075,1,12,0:0:0:0:
256,192,87294,1,4,0:0:0:0:
256,192,87622,1,4,0:0:0:0:
256,192,87951,1,4,0:0:0:0:
256,192,88170,1,12,0:0:0:0:
256,192,88498,1,12,0:0:0:0:
256,192,88826,1,12,0:0:0:0:
256,192,89045,1,0,0:0:0:0:
256,192,89155,1,0,0:0:0:0:
256,192,89264,1,0,0:0:0:0:
256,192,89374,1,0,0:0:0:0:
256,192,89483,1,8,0:0:0:0:
256,192,89593,1,8,0:0:0:0:
256,192,89702,1,8,0:0:0:0:
256,192,89812,1,8,0:0:0:0:
256,192,89921,1,0,0:0:0:0:
256,192,90031,1,0,0:0:0:0:
256,192,90140,1,8,0:0:0:0:
256,192,90250,1,8,0:0:0:0:
256,192,90359,1,0,0:0:0:0:
256,192,90469,1,0,0:0:0:0:
256,192,90578,1,8,0:0:0:0:
256,192,90688,1,8,0:0:0:0:
256,192,91673,12,0,92440,0:0:0:0:
256,192,92549,5,4,0:0:0:0:
256,192,92768,1,8,0:0:0:0:
256,192,92987,1,0,0:0:0:0:
256,192,93097,1,8,0:0:0:0:
256,192,93206,1,0,0:0:0:0:
256,192,93316,1,0,0:0:0:0:
256,192,93425,1,8,0:0:0:0:
256,192,93480,1,8,0:0:0:0:
256,192,93535,1,8,0:0:0:0:
256,192,93644,1,0,0:0:0:0:
256,192,93753,1,8,0:0:0:0:
256,192,93972,1,0,0:0:0:0:
256,192,94082,1,8,0:0:0:0:
256,192,94191,1,8,0:0:0:0:
256,192,94301,1,0,0:0:0:0:
256,192,94356,1,0,0:0:0:0:
256,192,94410,1,0,0:0:0:0:
256,192,94520,1,8,0:0:0:0:
256,192,94739,1,0,0:0:0:0:
256,192,94848,1,8,0:0:0:0:
256,192,94903,1,8,0:0:0:0:
256,192,94958,1,0,0:0:0:0:
256,192,95067,1,8,0:0:0:0:
256,192,95177,1,0,0:0:0:0:
256,192,95396,1,8,0:0:0:0:
256,192,95505,1,8,0:0:0:0:
256,192,95615,1,0,0:0:0:0:
256,192,95724,1,0,0:0:0:0:
256,192,95834,1,8,0:0:0:0:
256,192,95889,1,8,0:0:0:0:
256,192,95943,1,8,0:0:0:0:
256,192,96053,1,0,0:0:0:0:
256,192,96272,1,0,0:0:0:0:
256,192,96381,1,8,0:0:0:0:
256,192,96491,1,0,0:0:0:0:
256,192,96545,1,0,0:0:0:0:
256,192,96600,1,0,0:0:0:0:
256,192,96710,1,8,0:0:0:0:
256,192,96819,1,8,0:0:0:0:
256,192,96929,1,0,0:0:0:0:
256,192,96983,1,0,0:0:0:0:
256,192,97038,1,8,0:0:0:0:
256,192,97148,1,0,0:0:0:0:
256,192,97257,1,8,0:0:0:0:
256,192,97476,1,0,0:0:0:0:
256,192,97586,1,8,0:0:0:0:
256,192,97695,1,0,0:0:0:0:
256,192,97805,1,8,0:0:0:0:
256,192,97914,1,0,0:0:0:0:
256,192,97969,1,0,0:0:0:0:
256,192,98024,1,0,0:0:0:0:
256,192,98133,1,8,0:0:0:0:
256,192,98352,1,0,0:0:0:0:
256,192,98462,1,8,0:0:0:0:
256,192,98571,1,8,0:0:0:0:
256,192,98680,1,0,0:0:0:0:
256,192,98790,1,8,0:0:0:0:
256,192,98845,1,8,0:0:0:0:
256,192,98899,1,0,0:0:0:0:
256,192,99009,1,8,0:0:0:0:
256,192,99118,1,0,0:0:0:0:
256,192,99173,1,0,0:0:0:0:
256,192,99228,1,8,0:0:0:0:
256,192,99337,1,0,0:0:0:0:
256,192,99556,5,4,0:0:0:0:
256,192,99775,1,8,0:0:0:0:
256,192,99994,1,0,0:0:0:0:
256,192,100104,1,8,0:0:0:0:
256,192,100213,1,0,0:0:0:0:
256,192,100323,1,0,0:0:0:0:
256,192,100432,1,8,0:0:0:0:
256,192,100487,1,8,0:0:0:0:
256,192,100542,1,8,0:0:0:0:
256,192,100651,1,0,0:0:0:0:
256,192,100760,1,8,0:0:0:0:
256,192,100979,1,0,0:0:0:0:
256,192,101089,1,8,0:0:0:0:
256,192,101198,1,8,0:0:0:0:
256,192,101308,1,0,0:0:0:0:
256,192,101363,1,0,0:0:0:0:
256,192,101417,1,0,0:0:0:0:
256,192,101527,1,8,0:0:0:0:
256,192,101746,1,0,0:0:0:0:
256,192,101855,1,8,0:0:0:0:
256,192,101910,1,8,0:0:0:0:
256,192,101965,1,0,0:0:0:0:
256,192,102074,1,8,0:0:0:0:
256,192,102184,1,0,0:0:0:0:
256,192,102403,1,8,0:0:0:0:
256,192,102512,1,8,0:0:0:0:
256,192,102622,1,0,0:0:0:0:
256,192,102731,1,0,0:0:0:0:
256,192,102841,1,8,0:0:0:0:
256,192,102896,1,8,0:0:0:0:
256,192,102950,1,8,0:0:0:0:
256,192,103060,1,0,0:0:0:0:
256,192,103279,1,0,0:0:0:0:
256,192,103388,1,8,0:0:0:0:
256,192,103498,1,0,0:0:0:0:
256,192,103552,1,0,0:0:0:0:
256,192,103607,1,0,0:0:0:0:
256,192,103717,1,8,0:0:0:0:
256,192,103826,1,8,0:0:0:0:
256,192,103936,1,0,0:0:0:0:
256,192,103990,1,0,0:0:0:0:
256,192,104045,1,8,0:0:0:0:
256,192,104155,1,0,0:0:0:0:
256,192,104264,1,8,0:0:0:0:
256,192,104483,1,0,0:0:0:0:
256,192,104593,1,8,0:0:0:0:
256,192,104702,1,0,0:0:0:0:
256,192,104812,1,8,0:0:0:0:
256,192,104921,1,0,0:0:0:0:
256,192,104976,1,0,0:0:0:0:
256,192,105031,1,0,0:0:0:0:
256,192,105140,1,8,0:0:0:0:
256,192,105359,1,0,0:0:0:0:
256,192,105469,1,8,0:0:0:0:
256,192,105578,1,8,0:0:0:0:
256,192,105687,1,0,0:0:0:0:
256,192,105797,1,8,0:0:0:0:
256,192,105852,1,8,0:0:0:0:
256,192,105906,1,0,0:0:0:0:
256,192,106016,1,8,0:0:0:0:
256,192,106125,1,0,0:0:0:0:
256,192,106180,1,0,0:0:0:0:
256,192,106235,5,8,0:0:0:0:
256,192,106344,1,0,0:0:0:0:
256,192,106454,1,0,0:0:0:0:
256,192,106564,1,12,0:0:0:0:
256,192,106783,1,8,0:0:0:0:
256,192,106892,1,0,0:0:0:0:
256,192,107002,1,0,0:0:0:0:
256,192,107111,1,8,0:0:0:0:
256,192,107221,1,0,0:0:0:0:
256,192,107330,1,0,0:0:0:0:
256,192,107440,1,8,0:0:0:0:
256,192,107549,1,0,0:0:0:0:
256,192,107659,1,0,0:0:0:0:
256,192,107768,1,8,0:0:0:0:
256,192,107878,1,0,0:0:0:0:
256,192,107932,1,0,0:0:0:0:
256,192,107987,1,0,0:0:0:0:
256,192,108097,1,8,0:0:0:0:
256,192,108316,1,8,0:0:0:0:
256,192,108425,1,8,0:0:0:0:
256,192,108535,1,0,0:0:0:0:
256,192,108644,1,8,0:0:0:0:
256,192,108753,1,0,0:0:0:0:
256,192,108863,1,0,0:0:0:0:
256,192,108972,1,8,0:0:0:0:
256,192,109082,1,8,0:0:0:0:
256,192,109191,1,0,0:0:0:0:
256,192,109301,1,8,0:0:0:0:
256,192,109410,1,0,0:0:0:0:
256,192,109520,1,0,0:0:0:0:
256,192,109629,1,8,0:0:0:0:
256,192,109739,1,8,0:0:0:0:
256,192,109848,1,0,0:0:0:0:
256,192,110067,1,4,0:0:0:0:
256,192,110286,1,8,0:0:0:0:
256,192,110396,1,0,0:0:0:0:
256,192,110505,1,0,0:0:0:0:
256,192,110615,1,8,0:0:0:0:
256,192,110724,1,0,0:0:0:0:
256,192,110834,1,0,0:0:0:0:
256,192,110943,1,8,0:0:0:0:
256,192,111053,1,0,0:0:0:0:
256,192,111162,1,0,0:0:0:0:
256,192,111272,1,8,0:0:0:0:
256,192,111381,1,0,0:0:0:0:
256,192,111436,1,0,0:0:0:0:
256,192,111491,1,0,0:0:0:0:
256,192,111600,1,8,0:0:0:0:
256,192,111819,1,8,0:0:0:0:
256,192,111929,1,0,0:0:0:0:
256,192,112038,1,8,0:0:0:0:
256,192,112148,1,8,0:0:0:0:
256,192,112257,1,0,0:0:0:0:
256,192,112367,1,0,0:0:0:0:
256,192,112476,1,8,0:0:0:0:
256,192,112586,1,8,0:0:0:0:
256,192,112695,1,0,0:0:0:0:
256,192,112805,1,8,0:0:0:0:
256,192,112914,1,0,0:0:0:0:
256,192,112969,1,0,0:0:0:0:
256,192,113024,1,8,0:0:0:0:
256,192,113133,1,0,0:0:0:0:
256,192,113243,1,8,0:0:0:0:
256,192,113352,1,0,0:0:0:0:
256,192,113571,1,4,0:0:0:0:
256,192,113790,1,8,0:0:0:0:
256,192,113899,1,0,0:0:0:0:
256,192,114009,1,0,0:0:0:0:
256,192,114118,1,8,0:0:0:0:
256,192,114228,1,0,0:0:0:0:
256,192,114337,1,0,0:0:0:0:
256,192,114447,1,8,0:0:0:0:
256,192,114556,1,0,0:0:0:0:
256,192,114666,1,0,0:0:0:0:
256,192,114775,1,8,0:0:0:0:
256,192,114885,1,0,0:0:0:0:
256,192,114940,1,0,0:0:0:0:
256,192,114994,1,0,0:0:0:0:
256,192,115104,1,8,0:0:0:0:
256,192,115323,1,8,0:0:0:0:
256,192,115432,1,8,0:0:0:0:
256,192,115542,1,0,0:0:0:0:
256,192,115651,1,8,0:0:0:0:
256,192,115706,1,8,0:0:0:0:
256,192,115761,1,0,0:0:0:0:
256,192,115870,1,0,0:0:0:0:
256,192,115980,1,8,0:0:0:0:
256,192,116089,1,8,0:0:0:0:
256,192,116199,1,0,0:0:0:0:
256,192,116308,1,8,0:0:0:0:
256,192,116418,1,0,0:0:0:0:
256,192,116527,1,0,0:0:0:0:
256,192,116637,1,8,0:0:0:0:
256,192,116746,1,8,0:0:0:0:
256,192,116856,1,0,0:0:0:0:
256,192,117075,1,4,0:0:0:0:
256,192,117294,1,8,0:0:0:0:
256,192,117403,1,0,0:0:0:0:
256,192,117513,1,0,0:0:0:0:
256,192,117622,1,8,0:0:0:0:
256,192,117732,1,0,0:0:0:0:
256,192,117841,1,0,0:0:0:0:
256,192,117951,1,8,0:0:0:0:
256,192,118060,1,0,0:0:0:0:
256,192,118170,1,0,0:0:0:0:
256,192,118279,1,8,0:0:0:0:
256,192,118389,1,0,0:0:0:0:
256,192,118443,1,0,0:0:0:0:
256,192,118498,1,0,0:0:0:0:
256,192,118607,1,8,0:0:0:0:
256,192,118826,1,8,0:0:0:0:
256,192,118936,1,8,0:0:0:0:
256,192,119045,1,0,0:0:0:0:
256,192,119155,1,8,0:0:0:0:
256,192,119264,1,0,0:0:0:0:
256,192,119319,1,0,0:0:0:0:
256,192,119374,1,8,0:0:0:0:
256,192,119483,1,0,0:0:0:0:
256,192,119593,1,8,0:0:0:0:
256,192,119702,1,0,0:0:0:0:
256,192,119812,1,0,0:0:0:0:
256,192,119921,1,8,0:0:0:0:
256,192,119976,1,8,0:0:0:0:
256,192,120031,1,0,0:0:0:0:
256,192,120140,1,8,0:0:0:0:
256,192,120250,1,0,0:0:0:0:
256,192,120359,1,8,0:0:0:0:
256,192,120578,1,4,0:0:0:0:
256,192,120797,1,8,0:0:0:0:
256,192,121016,1,0,0:0:0:0:
256,192,121126,1,8,0:0:0:0:
256,192,121235,1,0,0:0:0:0:
256,192,121345,1,0,0:0:0:0:
256,192,121454,1,8,0:0:0:0:
256,192,121564,1,0,0:0:0:0:
256,192,121618,1,0,0:0:0:0:
256,192,121673,1,8,0:0:0:0:
256,192,121892,1,0,0:0:0:0:
256,192,122002,1,0,0:0:0:0:
256,192,122111,1,8,0:0:0:0:
256,192,122166,1,8,0:0:0:0:
256,192,122221,1,0,0:0:0:0:
256,192,122330,1,8,0:0:0:0:
256,192,122549,1,0,0:0:0:0:
256,192,122659,1,8,0:0:0:0:
256,192,122768,1,0,0:0:0:0:
256,192,122878,1,8,0:0:0:0:
256,192,122987,1,0,0:0:0:0:
256,192,123042,1,0,0:0:0:0:
256,192,123097,1,8,0:0:0:0:
256,192,123151,1,8,0:0:0:0:
256,192,123206,1,0,0:0:0:0:
256,192,123316,1,8,0:0:0:0:
256,192,123370,1,8,0:0:0:0:
256,192,123425,1,8,0:0:0:0:
256,192,123644,1,0,0:0:0:0:
256,192,123753,1,0,0:0:0:0:
256,192,123863,1,8,0:0:0:0:
256,192,123972,1,0,0:0:0:0:
256,192,124027,1,0,0:0:0:0:
256,192,124082,1,8,0:0:0:0:
256,192,124191,1,0,0:0:0:0:
256,192,124301,1,8,0:0:0:0:
256,192,124410,1,0,0:0:0:0:
256,192,124520,1,8,0:0:0:0:
256,192,124629,1,8,0:0:0:0:
256,192,124739,1,0,0:0:0:0:
256,192,124794,1,0,0:0:0:0:
256,192,124848,1,8,0:0:0:0:
256,192,124958,1,0,0:0:0:0:
256,192,125067,1,8,0:0:0:0:
256,192,125122,1,8,0:0:0:0:
256,192,125177,1,0,0:0:0:0:
256,192,125286,1,8,0:0:0:0:
256,192,125396,1,0,0:0:0:0:
256,192,125451,1,0,0:0:0:0:
256,192,125505,1,8,0:0:0:0:
256,192,125560,1,8,0:0:0:0:
256,192,125615,1,0,0:0:0:0:
256,192,125834,1,8,0:0:0:0:
256,192,126053,1,0,0:0:0:0:
256,192,126162,1,8,0:0:0:0:
256,192,126381,1,8,0:0:0:0:
256,192,126491,1,0,0:0:0:0:
256,192,126600,1,0,0:0:0:0:
256,192,126710,1,8,0:0:0:0:
256,192,126819,1,0,0:0:0:0:
256,192,126874,1,0,0:0:0:0:
256,192,126929,1,8,0:0:0:0:
256,192,127038,1,0,0:0:0:0:
256,192,127148,1,8,0:0:0:0:
256,192,127257,1,0,0:0:0:0:
256,192,127312,1,0,0:0:0:0:
256,192,127367,1,8,0:0:0:0:
256,192,127586,1,4,0:0:0:0:
256,192,127805,1,0,0:0:0:0:
256,192,127914,1,8,0:0:0:0:
256,192,128024,1,0,0:0:0:0:
256,192,128133,1,0,0:0:0:0:
256,192,128243,1,8,0:0:0:0:
256,192,128352,1,8,0:0:0:0:
256,192,128462,1,0,0:0:0:0:
256,192,128516,1,0,0:0:0:0:
256,192,128571,1,0,0:0:0:0:
256,192,128680,1,8,0:0:0:0:
256,192,128790,1,0,0:0:0:0:
256,192,128899,1,8,0:0:0:0:
256,192,129009,1,8,0:0:0:0:
256,192,129118,1,0,0:0:0:0:
256,192,129337,1,8,0:0:0:0:
256,192,129447,1,0,0:0:0:0:
256,192,129556,1,8,0:0:0:0:
256,192,129666,1,0,0:0:0:0:
256,192,129775,1,8,0:0:0:0:
256,192,129830,1,8,0:0:0:0:
256,192,129885,1,0,0:0:0:0:
256,192,129994,1,8,0:0:0:0:
256,192,130104,1,0,0:0:0:0:
256,192,130213,1,8,0:0:0:0:
256,192,130323,1,8,0:0:0:0:
256,192,130432,1,0,0:0:0:0:
256,192,130542,1,8,0:0:0:0:
256,192,130651,1,0,0:0:0:0:
256,192,130706,1,0,0:0:0:0:
256,192,130761,1,0,0:0:0:0:
256,192,130870,1,8,0:0:0:0:
256,192,131089,1,0,0:0:0:0:
256,192,131199,1,0,0:0:0:0:
256,192,131308,1,0,0:0:0:0:
256,192,131418,1,0,0:0:0:0:
256,192,131527,1,8,0:0:0:0:
256,192,131637,1,8,0:0:0:0:
256,192,131746,1,8,0:0:0:0:
256,192,131856,1,8,0:0:0:0:
256,192,131965,1,0,0:0:0:0:
256,192,132075,1,0,0:0:0:0:
256,192,132184,1,0,0:0:0:0:
256,192,132294,1,0,0:0:0:0:
256,192,132403,1,8,0:0:0:0:
256,192,132513,1,8,0:0:0:0:
256,192,132622,1,8,0:0:0:0:
256,192,132732,1,8,0:0:0:0:
256,192,132841,1,0,0:0:0:0:
256,192,132951,1,0,0:0:0:0:
256,192,133060,1,8,0:0:0:0:
256,192,133170,1,8,0:0:0:0:
256,192,133279,1,0,0:0:0:0:
256,192,133389,1,0,0:0:0:0:
256,192,133498,1,8,0:0:0:0:
256,192,133607,1,8,0:0:0:0:
256,192,133717,1,0,0:0:0:0:
256,192,133826,1,0,0:0:0:0:
256,192,133936,1,8,0:0:0:0:
256,192,134045,1,8,0:0:0:0:
256,192,134155,1,8,0:0:0:0:
256,192,134264,1,8,0:0:0:0:
256,192,134374,1,8,0:0:0:0:
256,192,134483,1,8,0:0:0:0:
256,192,135493,1,4,0:0:0:0:
256,192,135743,1,0,0:0:0:0:
256,192,135868,1,8,0:0:0:0:
256,192,135930,1,8,0:0:0:0:
256,192,135993,1,0,0:0:0:0:
256,192,136118,1,0,0:0:0:0:
256,192,136243,1,8,0:0:0:0:
256,192,136368,1,8,0:0:0:0:
256,192,136493,1,0,0:0:0:0:
256,192,136555,1,0,0:0:0:0:
256,192,136618,1,8,0:0:0:0:
256,192,136680,1,8,0:0:0:0:
256,192,136743,1,0,0:0:0:0:
256,192,136868,1,0,0:0:0:0:
256,192,136993,1,8,0:0:0:0:
256,192,137118,1,8,0:0:0:0:
256,192,137243,1,4,0:0:0:0:
256,192,137493,1,0,0:0:0:0:
256,192,137618,1,8,0:0:0:0:
256,192,137680,1,0,0:0:0:0:
256,192,137743,1,8,0:0:0:0:
256,192,137868,1,0,0:0:0:0:
256,192,137993,1,8,0:0:0:0:
256,192,138118,1,8,0:0:0:0:
256,192,138243,1,0,0:0:0:0:
256,192,138305,1,0,0:0:0:0:
256,192,138368,1,8,0:0:0:0:
256,192,138493,1,0,0:0:0:0:
256,192,138618,1,0,0:0:0:0:
256,192,138743,1,8,0:0:0:0:
256,192,138805,1,8,0:0:0:0:
256,192,138868,1,8,0:0:0:0:
256,192,138993,1,4,0:0:0:0:
256,192,139233,1,0,0:0:0:0:
256,192,139353,1,8,0:0:0:0:
256,192,139413,1,8,0:0:0:0:
256,192,139473,1,0,0:0:0:0:
256,192,139593,1,0,0:0:0:0:
256,192,139713,1,8,0:0:0:0:
256,192,139833,1,8,0:0:0:0:
256,192,139953,1,0,0:0:0:0:
256,192,140013,1,0,0:0:0:0:
256,192,140073,1,8,0:0:0:0:
256,192,140193,1,0,0:0:0:0:
256,192,140313,1,0,0:0:0:0:
256,192,140433,1,8,0:0:0:0:
256,192,140493,1,8,0:0:0:0:
256,192,140553,1,8,0:0:0:0:
256,192,140673,1,4,0:0:0:0:
256,192,140913,1,8,0:0:0:0:
256,192,141033,1,0,0:0:0:0:
256,192,141093,1,0,0:0:0:0:
256,192,141153,1,8,0:0:0:0:
256,192,141273,1,0,0:0:0:0:
256,192,141393,1,8,0:0:0:0:
256,192,141513,1,8,0:0:0:0:
256,192,141633,1,0,0:0:0:0:
256,192,141693,1,0,0:0:0:0:
256,192,141753,1,8,0:0:0:0:
256,192,141873,1,0,0:0:0:0:
256,192,141993,1,0,0:0:0:0:
256,192,142113,1,8,0:0:0:0:
256,192,142233,1,8,0:0:0:0:
256,192,142353,1,0,0:0:0:0:
256,192,142575,1,8,0:0:0:0:
256,192,142686,1,0,0:0:0:0:
256,192,142797,1,8,0:0:0:0:
256,192,142853,1,8,0:0:0:0:
256,192,142908,1,8,0:0:0:0:
256,192,143019,1,0,0:0:0:0:
256,192,143130,1,8,0:0:0:0:
256,192,143241,1,0,0:0:0:0:
256,192,143353,1,8,0:0:0:0:
256,192,143464,1,0,0:0:0:0:
256,192,143519,1,0,0:0:0:0:
256,192,143575,1,0,0:0:0:0:
256,192,143686,1,8,0:0:0:0:
256,192,143797,1,8,0:0:0:0:
256,192,143908,1,0,0:0:0:0:
256,192,144118,1,8,0:0:0:0:
256,192,144223,1,0,0:0:0:0:
256,192,144329,1,8,0:0:0:0:
256,192,144434,1,0,0:0:0:0:
256,192,144539,1,8,0:0:0:0:
256,192,144644,1,8,0:0:0:0:
256,192,144750,1,0,0:0:0:0:
256,192,144855,1,8,0:0:0:0:
256,192,144960,1,0,0:0:0:0:
256,192,145013,1,0,0:0:0:0:
256,192,145065,1,8,0:0:0:0:
256,192,145171,1,0,0:0:0:0:
256,192,145276,1,8,0:0:0:0:
256,192,145381,1,0,0:0:0:0:
256,192,145581,1,0,0:0:0:0:
256,192,145681,1,0,0:0:0:0:
256,192,145781,1,8,0:0:0:0:
256,192,145881,1,8,0:0:0:0:
256,192,145981,1,0,0:0:0:0:
256,192,146081,1,8,0:0:0:0:
256,192,146181,1,0,0:0:0:0:
256,192,146281,1,0,0:0:0:0:
256,192,146381,1,8,0:0:0:0:
256,192,146481,1,8,0:0:0:0:
256,192,146581,1,8,0:0:0:0:
256,192,146681,1,8,0:0:0:0:
256,192,146781,1,0,0:0:0:0:
256,192,146971,1,0,0:0:0:0:
256,192,147066,1,0,0:0:0:0:
256,192,147161,1,8,0:0:0:0:
256,192,147257,1,8,0:0:0:0:
256,192,147352,1,0,0:0:0:0:
256,192,147447,1,0,0:0:0:0:
256,192,147542,1,8,0:0:0:0:
256,192,147638,1,8,0:0:0:0:
256,192,147733,1,0,0:0:0:0:
256,192,147828,1,0,0:0:0:0:
256,192,147923,1,8,0:0:0:0:
256,192,148114,12,0,154308,0:0:0:0:
