osu file format v14

[General]
AudioFilename: audio.mp3
AudioLeadIn: 0
PreviewTime: 91564
Countdown: 0
SampleSet: Normal
StackLeniency: 0.7
Mode: 1
LetterboxInBreaks: 0
WidescreenStoryboard: 1

[Editor]
DistanceSpacing: 0.6
BeatDivisor: 2
GridSize: 32
TimelineZoom: 1.200001

[Metadata]
Title:Apollo
TitleUnicode:Apollo
Artist:TJ.hangneil
ArtistUnicode:TJ.hangneil
Creator:Axer
Version:HEAVENLY's Futsuu
Source:オンゲキ R.E.D. PLUS
Tags:Skull Kid HiroK [Zeth] Genjuro Hivie Dusk- HEAVENLY MOON rubies87 TWC 2022 Taiko World Cup Grand Finals NM4 ongeki red+ r.e.d.+ video game electronic instrumental sasakure.UK artcore O.N.G.E.K.I. 音撃 皇城セツナ 皇城 刹那 スメラギ セツナ Sumeragi Setsuna チャプター Chapter 6 Skid eae finana ryugu _DUSK_ -dusk ginjani nomod no mod
BeatmapID:3561405
BeatmapSetID:1739877

[Difficulty]
HPDrainRate:7
CircleSize:7
OverallDifficulty:4
ApproachRate:4
SliderMultiplier:1.2
SliderTickRate:1

[Events]
//Background and Video events
0,0,"55Futsuu.jpg",0,0
Video,30,"output.mp4"
//Break Periods
2,78735,84222
//Storyboard Layer 0 (Background)
//Storyboard Layer 1 (Fail)
//Storyboard Layer 2 (Pass)
//Storyboard Layer 3 (Foreground)
//Storyboard Layer 4 (Overlay)
//Storyboard Sound Samples

[TimingPoints]
9,218.978102189781,4,1,0,89,1,8
9,-124.545454546881,4,1,0,89,0,8
884,218.978102189781,4,1,0,89,1,0
884,-124.545454546881,4,1,0,89,0,0
49935,285.714285714286,14,1,0,89,1,8
49935,-95.4545454544587,14,1,0,89,0,8
53935,285.714285714286,7,1,0,89,1,0
53935,-95.4545454544587,7,1,0,89,0,0
65935,272.727272727273,7,1,0,89,1,0
69753,260.869565217392,7,1,0,89,1,0
69753,-104.545454545502,7,1,0,89,0,0
71579,250,7,1,0,89,1,0
71579,-109.090909091702,7,1,0,89,0,0
73329,240,7,1,11,89,1,0
73329,-113.636363636364,7,1,11,89,0,0
76689,230.769230769231,8,1,0,89,1,8
76689,-118.181818182355,8,1,0,89,0,8
78535,218.978102189781,4,1,0,89,1,0
78535,-124.545454546881,4,1,0,89,0,0
92549,-100,4,1,0,89,0,1
106564,-100,4,1,0,89,0,0
134593,300,3,1,0,89,1,8
135493,250,7,1,0,89,1,0
135493,-109.090909091702,7,1,0,89,0,0
138993,240,7,1,0,89,1,0
138993,-113.636363636364,7,1,0,89,0,0
142353,222.222222222222,7,1,0,89,1,1
142353,-117.391304348081,7,1,0,89,0,1
143908,210.526315789474,7,1,0,89,1,1
143908,-123.913043478207,7,1,0,89,0,1
145381,200,7,1,0,89,1,1
145381,-130.43478260983,7,1,0,89,0,1
146781,190.47619047619,7,1,0,89,1,1
146781,-136.956521740768,7,1,0,89,0,1
148114,176.991150442478,42,1,0,89,1,0
148114,-147.391304349165,7,1,0,89,0,8

[HitObjects]
256,192,7891,5,6,0:0:0:0:
256,192,8110,1,0,0:0:0:0:
256,192,8329,1,2,0:0:0:0:
256,192,8438,1,0,0:0:0:0:
256,192,8548,1,0,0:0:0:0:
256,192,8767,1,2,0:0:0:0:
256,192,9095,1,0,0:0:0:0:
256,192,9205,1,2,0:0:0:0:
256,192,9533,1,2,0:0:0:0:
256,192,9643,1,0,0:0:0:0:
256,192,9862,1,0,0:0:0:0:
256,192,10081,1,2,0:0:0:0:
256,192,10190,1,2,0:0:0:0:
256,192,10300,1,0,0:0:0:0:
256,192,10519,1,2,0:0:0:0:
256,192,10738,1,0,0:0:0:0:
256,192,10956,1,2,0:0:0:0:
256,192,11066,1,0,0:0:0:0:
256,192,11285,1,0,0:0:0:0:
256,192,11394,1,2,0:0:0:0:
256,192,11832,1,0,0:0:0:0:
256,192,12051,1,0,0:0:0:0:
256,192,12161,1,2,0:0:0:0:
256,192,12270,1,2,0:0:0:0:
256,192,12599,1,0,0:0:0:0:
256,192,12708,1,2,0:0:0:0:
256,192,13037,1,2,0:0:0:0:
256,192,13146,1,0,0:0:0:0:
256,192,13365,1,0,0:0:0:0:
256,192,13584,1,2,0:0:0:0:
256,192,13694,1,0,0:0:0:0:
256,192,13803,1,2,0:0:0:0:
256,192,14022,1,0,0:0:0:0:
256,192,14241,1,0,0:0:0:0:
256,192,14460,1,2,0:0:0:0:
256,192,14679,1,0,0:0:0:0:
256,192,14789,1,0,0:0:0:0:
256,192,14898,1,2,0:0:0:0:
256,192,15336,1,2,0:0:0:0:
256,192,15555,1,2,0:0:0:0:
256,192,15665,1,0,0:0:0:0:
256,192,15774,1,2,0:0:0:0:
256,192,16102,1,0,0:0:0:0:
256,192,16212,1,2,0:0:0:0:
256,192,16540,1,0,0:0:0:0:
256,192,16650,1,0,0:0:0:0:
256,192,16869,1,0,0:0:0:0:
256,192,17088,1,2,0:0:0:0:
256,192,17197,1,2,0:0:0:0:
256,192,17307,1,0,0:0:0:0:
256,192,17526,1,2,0:0:0:0:
256,192,17745,1,0,0:0:0:0:
256,192,17964,1,2,0:0:0:0:
256,192,18073,1,2,0:0:0:0:
256,192,18292,1,0,0:0:0:0:
256,192,18402,1,2,0:0:0:0:
256,192,18840,1,0,0:0:0:0:
256,192,19059,1,0,0:0:0:0:
256,192,19168,1,0,0:0:0:0:
256,192,19278,1,2,0:0:0:0:
256,192,19606,1,0,0:0:0:0:
256,192,19716,1,2,0:0:0:0:
256,192,20044,1,2,0:0:0:0:
256,192,20154,1,0,0:0:0:0:
256,192,20373,1,0,0:0:0:0:
256,192,20592,1,2,0:0:0:0:
256,192,20701,1,0,0:0:0:0:
256,192,20811,1,0,0:0:0:0:
256,192,21029,1,2,0:0:0:0:
256,192,21248,1,2,0:0:0:0:
256,192,21467,1,2,0:0:0:0:
256,192,21577,1,2,0:0:0:0:
256,192,21686,1,2,0:0:0:0:
256,192,21796,1,2,0:0:0:0:
256,192,21905,1,2,0:0:0:0:
256,192,22234,1,0,0:0:0:0:
256,192,22562,1,2,0:0:0:0:
256,192,23219,1,2,0:0:0:0:
256,192,23657,1,0,0:0:0:0:
256,192,23876,1,2,0:0:0:0:
256,192,23986,1,0,0:0:0:0:
256,192,24314,1,0,0:0:0:0:
256,192,24533,1,2,0:0:0:0:
256,192,24971,1,0,0:0:0:0:
256,192,25190,1,2,0:0:0:0:
256,192,25409,1,0,0:0:0:0:
256,192,25738,1,2,0:0:0:0:
256,192,25847,1,2,0:0:0:0:
256,192,26285,1,0,0:0:0:0:
256,192,26394,1,0,0:0:0:0:
256,192,26504,1,2,0:0:0:0:
256,192,26723,1,0,0:0:0:0:
256,192,27161,1,2,0:0:0:0:
256,192,27489,1,0,0:0:0:0:
256,192,27818,1,2,0:0:0:0:
256,192,28037,1,0,0:0:0:0:
256,192,28475,1,2,0:0:0:0:
256,192,28694,1,2,0:0:0:0:
256,192,28803,1,0,0:0:0:0:
256,192,28913,1,2,0:0:0:0:
256,192,29241,1,0,0:0:0:0:
256,192,29570,1,2,0:0:0:0:
256,192,30008,1,0,0:0:0:0:
256,192,30227,1,2,0:0:0:0:
256,192,30665,1,0,0:0:0:0:
256,192,30883,1,2,0:0:0:0:
256,192,30993,1,0,0:0:0:0:
256,192,31321,1,0,0:0:0:0:
256,192,31540,1,2,0:0:0:0:
256,192,31978,1,0,0:0:0:0:
256,192,32197,1,2,0:0:0:0:
256,192,32416,1,0,0:0:0:0:
256,192,32635,1,0,0:0:0:0:
256,192,32745,1,2,0:0:0:0:
256,192,33073,1,0,0:0:0:0:
256,192,33402,1,2,0:0:0:0:
256,192,33511,1,2,0:0:0:0:
256,192,33730,1,0,0:0:0:0:
256,192,34168,1,2,0:0:0:0:
256,192,34497,1,0,0:0:0:0:
256,192,34825,1,0,0:0:0:0:
256,192,35044,1,2,0:0:0:0:
256,192,35263,1,2,0:0:0:0:
256,192,35482,1,2,0:0:0:0:
256,192,35592,1,2,0:0:0:0:
256,192,35701,1,2,0:0:0:0:
256,192,35811,1,2,0:0:0:0:
256,192,35920,1,2,0:0:0:0:
256,192,36248,1,2,0:0:0:0:
256,192,36577,1,0,0:0:0:0:
256,192,36796,1,2,0:0:0:0:
256,192,36905,1,2,0:0:0:0:
256,192,37015,1,2,0:0:0:0:
256,192,37234,1,2,0:0:0:0:
256,192,37343,1,2,0:0:0:0:
256,192,37453,1,2,0:0:0:0:
256,192,37672,1,2,0:0:0:0:
256,192,38000,1,0,0:0:0:0:
256,192,38329,1,0,0:0:0:0:
256,192,38548,1,2,0:0:0:0:
256,192,38767,1,2,0:0:0:0:
256,192,38986,1,2,0:0:0:0:
256,192,39095,1,2,0:0:0:0:
256,192,39205,1,2,0:0:0:0:
256,192,39314,1,2,0:0:0:0:
256,192,39424,1,2,0:0:0:0:
256,192,39752,1,0,0:0:0:0:
256,192,40300,1,2,0:0:0:0:
256,192,40409,1,2,0:0:0:0:
256,192,40519,1,2,0:0:0:0:
256,192,40738,1,2,0:0:0:0:
256,192,40847,1,2,0:0:0:0:
256,192,40956,1,2,0:0:0:0:
256,192,41175,1,2,0:0:0:0:
256,192,41504,1,2,0:0:0:0:
256,192,41832,1,0,0:0:0:0:
256,192,42051,1,2,0:0:0:0:
256,192,42270,1,2,0:0:0:0:
256,192,42489,1,2,0:0:0:0:
256,192,42599,1,2,0:0:0:0:
256,192,42708,1,2,0:0:0:0:
256,192,42818,1,2,0:0:0:0:
256,192,42927,1,2,0:0:0:0:
256,192,43256,1,0,0:0:0:0:
256,192,43803,1,2,0:0:0:0:
256,192,43913,1,2,0:0:0:0:
256,192,44022,1,2,0:0:0:0:
256,192,44241,1,2,0:0:0:0:
256,192,44351,1,2,0:0:0:0:
256,192,44460,1,2,0:0:0:0:
256,192,44679,1,2,0:0:0:0:
256,192,45008,1,0,0:0:0:0:
256,192,45336,1,0,0:0:0:0:
256,192,45555,1,2,0:0:0:0:
256,192,45774,1,2,0:0:0:0:
256,192,45993,1,2,0:0:0:0:
256,192,46102,1,2,0:0:0:0:
256,192,46212,1,2,0:0:0:0:
256,192,46321,1,2,0:0:0:0:
256,192,46431,1,2,0:0:0:0:
256,192,46869,1,0,0:0:0:0:
256,192,46978,1,0,0:0:0:0:
256,192,47088,1,0,0:0:0:0:
256,192,47307,1,2,0:0:0:0:
256,192,47526,1,2,0:0:0:0:
256,192,47745,1,2,0:0:0:0:
256,192,47854,1,2,0:0:0:0:
256,192,47964,1,2,0:0:0:0:
256,192,48183,1,0,0:0:0:0:
256,192,48402,1,0,0:0:0:0:
256,192,48621,1,0,0:0:0:0:
256,192,48730,1,0,0:0:0:0:
256,192,48840,1,0,0:0:0:0:
256,192,49059,1,2,0:0:0:0:
256,192,49278,1,2,0:0:0:0:
256,192,49497,1,2,0:0:0:0:
256,192,49606,1,2,0:0:0:0:
256,192,49716,1,2,0:0:0:0:
256,192,49825,1,2,0:0:0:0:
256,192,53935,1,0,0:0:0:0:
256,192,54077,1,0,0:0:0:0:
256,192,54220,1,2,0:0:0:0:
256,192,54506,1,0,0:0:0:0:
256,192,54935,1,2,0:0:0:0:
256,192,55077,1,0,0:0:0:0:
256,192,55363,1,0,0:0:0:0:
256,192,55649,1,2,0:0:0:0:
256,192,55792,1,2,0:0:0:0:
256,192,55935,1,0,0:0:0:0:
256,192,56220,1,2,0:0:0:0:
256,192,56649,1,0,0:0:0:0:
256,192,56792,1,0,0:0:0:0:
256,192,56935,1,2,0:0:0:0:
256,192,57220,1,0,0:0:0:0:
256,192,57506,1,0,0:0:0:0:
256,192,57649,1,2,0:0:0:0:
256,192,57935,1,6,0:0:0:0:
256,192,58506,1,0,0:0:0:0:
256,192,58792,1,0,0:0:0:0:
256,192,59077,1,2,0:0:0:0:
256,192,59363,1,2,0:0:0:0:
256,192,59649,1,0,0:0:0:0:
256,192,59792,1,0,0:0:0:0:
256,192,59935,1,2,0:0:0:0:
256,192,60220,1,2,0:0:0:0:
256,192,60506,1,0,0:0:0:0:
256,192,60792,1,2,0:0:0:0:
256,192,61077,1,2,0:0:0:0:
256,192,61363,1,0,0:0:0:0:
256,192,61649,1,2,0:0:0:0:
256,192,61792,1,2,0:0:0:0:
256,192,61935,1,0,0:0:0:0:
256,192,62220,1,0,0:0:0:0:
256,192,62506,1,2,0:0:0:0:
256,192,62792,1,0,0:0:0:0:
256,192,63077,1,2,0:0:0:0:
256,192,63363,1,2,0:0:0:0:
256,192,63649,1,0,0:0:0:0:
256,192,63792,1,0,0:0:0:0:
256,192,63935,1,2,0:0:0:0:
256,192,64220,1,2,0:0:0:0:
256,192,64506,1,0,0:0:0:0:
256,192,64792,1,0,0:0:0:0:
256,192,65077,1,2,0:0:0:0:
256,192,65363,1,0,0:0:0:0:
256,192,65649,1,2,0:0:0:0:
256,192,65792,1,0,0:0:0:0:
256,192,65935,1,2,0:0:0:0:
256,192,66480,1,0,0:0:0:0:
256,192,66753,1,2,0:0:0:0:
256,192,67025,1,0,0:0:0:0:
256,192,67298,1,0,0:0:0:0:
256,192,67571,1,0,0:0:0:0:
256,192,67707,1,0,0:0:0:0:
256,192,67844,1,2,0:0:0:0:
256,192,68116,1,2,0:0:0:0:
256,192,68389,1,0,0:0:0:0:
256,192,68662,1,2,0:0:0:0:
256,192,68935,1,2,0:0:0:0:
256,192,69207,1,0,0:0:0:0:
256,192,69480,1,2,0:0:0:0:
256,192,69616,1,2,0:0:0:0:
256,192,69753,1,0,0:0:0:0:
256,192,70013,1,0,0:0:0:0:
256,192,70274,1,2,0:0:0:0:
256,192,70535,1,2,0:0:0:0:
256,192,70796,1,2,0:0:0:0:
256,192,71057,1,0,0:0:0:0:
256,192,71318,1,2,0:0:0:0:
256,192,71448,1,0,0:0:0:0:
256,192,71579,1,2,0:0:0:0:
256,192,71829,1,0,0:0:0:0:
256,192,72079,1,2,0:0:0:0:
256,192,72329,1,0,0:0:0:0:
256,192,72579,1,2,0:0:0:0:
256,192,72829,1,2,0:0:0:0:
256,192,73079,1,2,0:0:0:0:
256,192,73204,1,2,0:0:0:0:
83,156,73329,2,0,B|83:41|83:41|83:204|83:204|83:134|83:134|172:132|172:132|173:43|173:43|174:215,1,686.400020947266
236,215,75009,2,0,B|266:44|266:44|351:204|351:204|428:47|428:47|473:235,1,686.400020947266
256,192,76689,12,0,78535,0:0:0:0:
256,192,85542,5,2,0:0:0:0:
256,192,85870,1,2,0:0:0:0:
256,192,86199,1,2,0:0:0:0:
256,192,86418,1,0,0:0:0:0:
256,192,86746,1,2,0:0:0:0:
256,192,86856,1,0,0:0:0:0:
256,192,87184,1,0,0:0:0:0:
256,192,87294,1,2,0:0:0:0:
256,192,87622,1,2,0:0:0:0:
256,192,87951,1,0,0:0:0:0:
256,192,88170,1,2,0:0:0:0:
256,192,88498,1,0,0:0:0:0:
256,192,89045,1,2,0:0:0:0:
256,192,89264,1,2,0:0:0:0:
256,192,89483,1,0,0:0:0:0:
256,192,89593,1,0,0:0:0:0:
256,192,89702,1,0,0:0:0:0:
256,192,89921,1,2,0:0:0:0:
256,192,90140,1,0,0:0:0:0:
256,192,90359,1,2,0:0:0:0:
256,192,90469,1,2,0:0:0:0:
256,192,90578,1,2,0:0:0:0:
256,192,91673,12,0,92330,0:0:0:0:
256,192,92549,5,10,0:0:0:0:
256,192,92768,1,0,0:0:0:0:
256,192,92878,1,0,0:0:0:0:
256,192,92987,1,2,0:0:0:0:
256,192,93206,1,0,0:0:0:0:
256,192,93425,1,2,0:0:0:0:
256,192,93644,1,2,0:0:0:0:
256,192,93753,1,0,0:0:0:0:
256,192,93972,1,0,0:0:0:0:
256,192,94082,1,2,0:0:0:0:
256,192,94301,1,2,0:0:0:0:
256,192,94410,1,2,0:0:0:0:
256,192,94520,1,2,0:0:0:0:
256,192,94848,1,0,0:0:0:0:
256,192,95067,1,0,0:0:0:0:
256,192,95177,1,2,0:0:0:0:
256,192,95396,1,2,0:0:0:0:
256,192,95505,1,0,0:0:0:0:
256,192,96053,1,2,0:0:0:0:
256,192,96272,1,0,0:0:0:0:
256,192,96381,1,2,0:0:0:0:
256,192,96491,1,0,0:0:0:0:
256,192,96710,1,0,0:0:0:0:
256,192,96929,1,2,0:0:0:0:
256,192,97148,1,0,0:0:0:0:
256,192,97257,1,0,0:0:0:0:
256,192,97476,1,0,0:0:0:0:
256,192,97586,1,2,0:0:0:0:
256,192,97805,1,2,0:0:0:0:
256,192,98133,1,2,0:0:0:0:
256,192,98243,1,0,0:0:0:0:
256,192,98462,1,0,0:0:0:0:
256,192,98680,1,2,0:0:0:0:
256,192,98790,1,2,0:0:0:0:
256,192,98899,1,0,0:0:0:0:
256,192,99118,1,2,0:0:0:0:
256,192,99337,1,2,0:0:0:0:
256,192,99556,1,4,0:0:0:0:
256,192,99994,1,2,0:0:0:0:
256,192,100213,1,0,0:0:0:0:
256,192,100432,1,2,0:0:0:0:
256,192,100651,1,2,0:0:0:0:
256,192,100761,1,2,0:0:0:0:
256,192,100980,1,0,0:0:0:0:
256,192,101089,1,0,0:0:0:0:
256,192,101308,1,2,0:0:0:0:
256,192,101418,1,0,0:0:0:0:
256,192,101527,1,2,0:0:0:0:
256,192,101856,1,2,0:0:0:0:
256,192,101965,1,0,0:0:0:0:
256,192,102184,1,2,0:0:0:0:
256,192,102403,1,0,0:0:0:0:
256,192,102513,1,0,0:0:0:0:
256,192,102732,1,0,0:0:0:0:
256,192,102841,1,2,0:0:0:0:
256,192,103060,1,2,0:0:0:0:
256,192,103498,1,2,0:0:0:0:
256,192,103717,1,0,0:0:0:0:
256,192,103936,1,2,0:0:0:0:
256,192,104155,1,0,0:0:0:0:
256,192,104264,1,2,0:0:0:0:
256,192,104374,1,2,0:0:0:0:
256,192,104593,1,0,0:0:0:0:
256,192,104812,1,2,0:0:0:0:
256,192,105031,1,2,0:0:0:0:
256,192,105140,1,0,0:0:0:0:
256,192,105359,1,0,0:0:0:0:
256,192,105469,1,0,0:0:0:0:
256,192,105688,1,2,0:0:0:0:
256,192,105907,1,2,0:0:0:0:
256,192,106126,1,2,0:0:0:0:
256,192,106235,1,2,0:0:0:0:
256,192,106345,1,2,0:0:0:0:
256,192,106454,1,2,0:0:0:0:
256,192,106564,1,2,0:0:0:0:
256,192,106892,1,0,0:0:0:0:
256,192,107440,1,2,0:0:0:0:
256,192,107549,1,2,0:0:0:0:
256,192,107659,1,2,0:0:0:0:
256,192,107878,1,2,0:0:0:0:
256,192,107987,1,2,0:0:0:0:
256,192,108097,1,2,0:0:0:0:
256,192,108316,1,0,0:0:0:0:
256,192,108644,1,2,0:0:0:0:
256,192,108972,1,0,0:0:0:0:
256,192,109191,1,2,0:0:0:0:
256,192,109410,1,2,0:0:0:0:
256,192,109629,1,2,0:0:0:0:
256,192,109739,1,2,0:0:0:0:
256,192,109848,1,2,0:0:0:0:
256,192,109958,1,2,0:0:0:0:
256,192,110067,1,2,0:0:0:0:
256,192,110396,1,0,0:0:0:0:
256,192,110943,1,2,0:0:0:0:
256,192,111053,1,2,0:0:0:0:
256,192,111162,1,2,0:0:0:0:
256,192,111381,1,2,0:0:0:0:
256,192,111491,1,2,0:0:0:0:
256,192,111600,1,2,0:0:0:0:
256,192,111819,1,2,0:0:0:0:
256,192,112148,1,2,0:0:0:0:
256,192,112476,1,0,0:0:0:0:
256,192,112695,1,2,0:0:0:0:
256,192,112914,1,2,0:0:0:0:
256,192,113133,1,2,0:0:0:0:
256,192,113243,1,2,0:0:0:0:
256,192,113352,1,2,0:0:0:0:
256,192,113462,1,2,0:0:0:0:
256,192,113571,1,2,0:0:0:0:
256,192,113899,1,0,0:0:0:0:
256,192,114447,1,2,0:0:0:0:
256,192,114556,1,2,0:0:0:0:
256,192,114666,1,2,0:0:0:0:
256,192,114885,1,2,0:0:0:0:
256,192,114994,1,2,0:0:0:0:
256,192,115104,1,2,0:0:0:0:
256,192,115323,1,0,0:0:0:0:
256,192,115651,1,2,0:0:0:0:
256,192,115980,1,0,0:0:0:0:
256,192,116199,1,2,0:0:0:0:
256,192,116418,1,2,0:0:0:0:
256,192,116637,1,2,0:0:0:0:
256,192,116746,1,2,0:0:0:0:
256,192,116856,1,2,0:0:0:0:
256,192,116965,1,2,0:0:0:0:
256,192,117075,1,2,0:0:0:0:
256,192,117403,1,2,0:0:0:0:
256,192,117951,1,2,0:0:0:0:
256,192,118060,1,2,0:0:0:0:
256,192,118170,1,2,0:0:0:0:
256,192,118389,1,2,0:0:0:0:
256,192,118498,1,2,0:0:0:0:
256,192,118607,1,2,0:0:0:0:
256,192,118826,1,0,0:0:0:0:
256,192,119045,1,0,0:0:0:0:
256,192,119264,1,2,0:0:0:0:
256,192,119374,1,2,0:0:0:0:
256,192,119483,1,2,0:0:0:0:
256,192,119702,1,0,0:0:0:0:
256,192,119921,1,2,0:0:0:0:
256,192,120031,1,2,0:0:0:0:
256,192,120140,1,2,0:0:0:0:
256,192,120250,1,2,0:0:0:0:
256,192,120359,1,2,0:0:0:0:
256,192,120578,1,0,0:0:0:0:
256,192,121016,1,2,0:0:0:0:
256,192,121235,1,0,0:0:0:0:
256,192,121454,1,0,0:0:0:0:
256,192,121564,1,2,0:0:0:0:
256,192,121673,1,0,0:0:0:0:
256,192,121892,1,2,0:0:0:0:
256,192,122111,1,2,0:0:0:0:
256,192,122330,1,0,0:0:0:0:
256,192,122987,1,0,0:0:0:0:
256,192,123097,1,0,0:0:0:0:
256,192,123206,1,2,0:0:0:0:
256,192,123425,1,0,0:0:0:0:
256,192,123644,1,2,0:0:0:0:
256,192,123863,1,2,0:0:0:0:
256,192,123972,1,2,0:0:0:0:
256,192,124082,1,0,0:0:0:0:
256,192,124520,1,0,0:0:0:0:
256,192,124739,1,0,0:0:0:0:
256,192,124848,1,0,0:0:0:0:
256,192,124958,1,2,0:0:0:0:
256,192,125177,1,2,0:0:0:0:
256,192,125396,1,0,0:0:0:0:
256,192,125615,1,2,0:0:0:0:
256,192,125724,1,0,0:0:0:0:
256,192,125834,1,2,0:0:0:0:
256,192,126272,1,2,0:0:0:0:
256,192,126491,1,2,0:0:0:0:
256,192,126710,1,0,0:0:0:0:
256,192,127148,1,0,0:0:0:0:
256,192,127257,1,0,0:0:0:0:
256,192,127367,1,0,0:0:0:0:
256,192,127586,1,2,0:0:0:0:
256,192,127914,1,2,0:0:0:0:
256,192,128243,1,2,0:0:0:0:
256,192,128462,1,0,0:0:0:0:
256,192,128571,1,0,0:0:0:0:
256,192,128680,1,0,0:0:0:0:
256,192,128899,1,0,0:0:0:0:
256,192,129009,1,0,0:0:0:0:
256,192,129118,1,0,0:0:0:0:
256,192,129337,1,2,0:0:0:0:
256,192,129666,1,2,0:0:0:0:
256,192,129994,1,2,0:0:0:0:
256,192,130213,1,0,0:0:0:0:
256,192,130432,1,0,0:0:0:0:
256,192,130651,1,2,0:0:0:0:
256,192,130761,1,2,0:0:0:0:
256,192,130870,1,2,0:0:0:0:
256,192,130980,1,2,0:0:0:0:
256,192,131089,1,2,0:0:0:0:
256,192,131527,1,0,0:0:0:0:
256,192,131746,1,2,0:0:0:0:
256,192,131856,1,2,0:0:0:0:
256,192,131965,1,2,0:0:0:0:
256,192,132184,1,0,0:0:0:0:
256,192,132403,1,2,0:0:0:0:
256,192,132513,1,2,0:0:0:0:
256,192,132622,1,2,0:0:0:0:
256,192,132732,1,2,0:0:0:0:
256,192,132841,1,2,0:0:0:0:
256,192,133060,1,0,0:0:0:0:
256,192,133279,1,0,0:0:0:0:
256,192,133389,1,0,0:0:0:0:
256,192,133498,1,0,0:0:0:0:
256,192,133717,1,2,0:0:0:0:
256,192,133936,1,2,0:0:0:0:
256,192,134155,1,2,0:0:0:0:
256,192,134264,1,2,0:0:0:0:
256,192,134374,1,2,0:0:0:0:
256,192,134483,1,2,0:0:0:0:
256,192,135493,1,6,0:0:0:0:
256,192,135743,1,0,0:0:0:0:
256,192,135993,1,2,0:0:0:0:
256,192,136118,1,0,0:0:0:0:
256,192,136368,1,0,0:0:0:0:
256,192,136493,1,2,0:0:0:0:
256,192,136743,1,0,0:0:0:0:
256,192,136993,1,0,0:0:0:0:
256,192,137243,1,2,0:0:0:0:
256,192,137493,1,0,0:0:0:0:
256,192,137743,1,2,0:0:0:0:
256,192,137868,1,2,0:0:0:0:
256,192,138118,1,0,0:0:0:0:
256,192,138243,1,2,0:0:0:0:
256,192,138493,1,0,0:0:0:0:
256,192,138743,1,2,0:0:0:0:
256,192,138993,1,2,0:0:0:0:
256,192,139473,1,2,0:0:0:0:
256,192,139593,1,0,0:0:0:0:
256,192,139713,1,0,0:0:0:0:
256,192,139953,1,2,0:0:0:0:
256,192,140193,1,2,0:0:0:0:
256,192,140433,1,0,0:0:0:0:
256,192,140673,1,2,0:0:0:0:
256,192,140913,1,0,0:0:0:0:
256,192,141033,1,2,0:0:0:0:
256,192,141273,1,2,0:0:0:0:
256,192,141393,1,2,0:0:0:0:
256,192,141633,1,0,0:0:0:0:
256,192,141873,1,0,0:0:0:0:
256,192,142353,1,6,0:0:0:0:
256,192,142686,1,2,0:0:0:0:
256,192,143019,1,2,0:0:0:0:
256,192,143353,1,0,0:0:0:0:
256,192,143464,1,0,0:0:0:0:
256,192,143575,1,0,0:0:0:0:
256,192,143686,1,0,0:0:0:0:
256,192,143908,1,2,0:0:0:0:
256,192,144223,1,2,0:0:0:0:
256,192,144539,1,2,0:0:0:0:
256,192,144960,1,0,0:0:0:0:
256,192,145065,1,0,0:0:0:0:
256,192,145171,1,0,0:0:0:0:
256,192,145381,1,2,0:0:0:0:
256,192,145681,1,2,0:0:0:0:
256,192,145981,1,2,0:0:0:0:
256,192,146281,1,0,0:0:0:0:
256,192,146581,1,0,0:0:0:0:
256,192,146781,1,2,0:0:0:0:
256,192,147066,1,2,0:0:0:0:
256,192,147352,1,2,0:0:0:0:
256,192,147638,1,0,0:0:0:0:
256,192,147923,1,2,0:0:0:0:
256,192,148019,1,2,0:0:0:0:
256,192,148114,1,2,0:0:0:0:
