osu file format v14

[General]
AudioFilename: audio.mp3
AudioLeadIn: 0
PreviewTime: 91564
Countdown: 0
SampleSet: Normal
StackLeniency: 0
Mode: 1
LetterboxInBreaks: 0
WidescreenStoryboard: 0

[Editor]
Bookmarks: 7891,21905,35920,49935,78535,92549,120578,135493
DistanceSpacing: 0.6
BeatDivisor: 4
GridSize: 32
TimelineZoom: 3.1

[Metadata]
Title:Apollo
TitleUnicode:Apollo
Artist:TJ.hangneil
ArtistUnicode:TJ.hangneil
Creator:Axer
Version:Genjuro's Hell Oni
Source:オンゲキ R.E.D. PLUS
Tags:Skull Kid HiroK [Zeth] Genjuro Hivie Dusk- HEAVENLY MOON rubies87 TWC 2022 Taiko World Cup Grand Finals NM4 ongeki red+ r.e.d.+ video game electronic instrumental sasakure.UK artcore O.N.G.E.K.I. 音撃 皇城セツナ 皇城 刹那 スメラギ セツナ Sumeragi Setsuna チャプター Chapter 6 Skid eae finana ryugu _DUSK_ -dusk ginjani nomod no mod
BeatmapID:3560205
BeatmapSetID:1739877

[Difficulty]
HPDrainRate:8
CircleSize:2
OverallDifficulty:8
ApproachRate:10
SliderMultiplier:1.4
SliderTickRate:1

[Events]
//Background and Video events
Video,30,"output.mp4"
0,0,"131HellOni.jpg",0,0
//Break Periods
2,50025,53485
//Storyboard Layer 0 (Background)
//Storyboard Layer 1 (Fail)
//Storyboard Layer 2 (Pass)
//Storyboard Layer 3 (Foreground)
//Storyboard Layer 4 (Overlay)
//Storyboard Sound Samples

[TimingPoints]
9,218.978102189781,4,1,0,25,1,8
9,-50,4,1,0,25,0,8
884,218.978102189781,4,1,0,25,1,0
884,-200,4,1,0,25,0,0
1759,-213.319126265317,4,1,0,25,0,0
1760,-200,4,1,0,25,0,0
2635,-228.557449237544,4,1,0,25,0,0
2636,-200,4,1,0,25,0,0
3511,-246.140335470273,4,1,0,25,0,0
3512,-200,4,1,0,25,0,0
4387,-266.653981543145,4,1,0,25,0,0
4388,-200,4,1,0,25,0,0
5263,-290.897768552154,4,1,0,25,0,0
5264,-200,4,1,0,25,0,0
6139,-319.990866537276,4,1,0,25,0,0
6140,-200,4,1,0,25,0,0
7015,-355.549917544082,4,1,0,25,0,0
7016,-200,4,1,0,25,0,0
7781,-114.285714285714,4,1,0,75,0,0
21026,-100,4,1,0,75,0,0
21136,-96.956281128943,4,1,0,75,0,0
21245,-94.1176470588235,4,1,0,75,0,0
21355,-91.4166449256457,4,1,0,75,0,0
21464,-88.8888888888889,4,1,0,75,0,0
21574,-86.4758144126357,4,1,0,75,0,0
21683,-84.2105263157895,4,1,0,75,0,0
21793,-82.0416764223835,4,1,0,75,0,0
21902,-80,4,1,0,75,0,0
22015,-133.333333333333,4,1,0,75,0,0
34384,-128,4,1,0,75,0,0
34603,-123.076923076923,4,1,0,75,0,0
34713,-120.744314266023,4,1,0,75,0,0
34822,-118.518518518519,4,1,0,75,0,0
35041,-100,4,1,0,75,0,0
35151,-96.956281128943,4,1,0,75,0,0
35260,-94.1176470588235,4,1,0,75,0,0
35370,-91.4166449256457,4,1,0,75,0,0
35479,-88.8888888888889,4,1,0,75,0,0
35589,-86.4758144126357,4,1,0,75,0,0
35698,-84.2105263157895,4,1,0,75,0,0
35808,-82.0416764223835,4,1,0,75,0,0
35917,-80,4,1,0,75,0,0
46428,-200,4,1,0,75,0,0
46537,-188.285867813004,4,1,0,75,0,0
46647,-177.777777777778,4,1,0,75,0,0
46756,-168.461538461538,4,1,0,75,0,0
46866,-160,4,1,0,75,0,0
46975,-152.41409308395,4,1,0,75,0,0
47085,-145.454545454545,4,1,0,75,0,0
47194,-139.158061953932,4,1,0,75,0,0
47304,-133.333333333333,4,1,0,75,0,0
47413,-128.02338326635,4,1,0,75,0,0
47523,-123.076923076923,4,1,0,75,0,0
47632,-118.538565629229,4,1,0,75,0,0
47742,-114.285714285714,4,1,0,75,0,0
47851,-110.362204724409,4,1,0,75,0,0
47961,-106.666666666667,4,1,0,75,0,0
48070,-103.241013553329,4,1,0,75,0,0
48180,-100,4,1,0,75,0,0
48289,-96.9831165236646,4,1,0,75,0,0
48399,-94.1176470588235,4,1,0,75,0,0
48508,-91.4405010438414,4,1,0,75,0,0
48618,-88.8888888888889,4,1,0,75,0,0
48727,-86.4971611947667,4,1,0,75,0,0
48837,-84.2105263157895,4,1,0,75,0,0
48946,-82.0608899297424,4,1,0,75,0,0
49056,-80,4,1,0,75,0,0
49165,-78.0574738249053,4,1,0,75,0,0
49275,-76.1904761904762,4,1,0,75,0,0
49384,-74.4265080713679,4,1,0,75,0,0
49494,-72.7272727272727,4,1,0,75,0,0
49603,-71.1183275827075,4,1,0,75,0,0
49713,-69.5652173913043,4,1,0,75,0,0
49822,-68.0917217256121,4,1,0,75,0,0
49935,285.714285714286,14,1,0,15,1,8
53792,-100,14,1,0,50,0,8
53935,285.714285714286,7,1,0,50,1,0
53935,-133.333333333333,7,1,0,50,0,0
57863,-114.285714285714,7,1,0,75,0,0
65863,-114.285714285714,7,1,0,88,0,0
65935,272.727272727273,7,1,0,88,1,0
69753,260.869565217392,7,1,0,88,1,0
71579,250,7,1,0,88,1,0
73266,-100,7,1,0,44,0,0
73329,240,7,1,0,44,1,0
73329,-80,7,1,0,44,0,0
74949,-100,7,1,0,44,0,0
76631,-100,7,1,0,15,0,0
76689,230.769230769231,8,1,0,15,1,8
76689,-133.333333333333,8,1,0,15,0,8
78419,-133.333333333333,8,1,0,25,0,8
78535,218.978102189781,4,1,0,25,1,0
78535,-200,4,1,0,25,0,0
79410,-213.319126265317,4,1,0,25,0,0
79411,-200,4,1,0,25,0,0
80286,-228.557449237544,4,1,0,25,0,0
80287,-200,4,1,0,25,0,0
81162,-246.140335470273,4,1,0,25,0,0
81163,-200,4,1,0,25,0,0
82038,-266.653981543145,4,1,0,25,0,0
82039,-200,4,1,0,25,0,0
82914,-290.897768552154,4,1,0,25,0,0
82915,-200,4,1,0,25,0,0
83790,-319.990866537276,4,1,0,25,0,0
83791,-200,4,1,0,25,0,0
84666,-355.549917544082,4,1,0,25,0,0
84667,-200,4,1,0,25,0,0
85432,-133.333333333333,4,1,0,44,0,0
87184,-133.333333333333,4,1,0,48,0,0
89152,-127.976625273923,4,1,0,52,0,0
89261,-123.076923076923,4,1,0,54,0,0
89371,-118.498478187352,4,1,0,56,0,0
89480,-114.285714285714,4,1,0,58,0,0
89590,-110.327455919395,4,1,0,60,0,0
89699,-106.666666666667,4,1,0,62,0,0
89809,-103.210603829161,4,1,0,64,0,0
89918,-100,4,1,0,66,0,0
90028,-96.956281128943,4,1,0,68,0,0
90137,-94.1176470588235,4,1,0,70,0,0
90247,-91.4166449256457,4,1,0,72,0,0
90356,-88.8888888888889,4,1,0,74,0,0
90466,-86.4758144126357,4,1,0,76,0,0
90575,-84.2105263157895,4,1,0,78,0,0
90685,-82.0416764223835,4,1,0,80,0,0
90794,-160,4,1,0,15,0,0
91232,-133.333333333333,4,1,0,15,0,0
91345,-133.333333333333,4,1,0,19,0,0
91454,-133.333333333333,4,1,0,23,0,0
91564,-133.333333333333,4,1,0,27,0,0
91670,-160,4,1,0,31,0,0
91783,-160,4,1,0,35,0,0
91892,-160,4,1,0,39,0,0
92002,-160,4,1,0,43,0,0
92111,-160,4,1,0,47,0,0
92221,-160,4,1,0,51,0,0
92440,-160,4,1,0,100,0,0
92549,-93.3333333333334,4,1,0,100,0,1
105633,-86.9565217391304,4,1,0,88,0,1
105794,-84.8898902536522,4,1,0,88,0,1
105904,-82.9015544041451,4,1,0,88,0,1
106013,-81.0210876803552,4,1,0,88,0,1
106123,-79.2079207920792,4,1,0,88,0,1
106232,-77.4895508525178,4,1,0,88,0,1
106342,-75.8293838862559,4,1,0,88,0,1
106451,-74.2530197075652,4,1,0,88,0,1
106561,-72.7272727272727,4,1,0,88,0,1
120688,-93.3333333333334,4,1,0,100,0,1
127583,-80,4,1,0,100,0,1
127692,-81.4477835083883,4,1,0,100,0,1
127747,-82.1983914389819,4,1,0,100,0,1
127802,-82.9629629875446,4,1,0,100,0,1
127911,-84.5210200244285,4,1,0,100,0,1
127966,-85.3296225885284,4,1,0,100,0,1
128021,-86.1538462068639,4,1,0,100,0,1
128075,-86.9787234649554,4,1,0,100,0,1
128130,-87.8352731216414,4,1,0,100,0,1
128185,-88.708860836749,4,1,0,100,0,1
128240,-89.600000086016,4,1,0,100,0,1
128349,-91.4200522847973,4,1,0,100,0,1
128459,-72.7272727272727,4,1,0,100,0,1
128568,-74.7840420111125,4,1,0,100,0,1
128677,-76.9605302634279,4,1,0,100,0,1
128787,-79.2893089221598,4,1,0,100,0,1
128896,-81.7402329239255,4,1,0,100,0,1
129006,-84.3722020058566,4,1,0,100,0,1
129115,-87.1529446058337,4,1,0,100,0,1
129225,-90.1514176866867,4,1,0,100,0,1
129334,-80,4,1,0,100,0,1
129444,-81.4613085472743,4,1,0,100,0,1
129499,-82.212166936236,4,1,0,100,0,1
129553,-82.9629629875446,4,1,0,100,0,1
129608,-83.7418914618577,4,1,0,100,0,1
129663,-84.5355850805614,4,1,0,100,0,1
129772,-86.1538462068639,4,1,0,100,0,1
129827,-86.9941479594086,4,1,0,100,0,1
129882,-87.8510029343014,4,1,0,100,0,1
129937,-88.7249051235321,4,1,0,100,0,1
129991,-89.600000086016,4,1,0,100,0,1
130101,-91.4370923692559,4,1,0,100,0,1
130210,-72.7272727272727,4,1,0,100,0,1
130320,-74.8010124829717,4,1,0,100,0,1
130429,-76.9759450383439,4,1,0,100,0,1
130539,-79.3029308926309,4,1,0,100,0,1
130648,-81.7518248652565,4,1,0,100,0,1
130758,-84.3814504558154,4,1,0,100,0,1
130867,-87.1595331553241,4,1,0,100,0,1
130977,-90.1549263141512,4,1,0,100,0,1
131086,-133.333333333333,4,1,0,100,0,1
131196,-124.233291969509,4,1,0,100,0,1
131305,-116.363636363636,4,1,0,100,0,1
131415,-109.371829886851,4,1,0,100,0,1
131524,-103.225806451613,4,1,0,100,0,1
131634,-97.6860886534709,4,1,0,100,0,1
131743,-92.7536231884058,4,1,0,100,0,1
131853,-88.2564070272653,4,1,0,100,0,1
131962,-84.2105263157895,4,1,0,100,0,1
132072,-80.4869645113127,4,1,0,100,0,1
132181,-77.1084337349398,4,1,0,100,0,1
132291,-73.9747717316726,4,1,0,100,0,1
132400,-71.1111111111111,4,1,0,100,0,1
132510,-68.4375,4,1,0,100,0,1
132619,-65.979381443299,4,1,0,100,0,1
132729,-63.6714668604915,4,1,0,100,0,1
132838,-61.5384615384615,4,1,0,100,0,1
132948,-59.5260341459271,4,1,0,100,0,1
133057,-57.6576576576577,4,1,0,100,0,1
133167,-55.8873958291798,4,1,0,100,0,1
133276,-54.2372881355932,4,1,0,100,0,1
133386,-52.6679693371411,4,1,0,100,0,1
133495,-51.2,4,1,0,100,0,1
133604,-49.811642618523,4,1,0,100,0,1
133714,-48.4848484848485,4,1,0,100,0,1
133823,-47.2380438812308,4,1,0,100,0,1
133933,-46.0431654676259,4,1,0,100,0,1
134042,-44.9173182925266,4,1,0,100,0,1
134152,-43.8356164383562,4,1,0,100,0,1
134261,-42.8139414118581,4,1,0,100,0,1
134371,-41.8300653594771,4,1,0,100,0,1
134480,-40.8987452582434,4,1,0,100,0,1
134483,-40.8987452582434,4,1,0,100,0,0
134593,300,3,1,0,5,1,8
135418,-100,3,1,0,88,0,8
135493,250,7,1,0,88,1,0
135493,-114.285714285714,7,1,0,88,0,0
138993,240,7,1,0,88,1,0
138993,-114.285714285714,7,1,0,88,0,0
142293,-114.285714285714,7,1,0,100,0,0
142353,222.222222222222,7,1,0,100,1,0
143908,210.526315789474,7,1,0,100,1,0
145381,200,7,1,0,100,1,0
146781,190.47619047619,7,1,0,100,1,0
148066,-100,7,1,0,44,0,0
148114,176.991150442478,42,1,0,44,1,0
148114,-50,7,1,0,44,0,8
148202,-133.333333333333,7,1,0,44,0,8

[HitObjects]
256,192,4388,5,8,0:0:0:0:
256,192,4606,1,8,0:0:0:0:
256,192,4825,1,8,0:0:0:0:
256,192,5044,1,8,0:0:0:0:
256,192,5264,1,8,0:0:0:0:
256,192,5482,1,8,0:0:0:0:
256,192,5701,1,8,0:0:0:0:
256,192,5920,1,8,0:0:0:0:
256,192,6140,1,8,0:0:0:0:
256,192,6358,1,8,0:0:0:0:
256,192,6577,1,8,0:0:0:0:
256,192,6796,1,8,0:0:0:0:
256,192,7016,1,8,0:0:0:0:
256,192,7234,1,8,0:0:0:0:
256,192,7453,1,8,0:0:0:0:
256,192,7672,1,8,0:0:0:0:
256,192,7891,1,4,0:0:0:0:
256,192,8055,1,0,0:0:0:0:
256,192,8110,1,8,0:0:0:0:
256,192,8219,1,0,0:0:0:0:
256,192,8329,1,8,0:0:0:0:
256,192,8384,1,0,0:0:0:0:
256,192,8438,1,0,0:0:0:0:
256,192,8493,1,0,0:0:0:0:
256,192,8548,1,8,0:0:0:0:
256,192,8657,1,0,0:0:0:0:
256,192,8767,1,8,0:0:0:0:
256,192,8986,1,8,0:0:0:0:
256,192,9040,1,8,0:0:0:0:
256,192,9095,1,0,0:0:0:0:
256,192,9205,1,8,0:0:0:0:
256,192,9424,1,0,0:0:0:0:
256,192,9478,1,0,0:0:0:0:
256,192,9533,1,0,0:0:0:0:
256,192,9643,1,0,0:0:0:0:
256,192,9697,1,8,0:0:0:0:
256,192,9752,1,0,0:0:0:0:
256,192,9862,1,8,0:0:0:0:
256,192,9971,1,0,0:0:0:0:
256,192,10081,1,8,0:0:0:0:
256,192,10190,1,8,0:0:0:0:
256,192,10300,1,0,0:0:0:0:
256,192,10409,1,8,0:0:0:0:
256,192,10519,1,0,0:0:0:0:
256,192,10573,1,0,0:0:0:0:
256,192,10628,1,8,0:0:0:0:
256,192,10683,1,8,0:0:0:0:
256,192,10738,1,0,0:0:0:0:
256,192,10847,1,0,0:0:0:0:
256,192,10956,1,8,0:0:0:0:
256,192,11066,1,0,0:0:0:0:
256,192,11175,1,8,0:0:0:0:
256,192,11230,1,8,0:0:0:0:
256,192,11285,1,8,0:0:0:0:
256,192,11394,1,0,0:0:0:0:
256,192,11504,1,0,0:0:0:0:
256,192,11559,1,0,0:0:0:0:
256,192,11613,1,8,0:0:0:0:
256,192,11723,1,0,0:0:0:0:
256,192,11832,1,8,0:0:0:0:
256,192,11887,1,8,0:0:0:0:
256,192,11942,1,0,0:0:0:0:
256,192,11997,1,0,0:0:0:0:
256,192,12051,1,8,0:0:0:0:
256,192,12161,1,0,0:0:0:0:
256,192,12270,1,8,0:0:0:0:
256,192,12489,1,8,0:0:0:0:
256,192,12544,1,0,0:0:0:0:
256,192,12599,1,0,0:0:0:0:
256,192,12708,1,8,0:0:0:0:
256,192,12927,1,0,0:0:0:0:
256,192,12982,1,0,0:0:0:0:
256,192,13037,1,0,0:0:0:0:
256,192,13146,1,8,0:0:0:0:
256,192,13201,1,0,0:0:0:0:
256,192,13256,1,8,0:0:0:0:
256,192,13365,1,0,0:0:0:0:
256,192,13475,1,8,0:0:0:0:
256,192,13584,1,0,0:0:0:0:
256,192,13694,1,0,0:0:0:0:
256,192,13803,1,8,0:0:0:0:
256,192,13913,1,0,0:0:0:0:
256,192,14022,1,8,0:0:0:0:
256,192,14077,1,8,0:0:0:0:
256,192,14132,1,8,0:0:0:0:
256,192,14186,1,8,0:0:0:0:
256,192,14241,1,0,0:0:0:0:
256,192,14351,1,0,0:0:0:0:
256,192,14460,1,8,0:0:0:0:
256,192,14515,1,8,0:0:0:0:
256,192,14570,1,0,0:0:0:0:
256,192,14624,1,8,0:0:0:0:
256,192,14679,1,0,0:0:0:0:
256,192,14734,1,0,0:0:0:0:
256,192,14789,1,8,0:0:0:0:
256,192,14898,1,4,0:0:0:0:
256,192,15062,1,0,0:0:0:0:
256,192,15117,1,8,0:0:0:0:
256,192,15227,1,0,0:0:0:0:
256,192,15336,1,8,0:0:0:0:
256,192,15391,1,0,0:0:0:0:
256,192,15446,1,0,0:0:0:0:
256,192,15500,1,0,0:0:0:0:
256,192,15555,1,8,0:0:0:0:
256,192,15665,1,0,0:0:0:0:
256,192,15774,1,8,0:0:0:0:
256,192,15993,1,8,0:0:0:0:
256,192,16048,1,8,0:0:0:0:
256,192,16102,1,0,0:0:0:0:
256,192,16212,1,8,0:0:0:0:
256,192,16431,1,0,0:0:0:0:
256,192,16486,1,0,0:0:0:0:
256,192,16540,1,0,0:0:0:0:
256,192,16650,1,0,0:0:0:0:
256,192,16705,1,8,0:0:0:0:
256,192,16759,1,0,0:0:0:0:
256,192,16869,1,8,0:0:0:0:
256,192,16978,1,0,0:0:0:0:
256,192,17088,1,8,0:0:0:0:
256,192,17197,1,8,0:0:0:0:
256,192,17307,1,0,0:0:0:0:
256,192,17416,1,8,0:0:0:0:
256,192,17526,1,0,0:0:0:0:
256,192,17581,1,0,0:0:0:0:
256,192,17635,1,8,0:0:0:0:
256,192,17690,1,8,0:0:0:0:
256,192,17745,1,0,0:0:0:0:
256,192,17854,1,0,0:0:0:0:
256,192,17964,1,8,0:0:0:0:
256,192,18073,1,0,0:0:0:0:
256,192,18183,1,8,0:0:0:0:
256,192,18238,1,8,0:0:0:0:
256,192,18292,1,8,0:0:0:0:
256,192,18402,1,0,0:0:0:0:
256,192,18511,1,0,0:0:0:0:
256,192,18566,1,0,0:0:0:0:
256,192,18621,1,8,0:0:0:0:
256,192,18730,1,0,0:0:0:0:
256,192,18840,1,8,0:0:0:0:
256,192,18894,1,8,0:0:0:0:
256,192,18949,1,0,0:0:0:0:
256,192,19004,1,0,0:0:0:0:
256,192,19059,1,8,0:0:0:0:
256,192,19168,1,0,0:0:0:0:
256,192,19278,1,8,0:0:0:0:
256,192,19497,1,8,0:0:0:0:
256,192,19551,1,0,0:0:0:0:
256,192,19606,1,0,0:0:0:0:
256,192,19716,1,8,0:0:0:0:
256,192,19935,1,0,0:0:0:0:
256,192,19989,1,0,0:0:0:0:
256,192,20044,1,0,0:0:0:0:
256,192,20154,1,8,0:0:0:0:
256,192,20208,1,0,0:0:0:0:
256,192,20263,1,8,0:0:0:0:
256,192,20373,1,0,0:0:0:0:
256,192,20482,1,8,0:0:0:0:
256,192,20592,1,0,0:0:0:0:
256,192,20701,1,0,0:0:0:0:
256,192,20811,1,8,0:0:0:0:
256,192,20920,1,0,0:0:0:0:
256,192,21029,1,12,0:0:0:0:
256,192,21139,1,12,0:0:0:0:
256,192,21248,1,4,0:0:0:0:
256,192,21358,1,4,0:0:0:0:
256,192,21467,1,12,0:0:0:0:
256,192,21577,1,12,0:0:0:0:
256,192,21686,1,12,0:0:0:0:
256,192,21796,1,12,0:0:0:0:
256,192,21905,1,4,0:0:0:0:
256,192,22124,1,8,0:0:0:0:
256,192,22234,1,0,0:0:0:0:
256,192,22343,1,0,0:0:0:0:
256,192,22453,1,8,0:0:0:0:
256,192,22562,1,0,0:0:0:0:
256,192,22781,1,0,0:0:0:0:
256,192,22891,1,8,0:0:0:0:
256,192,23000,1,8,0:0:0:0:
256,192,23110,1,0,0:0:0:0:
256,192,23219,1,8,0:0:0:0:
256,192,23329,1,8,0:0:0:0:
256,192,23438,1,0,0:0:0:0:
256,192,23657,1,8,0:0:0:0:
256,192,23767,1,8,0:0:0:0:
256,192,23876,1,8,0:0:0:0:
256,192,23986,1,0,0:0:0:0:
256,192,24205,1,0,0:0:0:0:
256,192,24314,1,8,0:0:0:0:
256,192,24424,1,8,0:0:0:0:
256,192,24533,1,8,0:0:0:0:
256,192,24643,1,0,0:0:0:0:
256,192,24862,1,0,0:0:0:0:
256,192,24971,1,8,0:0:0:0:
256,192,25081,1,0,0:0:0:0:
256,192,25190,1,8,0:0:0:0:
256,192,25300,1,8,0:0:0:0:
256,192,25409,1,0,0:0:0:0:
256,192,25628,1,8,0:0:0:0:
256,192,25738,1,0,0:0:0:0:
256,192,25956,1,8,0:0:0:0:
256,192,26066,1,8,0:0:0:0:
256,192,26285,1,0,0:0:0:0:
256,192,26394,1,8,0:0:0:0:
256,192,26504,1,0,0:0:0:0:
256,192,26613,1,0,0:0:0:0:
256,192,26723,1,8,0:0:0:0:
256,192,26832,1,8,0:0:0:0:
256,192,26942,1,0,0:0:0:0:
256,192,27161,1,8,0:0:0:0:
256,192,27270,1,0,0:0:0:0:
256,192,27380,1,0,0:0:0:0:
256,192,27489,1,8,0:0:0:0:
256,192,27599,1,0,0:0:0:0:
256,192,27708,1,0,0:0:0:0:
256,192,27818,1,8,0:0:0:0:
256,192,27927,1,8,0:0:0:0:
256,192,28037,1,0,0:0:0:0:
256,192,28146,1,0,0:0:0:0:
256,192,28256,1,8,0:0:0:0:
256,192,28365,1,0,0:0:0:0:
256,192,28475,1,8,0:0:0:0:
256,192,28584,1,8,0:0:0:0:
256,192,28694,1,8,0:0:0:0:
256,192,28803,1,8,0:0:0:0:
256,192,28913,1,0,0:0:0:0:
256,192,29132,1,8,0:0:0:0:
256,192,29241,1,0,0:0:0:0:
256,192,29351,1,0,0:0:0:0:
256,192,29460,1,8,0:0:0:0:
256,192,29570,1,0,0:0:0:0:
256,192,29789,1,0,0:0:0:0:
256,192,29898,1,8,0:0:0:0:
256,192,30008,1,8,0:0:0:0:
256,192,30117,1,0,0:0:0:0:
256,192,30227,1,8,0:0:0:0:
256,192,30336,1,8,0:0:0:0:
256,192,30446,1,0,0:0:0:0:
256,192,30665,1,8,0:0:0:0:
256,192,30774,1,8,0:0:0:0:
256,192,30883,1,8,0:0:0:0:
256,192,30993,1,0,0:0:0:0:
256,192,31212,1,0,0:0:0:0:
256,192,31321,1,8,0:0:0:0:
256,192,31431,1,8,0:0:0:0:
256,192,31540,1,8,0:0:0:0:
256,192,31650,1,0,0:0:0:0:
256,192,31869,1,0,0:0:0:0:
256,192,31978,1,8,0:0:0:0:
256,192,32088,1,0,0:0:0:0:
256,192,32197,1,8,0:0:0:0:
256,192,32307,1,8,0:0:0:0:
256,192,32416,1,0,0:0:0:0:
256,192,32635,1,8,0:0:0:0:
256,192,32745,1,0,0:0:0:0:
256,192,32964,1,8,0:0:0:0:
256,192,33073,1,8,0:0:0:0:
256,192,33292,1,0,0:0:0:0:
256,192,33402,1,8,0:0:0:0:
256,192,33511,1,0,0:0:0:0:
256,192,33621,1,0,0:0:0:0:
256,192,33730,1,8,0:0:0:0:
256,192,33840,1,0,0:0:0:0:
256,192,33949,1,8,0:0:0:0:
256,192,34168,1,0,0:0:0:0:
256,192,34387,1,8,0:0:0:0:
256,192,34606,1,0,0:0:0:0:
256,192,34716,1,0,0:0:0:0:
256,192,34825,1,8,0:0:0:0:
256,192,35044,1,4,0:0:0:0:
256,192,35154,1,12,0:0:0:0:
256,192,35263,1,4,0:0:0:0:
256,192,35373,1,4,0:0:0:0:
256,192,35482,1,12,0:0:0:0:
256,192,35592,1,4,0:0:0:0:
256,192,35701,1,12,0:0:0:0:
256,192,35811,1,12,0:0:0:0:
256,192,35920,1,4,0:0:0:0:
256,192,36248,1,12,0:0:0:0:
256,192,36577,1,4,0:0:0:0:
256,192,36796,1,12,0:0:0:0:
256,192,36905,1,12,0:0:0:0:
256,192,37015,1,4,0:0:0:0:
256,192,37124,1,4,0:0:0:0:
256,192,37234,1,12,0:0:0:0:
256,192,37343,1,4,0:0:0:0:
256,192,37453,1,4,0:0:0:0:
256,192,37562,1,4,0:0:0:0:
256,192,37672,1,12,0:0:0:0:
256,192,38000,1,4,0:0:0:0:
256,192,38329,1,12,0:0:0:0:
256,192,38548,1,4,0:0:0:0:
256,192,38657,1,4,0:0:0:0:
256,192,38767,1,12,0:0:0:0:
256,192,38876,1,12,0:0:0:0:
256,192,38986,1,4,0:0:0:0:
256,192,39095,1,12,0:0:0:0:
256,192,39205,1,12,0:0:0:0:
256,192,39314,1,12,0:0:0:0:
256,192,39424,1,4,0:0:0:0:
256,192,39752,1,4,0:0:0:0:
256,192,40081,1,12,0:0:0:0:
256,192,40300,1,4,0:0:0:0:
256,192,40409,1,12,0:0:0:0:
256,192,40519,1,12,0:0:0:0:
256,192,40628,1,4,0:0:0:0:
256,192,40738,1,12,0:0:0:0:
256,192,40847,1,12,0:0:0:0:
256,192,40956,1,4,0:0:0:0:
256,192,41066,1,4,0:0:0:0:
256,192,41175,1,12,0:0:0:0:
256,192,41504,1,12,0:0:0:0:
256,192,41832,1,4,0:0:0:0:
256,192,42051,1,12,0:0:0:0:
256,192,42161,1,4,0:0:0:0:
256,192,42270,1,4,0:0:0:0:
256,192,42380,1,12,0:0:0:0:
256,192,42489,1,4,0:0:0:0:
256,192,42599,1,4,0:0:0:0:
256,192,42708,1,12,0:0:0:0:
256,192,42818,1,12,0:0:0:0:
256,192,42927,1,4,0:0:0:0:
256,192,43256,1,12,0:0:0:0:
256,192,43584,1,4,0:0:0:0:
256,192,43803,1,12,0:0:0:0:
256,192,43913,1,12,0:0:0:0:
256,192,44022,1,4,0:0:0:0:
256,192,44132,1,12,0:0:0:0:
256,192,44241,1,4,0:0:0:0:
256,192,44351,1,4,0:0:0:0:
256,192,44460,1,12,0:0:0:0:
256,192,44570,1,4,0:0:0:0:
256,192,44679,1,12,0:0:0:0:
256,192,45008,1,4,0:0:0:0:
256,192,45336,1,12,0:0:0:0:
256,192,45555,1,4,0:0:0:0:
256,192,45665,1,4,0:0:0:0:
256,192,45774,1,12,0:0:0:0:
256,192,45883,1,4,0:0:0:0:
256,192,45993,1,12,0:0:0:0:
256,192,46102,1,12,0:0:0:0:
256,192,46212,1,4,0:0:0:0:
256,192,46321,1,12,0:0:0:0:
256,192,46431,1,0,0:0:0:0:
256,192,46540,1,0,0:0:0:0:
256,192,46650,1,0,0:0:0:0:
256,192,46759,1,0,0:0:0:0:
256,192,46869,1,0,0:0:0:0:
256,192,46978,1,0,0:0:0:0:
256,192,47088,1,0,0:0:0:0:
256,192,47197,1,0,0:0:0:0:
256,192,47307,1,8,0:0:0:0:
256,192,47416,1,8,0:0:0:0:
256,192,47526,1,8,0:0:0:0:
256,192,47635,1,8,0:0:0:0:
256,192,47745,1,8,0:0:0:0:
256,192,47854,1,8,0:0:0:0:
256,192,47964,1,8,0:0:0:0:
256,192,48073,1,8,0:0:0:0:
256,192,48183,1,0,0:0:0:0:
256,192,48292,1,0,0:0:0:0:
256,192,48402,1,0,0:0:0:0:
256,192,48511,1,0,0:0:0:0:
256,192,48621,1,0,0:0:0:0:
256,192,48730,1,0,0:0:0:0:
256,192,48840,1,0,0:0:0:0:
256,192,48949,1,0,0:0:0:0:
256,192,49059,1,8,0:0:0:0:
256,192,49168,1,8,0:0:0:0:
256,192,49278,1,8,0:0:0:0:
256,192,49387,1,8,0:0:0:0:
256,192,49497,1,8,0:0:0:0:
256,192,49606,1,8,0:0:0:0:
256,192,49716,1,8,0:0:0:0:
256,192,49825,1,8,0:0:0:0:
256,192,53935,5,0,0:0:0:0:
256,192,54077,1,0,0:0:0:0:
256,192,54220,1,8,0:0:0:0:
256,192,54363,1,0,0:0:0:0:
256,192,54435,1,8,0:0:0:0:
256,192,54506,1,0,0:0:0:0:
256,192,54577,1,8,0:0:0:0:
256,192,54649,1,0,0:0:0:0:
256,192,54792,1,0,0:0:0:0:
256,192,54935,1,8,0:0:0:0:
256,192,55077,1,0,0:0:0:0:
256,192,55149,1,0,0:0:0:0:
256,192,55220,1,8,0:0:0:0:
256,192,55292,1,8,0:0:0:0:
256,192,55363,1,0,0:0:0:0:
256,192,55506,1,0,0:0:0:0:
256,192,55649,1,8,0:0:0:0:
256,192,55720,1,8,0:0:0:0:
256,192,55792,1,0,0:0:0:0:
256,192,55935,1,0,0:0:0:0:
256,192,56077,1,0,0:0:0:0:
256,192,56220,1,8,0:0:0:0:
256,192,56363,1,0,0:0:0:0:
256,192,56435,1,8,0:0:0:0:
256,192,56506,1,0,0:0:0:0:
256,192,56577,1,8,0:0:0:0:
256,192,56649,1,0,0:0:0:0:
256,192,56792,1,0,0:0:0:0:
256,192,56935,1,8,0:0:0:0:
256,192,57077,1,0,0:0:0:0:
256,192,57149,1,8,0:0:0:0:
256,192,57220,1,8,0:0:0:0:
256,192,57292,1,8,0:0:0:0:
256,192,57363,1,0,0:0:0:0:
256,192,57506,1,0,0:0:0:0:
256,192,57649,1,8,0:0:0:0:
256,192,57720,1,8,0:0:0:0:
256,192,57792,1,0,0:0:0:0:
256,192,57935,1,12,0:0:0:0:
256,192,58077,1,0,0:0:0:0:
256,192,58220,1,0,0:0:0:0:
256,192,58363,1,8,0:0:0:0:
256,192,58435,1,0,0:0:0:0:
256,192,58506,1,8,0:0:0:0:
256,192,58577,1,8,0:0:0:0:
256,192,58649,1,0,0:0:0:0:
256,192,58720,1,0,0:0:0:0:
256,192,58792,1,8,0:0:0:0:
256,192,58935,1,0,0:0:0:0:
256,192,59077,1,0,0:0:0:0:
256,192,59220,1,8,0:0:0:0:
256,192,59292,1,8,0:0:0:0:
256,192,59363,1,0,0:0:0:0:
256,192,59435,1,8,0:0:0:0:
256,192,59506,1,0,0:0:0:0:
256,192,59649,1,8,0:0:0:0:
256,192,59720,1,0,0:0:0:0:
256,192,59792,1,0,0:0:0:0:
256,192,59935,1,12,0:0:0:0:
256,192,60077,1,0,0:0:0:0:
256,192,60220,1,0,0:0:0:0:
256,192,60363,1,8,0:0:0:0:
256,192,60435,1,8,0:0:0:0:
256,192,60506,1,0,0:0:0:0:
256,192,60577,1,8,0:0:0:0:
256,192,60649,1,0,0:0:0:0:
256,192,60720,1,0,0:0:0:0:
256,192,60792,1,8,0:0:0:0:
256,192,60935,1,0,0:0:0:0:
256,192,61077,1,0,0:0:0:0:
256,192,61220,1,8,0:0:0:0:
256,192,61292,1,0,0:0:0:0:
256,192,61363,1,8,0:0:0:0:
256,192,61435,1,8,0:0:0:0:
256,192,61506,1,0,0:0:0:0:
256,192,61649,1,0,0:0:0:0:
256,192,61720,1,8,0:0:0:0:
256,192,61792,1,0,0:0:0:0:
256,192,61935,1,12,0:0:0:0:
256,192,62077,1,0,0:0:0:0:
256,192,62220,1,0,0:0:0:0:
256,192,62363,1,8,0:0:0:0:
256,192,62435,1,0,0:0:0:0:
256,192,62506,1,8,0:0:0:0:
256,192,62577,1,8,0:0:0:0:
256,192,62649,1,0,0:0:0:0:
256,192,62720,1,0,0:0:0:0:
256,192,62792,1,8,0:0:0:0:
256,192,62935,1,0,0:0:0:0:
256,192,63077,1,0,0:0:0:0:
256,192,63220,1,8,0:0:0:0:
256,192,63292,1,8,0:0:0:0:
256,192,63363,1,0,0:0:0:0:
256,192,63435,1,8,0:0:0:0:
256,192,63506,1,0,0:0:0:0:
256,192,63649,1,8,0:0:0:0:
256,192,63720,1,0,0:0:0:0:
256,192,63792,1,0,0:0:0:0:
256,192,63935,1,12,0:0:0:0:
256,192,64077,1,0,0:0:0:0:
256,192,64220,1,0,0:0:0:0:
256,192,64363,1,8,0:0:0:0:
256,192,64435,1,8,0:0:0:0:
256,192,64506,1,0,0:0:0:0:
256,192,64577,1,8,0:0:0:0:
256,192,64649,1,0,0:0:0:0:
256,192,64720,1,0,0:0:0:0:
256,192,64792,1,8,0:0:0:0:
256,192,64935,1,0,0:0:0:0:
256,192,65077,1,0,0:0:0:0:
256,192,65220,1,8,0:0:0:0:
256,192,65292,1,0,0:0:0:0:
256,192,65363,1,8,0:0:0:0:
256,192,65435,1,8,0:0:0:0:
256,192,65506,1,0,0:0:0:0:
256,192,65649,1,0,0:0:0:0:
256,192,65720,1,8,0:0:0:0:
256,192,65792,1,0,0:0:0:0:
256,192,65935,1,12,0:0:0:0:
256,192,66071,1,8,0:0:0:0:
256,192,66139,1,8,0:0:0:0:
256,192,66207,1,0,0:0:0:0:
256,192,66344,1,8,0:0:0:0:
256,192,66412,1,0,0:0:0:0:
256,192,66480,1,8,0:0:0:0:
256,192,66548,1,8,0:0:0:0:
256,192,66616,1,0,0:0:0:0:
256,192,66685,1,0,0:0:0:0:
256,192,66753,1,8,0:0:0:0:
256,192,66889,1,8,0:0:0:0:
256,192,67025,1,0,0:0:0:0:
256,192,67094,1,0,0:0:0:0:
256,192,67162,1,8,0:0:0:0:
256,192,67230,1,0,0:0:0:0:
256,192,67298,1,8,0:0:0:0:
256,192,67366,1,8,0:0:0:0:
256,192,67435,1,0,0:0:0:0:
256,192,67571,1,0,0:0:0:0:
256,192,67639,1,0,0:0:0:0:
256,192,67707,1,0,0:0:0:0:
256,192,67844,1,12,0:0:0:0:
256,192,67980,1,8,0:0:0:0:
256,192,68048,1,8,0:0:0:0:
256,192,68116,1,0,0:0:0:0:
256,192,68185,1,0,0:0:0:0:
256,192,68253,1,8,0:0:0:0:
256,192,68389,1,0,0:0:0:0:
256,192,68457,1,8,0:0:0:0:
256,192,68525,1,0,0:0:0:0:
256,192,68594,1,0,0:0:0:0:
256,192,68662,1,8,0:0:0:0:
256,192,68798,1,8,0:0:0:0:
256,192,68935,1,0,0:0:0:0:
256,192,69003,1,8,0:0:0:0:
256,192,69071,1,8,0:0:0:0:
256,192,69139,1,0,0:0:0:0:
256,192,69207,1,8,0:0:0:0:
256,192,69275,1,8,0:0:0:0:
256,192,69344,1,0,0:0:0:0:
256,192,69480,1,8,0:0:0:0:
256,192,69548,1,0,0:0:0:0:
256,192,69616,1,0,0:0:0:0:
256,192,69753,1,12,0:0:0:0:
256,192,69883,1,8,0:0:0:0:
256,192,69948,1,8,0:0:0:0:
256,192,70013,1,0,0:0:0:0:
256,192,70144,1,8,0:0:0:0:
256,192,70209,1,0,0:0:0:0:
256,192,70274,1,8,0:0:0:0:
256,192,70339,1,8,0:0:0:0:
256,192,70405,1,0,0:0:0:0:
256,192,70470,1,0,0:0:0:0:
256,192,70535,1,8,0:0:0:0:
256,192,70666,1,8,0:0:0:0:
256,192,70796,1,0,0:0:0:0:
256,192,70861,1,0,0:0:0:0:
256,192,70926,1,8,0:0:0:0:
256,192,70992,1,0,0:0:0:0:
256,192,71057,1,8,0:0:0:0:
256,192,71122,1,8,0:0:0:0:
256,192,71187,1,0,0:0:0:0:
256,192,71318,1,0,0:0:0:0:
256,192,71383,1,0,0:0:0:0:
256,192,71448,1,0,0:0:0:0:
256,192,71579,1,12,0:0:0:0:
256,192,71704,1,8,0:0:0:0:
256,192,71766,1,8,0:0:0:0:
256,192,71829,1,0,0:0:0:0:
256,192,71891,1,0,0:0:0:0:
256,192,71954,1,8,0:0:0:0:
256,192,72079,1,0,0:0:0:0:
256,192,72141,1,8,0:0:0:0:
256,192,72204,1,0,0:0:0:0:
256,192,72266,1,0,0:0:0:0:
256,192,72329,1,8,0:0:0:0:
256,192,72454,1,8,0:0:0:0:
256,192,72579,1,0,0:0:0:0:
256,192,72641,1,8,0:0:0:0:
256,192,72704,1,8,0:0:0:0:
256,192,72766,1,0,0:0:0:0:
256,192,72829,1,8,0:0:0:0:
256,192,72891,1,8,0:0:0:0:
256,192,72954,1,0,0:0:0:0:
256,192,73079,1,8,0:0:0:0:
256,192,73141,1,0,0:0:0:0:
256,192,73204,1,0,0:0:0:0:
256,192,73329,2,0,L|256:128,26,43.75
256,192,75009,2,0,L|256:256,26,35
256,192,76689,12,0,78304,0:0:0:0:
256,192,78535,5,8,0:0:0:0:
256,192,78753,1,8,0:0:0:0:
256,192,78972,1,8,0:0:0:0:
256,192,79191,1,8,0:0:0:0:
256,192,79411,1,8,0:0:0:0:
256,192,79629,1,8,0:0:0:0:
256,192,79848,1,8,0:0:0:0:
256,192,80067,1,8,0:0:0:0:
256,192,80287,1,8,0:0:0:0:
256,192,80505,1,8,0:0:0:0:
256,192,80724,1,8,0:0:0:0:
256,192,80943,1,8,0:0:0:0:
256,192,81163,1,8,0:0:0:0:
256,192,81381,1,8,0:0:0:0:
256,192,81600,1,8,0:0:0:0:
256,192,81819,1,8,0:0:0:0:
256,192,82039,1,8,0:0:0:0:
256,192,82257,1,8,0:0:0:0:
256,192,82476,1,8,0:0:0:0:
256,192,82695,1,8,0:0:0:0:
256,192,82915,1,8,0:0:0:0:
256,192,83133,1,8,0:0:0:0:
256,192,83352,1,8,0:0:0:0:
256,192,83571,1,8,0:0:0:0:
256,192,83791,1,8,0:0:0:0:
256,192,84009,1,8,0:0:0:0:
256,192,84228,1,8,0:0:0:0:
256,192,84447,1,8,0:0:0:0:
256,192,84667,1,8,0:0:0:0:
256,192,84885,1,8,0:0:0:0:
256,192,85104,1,8,0:0:0:0:
256,192,85323,1,8,0:0:0:0:
256,192,85542,1,0,0:0:0:0:
256,192,85651,1,8,0:0:0:0:
256,192,85761,1,8,0:0:0:0:
256,192,85870,1,0,0:0:0:0:
256,192,85980,1,8,0:0:0:0:
256,192,86089,1,8,0:0:0:0:
256,192,86199,1,0,0:0:0:0:
256,192,86418,1,8,0:0:0:0:
256,192,86527,1,0,0:0:0:0:
256,192,86637,1,0,0:0:0:0:
256,192,86746,1,8,0:0:0:0:
256,192,86856,1,0,0:0:0:0:
256,192,86965,1,0,0:0:0:0:
256,192,87075,1,8,0:0:0:0:
256,192,87294,1,0,0:0:0:0:
256,192,87403,1,0,0:0:0:0:
256,192,87513,1,0,0:0:0:0:
256,192,87622,1,8,0:0:0:0:
256,192,87732,1,8,0:0:0:0:
256,192,87841,1,8,0:0:0:0:
256,192,87951,1,0,0:0:0:0:
256,192,88170,1,8,0:0:0:0:
256,192,88279,1,8,0:0:0:0:
256,192,88389,1,8,0:0:0:0:
256,192,88498,1,0,0:0:0:0:
256,192,88607,1,0,0:0:0:0:
256,192,88717,1,0,0:0:0:0:
256,192,88826,1,8,0:0:0:0:
256,192,89045,1,0,0:0:0:0:
256,192,89155,1,0,0:0:0:0:
256,192,89264,1,8,0:0:0:0:
256,192,89374,1,8,0:0:0:0:
256,192,89483,1,0,0:0:0:0:
256,192,89593,1,8,0:0:0:0:
256,192,89702,1,8,0:0:0:0:
256,192,89812,1,8,0:0:0:0:
256,192,89921,1,0,0:0:0:0:
256,192,90031,1,0,0:0:0:0:
256,192,90140,1,8,0:0:0:0:
256,192,90250,1,0,0:0:0:0:
256,192,90359,1,8,0:0:0:0:
256,192,90469,1,8,0:0:0:0:
256,192,90578,1,0,0:0:0:0:
256,192,90688,1,8,0:0:0:0:
256,192,91235,12,0,92330,0:0:0:0:
256,192,92549,5,4,0:0:0:0:
256,192,92659,1,8,0:0:0:0:
256,192,92713,1,8,0:0:0:0:
256,192,92768,1,0,0:0:0:0:
256,192,92823,1,0,0:0:0:0:
256,192,92878,1,8,0:0:0:0:
256,192,92987,1,0,0:0:0:0:
256,192,93042,1,0,0:0:0:0:
256,192,93097,1,0,0:0:0:0:
256,192,93206,1,8,0:0:0:0:
256,192,93316,1,0,0:0:0:0:
256,192,93370,1,0,0:0:0:0:
256,192,93425,1,8,0:0:0:0:
256,192,93535,1,8,0:0:0:0:
256,192,93589,1,8,0:0:0:0:
256,192,93644,1,0,0:0:0:0:
256,192,93753,1,8,0:0:0:0:
256,192,93863,1,0,0:0:0:0:
256,192,93918,1,0,0:0:0:0:
256,192,93972,1,0,0:0:0:0:
256,192,94027,1,0,0:0:0:0:
256,192,94082,1,8,0:0:0:0:
256,192,94191,1,0,0:0:0:0:
256,192,94301,1,8,0:0:0:0:
256,192,94356,1,0,0:0:0:0:
256,192,94410,1,8,0:0:0:0:
256,192,94465,1,8,0:0:0:0:
256,192,94520,1,0,0:0:0:0:
256,192,94629,1,8,0:0:0:0:
256,192,94684,1,0,0:0:0:0:
256,192,94739,1,0,0:0:0:0:
256,192,94794,1,0,0:0:0:0:
256,192,94848,1,8,0:0:0:0:
256,192,94958,1,8,0:0:0:0:
256,192,95013,1,8,0:0:0:0:
256,192,95067,1,8,0:0:0:0:
256,192,95122,1,8,0:0:0:0:
256,192,95177,1,0,0:0:0:0:
256,192,95286,1,0,0:0:0:0:
256,192,95341,1,8,0:0:0:0:
256,192,95396,1,0,0:0:0:0:
256,192,95505,1,8,0:0:0:0:
256,192,95615,1,0,0:0:0:0:
256,192,95670,1,0,0:0:0:0:
256,192,95724,1,8,0:0:0:0:
256,192,95779,1,0,0:0:0:0:
256,192,95834,1,8,0:0:0:0:
256,192,95889,1,8,0:0:0:0:
256,192,95943,1,0,0:0:0:0:
256,192,96053,1,8,0:0:0:0:
256,192,96162,1,0,0:0:0:0:
256,192,96217,1,0,0:0:0:0:
256,192,96272,1,0,0:0:0:0:
256,192,96381,1,8,0:0:0:0:
256,192,96491,1,0,0:0:0:0:
256,192,96545,1,0,0:0:0:0:
256,192,96600,1,0,0:0:0:0:
256,192,96655,1,0,0:0:0:0:
256,192,96710,1,8,0:0:0:0:
256,192,96819,1,0,0:0:0:0:
256,192,96929,1,8,0:0:0:0:
256,192,97038,1,0,0:0:0:0:
256,192,97093,1,0,0:0:0:0:
256,192,97148,1,8,0:0:0:0:
256,192,97202,1,8,0:0:0:0:
256,192,97257,1,0,0:0:0:0:
256,192,97367,1,8,0:0:0:0:
256,192,97421,1,8,0:0:0:0:
256,192,97476,1,8,0:0:0:0:
256,192,97531,1,8,0:0:0:0:
256,192,97586,1,0,0:0:0:0:
256,192,97695,1,0,0:0:0:0:
256,192,97805,1,8,0:0:0:0:
256,192,97914,1,8,0:0:0:0:
256,192,97969,1,8,0:0:0:0:
256,192,98024,1,0,0:0:0:0:
256,192,98133,1,8,0:0:0:0:
256,192,98243,1,0,0:0:0:0:
256,192,98297,1,8,0:0:0:0:
256,192,98352,1,0,0:0:0:0:
256,192,98407,1,0,0:0:0:0:
256,192,98462,1,8,0:0:0:0:
256,192,98571,1,0,0:0:0:0:
256,192,98680,1,8,0:0:0:0:
256,192,98735,1,8,0:0:0:0:
256,192,98790,1,0,0:0:0:0:
256,192,98845,1,8,0:0:0:0:
256,192,98899,1,0,0:0:0:0:
256,192,98954,1,0,0:0:0:0:
256,192,99009,1,8,0:0:0:0:
256,192,99064,1,0,0:0:0:0:
256,192,99118,1,8,0:0:0:0:
256,192,99228,1,0,0:0:0:0:
256,192,99337,1,8,0:0:0:0:
256,192,99392,1,8,0:0:0:0:
256,192,99447,1,8,0:0:0:0:
256,192,99556,1,4,0:0:0:0:
256,192,99666,1,8,0:0:0:0:
256,192,99721,1,8,0:0:0:0:
256,192,99775,1,0,0:0:0:0:
256,192,99830,1,0,0:0:0:0:
256,192,99885,1,8,0:0:0:0:
256,192,99994,1,0,0:0:0:0:
256,192,100049,1,0,0:0:0:0:
256,192,100104,1,0,0:0:0:0:
256,192,100213,1,8,0:0:0:0:
256,192,100323,1,0,0:0:0:0:
256,192,100378,1,0,0:0:0:0:
256,192,100432,1,8,0:0:0:0:
256,192,100542,1,8,0:0:0:0:
256,192,100597,1,8,0:0:0:0:
256,192,100651,1,0,0:0:0:0:
256,192,100761,1,8,0:0:0:0:
256,192,100870,1,0,0:0:0:0:
256,192,100925,1,0,0:0:0:0:
256,192,100980,1,0,0:0:0:0:
256,192,101035,1,0,0:0:0:0:
256,192,101089,1,8,0:0:0:0:
256,192,101199,1,0,0:0:0:0:
256,192,101308,1,8,0:0:0:0:
256,192,101363,1,0,0:0:0:0:
256,192,101418,1,8,0:0:0:0:
256,192,101472,1,8,0:0:0:0:
256,192,101527,1,0,0:0:0:0:
256,192,101637,1,8,0:0:0:0:
256,192,101691,1,0,0:0:0:0:
256,192,101746,1,0,0:0:0:0:
256,192,101801,1,0,0:0:0:0:
256,192,101856,1,8,0:0:0:0:
256,192,101965,1,8,0:0:0:0:
256,192,102020,1,8,0:0:0:0:
256,192,102075,1,8,0:0:0:0:
256,192,102129,1,8,0:0:0:0:
256,192,102184,1,0,0:0:0:0:
256,192,102294,1,0,0:0:0:0:
256,192,102348,1,8,0:0:0:0:
256,192,102403,1,0,0:0:0:0:
256,192,102513,1,8,0:0:0:0:
256,192,102622,1,0,0:0:0:0:
256,192,102677,1,0,0:0:0:0:
256,192,102732,1,8,0:0:0:0:
256,192,102786,1,0,0:0:0:0:
256,192,102841,1,8,0:0:0:0:
256,192,102896,1,8,0:0:0:0:
256,192,102951,1,0,0:0:0:0:
256,192,103060,1,8,0:0:0:0:
256,192,103170,1,0,0:0:0:0:
256,192,103224,1,0,0:0:0:0:
256,192,103279,1,0,0:0:0:0:
256,192,103389,1,8,0:0:0:0:
256,192,103498,1,0,0:0:0:0:
256,192,103553,1,0,0:0:0:0:
256,192,103607,1,0,0:0:0:0:
256,192,103662,1,0,0:0:0:0:
256,192,103717,1,8,0:0:0:0:
256,192,103826,1,0,0:0:0:0:
256,192,103936,1,8,0:0:0:0:
256,192,104045,1,0,0:0:0:0:
256,192,104100,1,0,0:0:0:0:
256,192,104155,1,8,0:0:0:0:
256,192,104210,1,8,0:0:0:0:
256,192,104264,1,0,0:0:0:0:
256,192,104374,1,8,0:0:0:0:
256,192,104429,1,8,0:0:0:0:
256,192,104483,1,8,0:0:0:0:
256,192,104538,1,8,0:0:0:0:
256,192,104593,1,0,0:0:0:0:
256,192,104702,1,0,0:0:0:0:
256,192,104812,1,8,0:0:0:0:
256,192,104867,1,8,0:0:0:0:
256,192,104921,1,0,0:0:0:0:
256,192,104976,1,0,0:0:0:0:
256,192,105031,1,8,0:0:0:0:
256,192,105086,1,0,0:0:0:0:
256,192,105140,1,0,0:0:0:0:
256,192,105195,1,0,0:0:0:0:
256,192,105250,1,8,0:0:0:0:
256,192,105305,1,8,0:0:0:0:
256,192,105359,1,0,0:0:0:0:
256,192,105414,1,8,0:0:0:0:
256,192,105469,1,0,0:0:0:0:
256,192,105524,1,0,0:0:0:0:
256,192,105578,1,8,0:0:0:0:
256,192,105688,1,4,0:0:0:0:
256,192,105797,1,12,0:0:0:0:
256,192,105907,1,4,0:0:0:0:
256,192,106016,1,4,0:0:0:0:
256,192,106126,1,12,0:0:0:0:
256,192,106235,1,4,0:0:0:0:
256,192,106345,1,12,0:0:0:0:
256,192,106454,1,12,0:0:0:0:
256,192,106564,1,4,0:0:0:0:
256,192,106783,1,0,0:0:0:0:
256,192,106892,1,12,0:0:0:0:
256,192,107002,1,0,0:0:0:0:
256,192,107221,1,12,0:0:0:0:
256,192,107440,1,12,0:0:0:0:
256,192,107549,1,12,0:0:0:0:
256,192,107659,1,4,0:0:0:0:
256,192,107768,1,4,0:0:0:0:
256,192,107878,1,12,0:0:0:0:
256,192,107987,1,4,0:0:0:0:
256,192,108097,1,4,0:0:0:0:
256,192,108206,1,4,0:0:0:0:
256,192,108316,1,12,0:0:0:0:
256,192,108535,1,8,0:0:0:0:
256,192,108644,1,4,0:0:0:0:
256,192,108753,1,8,0:0:0:0:
256,192,108972,1,4,0:0:0:0:
256,192,109192,1,4,0:0:0:0:
256,192,109301,1,4,0:0:0:0:
256,192,109411,1,12,0:0:0:0:
256,192,109520,1,12,0:0:0:0:
256,192,109630,1,4,0:0:0:0:
256,192,109739,1,12,0:0:0:0:
256,192,109849,1,12,0:0:0:0:
256,192,109958,1,12,0:0:0:0:
256,192,110068,1,4,0:0:0:0:
256,192,110286,1,0,0:0:0:0:
256,192,110396,1,12,0:0:0:0:
256,192,110505,1,0,0:0:0:0:
256,192,110615,1,0,0:0:0:0:
256,192,110724,1,12,0:0:0:0:
256,192,110944,1,4,0:0:0:0:
256,192,111053,1,12,0:0:0:0:
256,192,111163,1,12,0:0:0:0:
256,192,111272,1,4,0:0:0:0:
256,192,111382,1,12,0:0:0:0:
256,192,111491,1,12,0:0:0:0:
256,192,111600,1,4,0:0:0:0:
256,192,111710,1,4,0:0:0:0:
256,192,111819,1,12,0:0:0:0:
256,192,112038,1,8,0:0:0:0:
256,192,112148,1,4,0:0:0:0:
256,192,112257,1,8,0:0:0:0:
256,192,112367,1,8,0:0:0:0:
256,192,112476,1,4,0:0:0:0:
256,192,112695,1,12,0:0:0:0:
256,192,112805,1,4,0:0:0:0:
256,192,112914,1,4,0:0:0:0:
256,192,113024,1,12,0:0:0:0:
256,192,113133,1,4,0:0:0:0:
256,192,113243,1,4,0:0:0:0:
256,192,113352,1,12,0:0:0:0:
256,192,113462,1,12,0:0:0:0:
256,192,113571,1,4,0:0:0:0:
256,192,113790,1,0,0:0:0:0:
256,192,113899,1,12,0:0:0:0:
256,192,114009,1,0,0:0:0:0:
256,192,114228,1,12,0:0:0:0:
256,192,114447,1,12,0:0:0:0:
256,192,114557,1,12,0:0:0:0:
256,192,114666,1,4,0:0:0:0:
256,192,114776,1,12,0:0:0:0:
256,192,114885,1,4,0:0:0:0:
256,192,114995,1,4,0:0:0:0:
256,192,115104,1,12,0:0:0:0:
256,192,115214,1,4,0:0:0:0:
256,192,115323,1,12,0:0:0:0:
256,192,115542,1,8,0:0:0:0:
256,192,115651,1,4,0:0:0:0:
256,192,115761,1,8,0:0:0:0:
256,192,115980,1,4,0:0:0:0:
256,192,116199,1,4,0:0:0:0:
256,192,116309,1,4,0:0:0:0:
256,192,116418,1,12,0:0:0:0:
256,192,116527,1,4,0:0:0:0:
256,192,116637,1,12,0:0:0:0:
256,192,116746,1,12,0:0:0:0:
256,192,116856,1,4,0:0:0:0:
256,192,116965,1,12,0:0:0:0:
256,192,117075,1,4,0:0:0:0:
256,192,117294,1,0,0:0:0:0:
256,192,117403,1,12,0:0:0:0:
256,192,117513,1,0,0:0:0:0:
256,192,117622,1,0,0:0:0:0:
256,192,117732,1,12,0:0:0:0:
256,192,117951,1,12,0:0:0:0:
256,192,118060,1,12,0:0:0:0:
256,192,118170,1,4,0:0:0:0:
256,192,118279,1,4,0:0:0:0:
256,192,118389,1,12,0:0:0:0:
256,192,118498,1,12,0:0:0:0:
256,192,118607,1,4,0:0:0:0:
256,192,118717,1,4,0:0:0:0:
256,192,118826,1,12,0:0:0:0:
256,192,118936,1,12,0:0:0:0:
256,192,119045,1,12,0:0:0:0:
256,192,119155,1,12,0:0:0:0:
256,192,119264,1,4,0:0:0:0:
256,192,119374,1,4,0:0:0:0:
256,192,119483,1,4,0:0:0:0:
256,192,119593,1,4,0:0:0:0:
256,192,119702,1,12,0:0:0:0:
256,192,119812,1,12,0:0:0:0:
256,192,119921,1,12,0:0:0:0:
256,192,120031,1,12,0:0:0:0:
256,192,120140,1,12,0:0:0:0:
256,192,120250,1,12,0:0:0:0:
256,192,120359,1,12,0:0:0:0:
256,192,120469,1,12,0:0:0:0:
256,192,120578,1,4,0:0:0:0:
256,192,120797,1,0,0:0:0:0:
256,192,120907,1,8,0:0:0:0:
256,192,120962,1,8,0:0:0:0:
256,192,121016,1,0,0:0:0:0:
256,192,121126,1,0,0:0:0:0:
256,192,121235,1,8,0:0:0:0:
256,192,121290,1,0,0:0:0:0:
256,192,121345,1,8,0:0:0:0:
256,192,121399,1,8,0:0:0:0:
256,192,121454,1,0,0:0:0:0:
256,192,121564,1,8,0:0:0:0:
256,192,121673,1,0,0:0:0:0:
256,192,121728,1,0,0:0:0:0:
256,192,121783,1,0,0:0:0:0:
256,192,121892,1,8,0:0:0:0:
256,192,121947,1,8,0:0:0:0:
256,192,122002,1,0,0:0:0:0:
256,192,122056,1,0,0:0:0:0:
256,192,122111,1,8,0:0:0:0:
256,192,122221,1,8,0:0:0:0:
256,192,122330,1,0,0:0:0:0:
256,192,122440,1,8,0:0:0:0:
256,192,122494,1,0,0:0:0:0:
256,192,122549,1,8,0:0:0:0:
256,192,122659,1,0,0:0:0:0:
256,192,122713,1,0,0:0:0:0:
256,192,122768,1,8,0:0:0:0:
256,192,122878,1,0,0:0:0:0:
256,192,122987,1,8,0:0:0:0:
256,192,123042,1,0,0:0:0:0:
256,192,123097,1,0,0:0:0:0:
256,192,123151,1,0,0:0:0:0:
256,192,123206,1,8,0:0:0:0:
256,192,123261,1,8,0:0:0:0:
256,192,123316,1,0,0:0:0:0:
256,192,123370,1,0,0:0:0:0:
256,192,123425,1,8,0:0:0:0:
256,192,123644,1,0,0:0:0:0:
256,192,123753,1,0,0:0:0:0:
256,192,123863,1,8,0:0:0:0:
256,192,123972,1,0,0:0:0:0:
256,192,124082,1,8,0:0:0:0:
256,192,124137,1,8,0:0:0:0:
256,192,124191,1,0,0:0:0:0:
256,192,124246,1,8,0:0:0:0:
256,192,124301,1,0,0:0:0:0:
256,192,124356,1,0,0:0:0:0:
256,192,124410,1,8,0:0:0:0:
256,192,124465,1,0,0:0:0:0:
256,192,124520,1,8,0:0:0:0:
256,192,124575,1,8,0:0:0:0:
256,192,124629,1,0,0:0:0:0:
256,192,124684,1,0,0:0:0:0:
256,192,124739,1,8,0:0:0:0:
256,192,124848,1,0,0:0:0:0:
256,192,124958,1,8,0:0:0:0:
256,192,125013,1,8,0:0:0:0:
256,192,125067,1,8,0:0:0:0:
256,192,125122,1,8,0:0:0:0:
256,192,125177,1,0,0:0:0:0:
256,192,125232,1,0,0:0:0:0:
256,192,125286,1,8,0:0:0:0:
256,192,125341,1,0,0:0:0:0:
256,192,125396,1,8,0:0:0:0:
256,192,125451,1,8,0:0:0:0:
256,192,125505,1,0,0:0:0:0:
256,192,125560,1,0,0:0:0:0:
256,192,125615,1,8,0:0:0:0:
256,192,125724,1,0,0:0:0:0:
256,192,125834,1,8,0:0:0:0:
256,192,125889,1,8,0:0:0:0:
256,192,125943,1,8,0:0:0:0:
256,192,125998,1,8,0:0:0:0:
256,192,126053,1,0,0:0:0:0:
256,192,126162,1,8,0:0:0:0:
256,192,126217,1,8,0:0:0:0:
256,192,126272,1,0,0:0:0:0:
256,192,126326,1,0,0:0:0:0:
256,192,126381,1,0,0:0:0:0:
256,192,126491,1,8,0:0:0:0:
256,192,126545,1,8,0:0:0:0:
256,192,126600,1,8,0:0:0:0:
256,192,126710,1,0,0:0:0:0:
256,192,126819,1,8,0:0:0:0:
256,192,126874,1,0,0:0:0:0:
256,192,126929,1,0,0:0:0:0:
256,192,126983,1,8,0:0:0:0:
256,192,127038,1,0,0:0:0:0:
256,192,127093,1,0,0:0:0:0:
256,192,127148,1,8,0:0:0:0:
256,192,127202,1,8,0:0:0:0:
256,192,127257,1,0,0:0:0:0:
256,192,127312,1,0,0:0:0:0:
256,192,127367,1,8,0:0:0:0:
256,192,127476,1,0,0:0:0:0:
256,192,127586,1,12,0:0:0:0:
256,192,127695,1,8,0:0:0:0:
256,192,127750,1,8,0:0:0:0:
256,192,127805,1,0,0:0:0:0:
256,192,127914,1,8,0:0:0:0:
256,192,127969,1,0,0:0:0:0:
256,192,128024,1,8,0:0:0:0:
256,192,128078,1,8,0:0:0:0:
256,192,128133,1,0,0:0:0:0:
256,192,128188,1,0,0:0:0:0:
256,192,128243,1,8,0:0:0:0:
256,192,128352,1,8,0:0:0:0:
256,192,128462,1,4,0:0:0:0:
256,192,128571,1,12,0:0:0:0:
256,192,128680,1,4,0:0:0:0:
256,192,128790,1,4,0:0:0:0:
256,192,128899,1,12,0:0:0:0:
256,192,129009,1,4,0:0:0:0:
256,192,129118,1,4,0:0:0:0:
256,192,129228,1,4,0:0:0:0:
256,192,129337,1,12,0:0:0:0:
256,192,129447,1,8,0:0:0:0:
256,192,129502,1,8,0:0:0:0:
256,192,129556,1,0,0:0:0:0:
256,192,129611,1,0,0:0:0:0:
256,192,129666,1,8,0:0:0:0:
256,192,129775,1,0,0:0:0:0:
256,192,129830,1,8,0:0:0:0:
256,192,129885,1,0,0:0:0:0:
256,192,129940,1,0,0:0:0:0:
256,192,129994,1,8,0:0:0:0:
256,192,130104,1,8,0:0:0:0:
256,192,130213,1,4,0:0:0:0:
256,192,130323,1,12,0:0:0:0:
256,192,130432,1,4,0:0:0:0:
256,192,130542,1,4,0:0:0:0:
256,192,130651,1,12,0:0:0:0:
256,192,130761,1,4,0:0:0:0:
256,192,130870,1,12,0:0:0:0:
256,192,130980,1,12,0:0:0:0:
256,192,131089,1,0,0:0:0:0:
256,192,131199,1,0,0:0:0:0:
256,192,131308,1,0,0:0:0:0:
256,192,131418,1,0,0:0:0:0:
256,192,131527,1,0,0:0:0:0:
256,192,131637,1,0,0:0:0:0:
256,192,131746,1,0,0:0:0:0:
256,192,131856,1,0,0:0:0:0:
256,192,131965,1,8,0:0:0:0:
256,192,132075,1,8,0:0:0:0:
256,192,132184,1,8,0:0:0:0:
256,192,132294,1,8,0:0:0:0:
256,192,132403,1,8,0:0:0:0:
256,192,132513,1,8,0:0:0:0:
256,192,132622,1,8,0:0:0:0:
256,192,132732,1,8,0:0:0:0:
256,192,132841,1,0,0:0:0:0:
256,192,132951,1,0,0:0:0:0:
256,192,133060,1,0,0:0:0:0:
256,192,133170,1,0,0:0:0:0:
256,192,133279,1,0,0:0:0:0:
256,192,133389,1,0,0:0:0:0:
256,192,133498,1,0,0:0:0:0:
256,192,133607,1,0,0:0:0:0:
256,192,133717,1,8,0:0:0:0:
256,192,133826,1,8,0:0:0:0:
256,192,133936,1,8,0:0:0:0:
256,192,134045,1,8,0:0:0:0:
256,192,134155,1,8,0:0:0:0:
256,192,134264,1,8,0:0:0:0:
256,192,134374,1,8,0:0:0:0:
256,192,134483,1,8,0:0:0:0:
256,192,135493,1,12,0:0:0:0:
256,192,135618,1,0,0:0:0:0:
256,192,135743,1,0,0:0:0:0:
256,192,135868,1,8,0:0:0:0:
256,192,135930,1,0,0:0:0:0:
256,192,135993,1,8,0:0:0:0:
256,192,136055,1,8,0:0:0:0:
256,192,136118,1,0,0:0:0:0:
256,192,136180,1,0,0:0:0:0:
256,192,136243,1,8,0:0:0:0:
256,192,136368,1,0,0:0:0:0:
256,192,136493,1,0,0:0:0:0:
256,192,136618,1,8,0:0:0:0:
256,192,136680,1,8,0:0:0:0:
256,192,136743,1,0,0:0:0:0:
256,192,136805,1,8,0:0:0:0:
256,192,136868,1,0,0:0:0:0:
256,192,136993,1,8,0:0:0:0:
256,192,137055,1,0,0:0:0:0:
256,192,137118,1,0,0:0:0:0:
256,192,137243,1,12,0:0:0:0:
256,192,137368,1,0,0:0:0:0:
256,192,137493,1,0,0:0:0:0:
256,192,137618,1,8,0:0:0:0:
256,192,137680,1,8,0:0:0:0:
256,192,137743,1,0,0:0:0:0:
256,192,137805,1,8,0:0:0:0:
256,192,137868,1,0,0:0:0:0:
256,192,137930,1,0,0:0:0:0:
256,192,137993,1,8,0:0:0:0:
256,192,138118,1,0,0:0:0:0:
256,192,138243,1,0,0:0:0:0:
256,192,138368,1,8,0:0:0:0:
256,192,138430,1,0,0:0:0:0:
256,192,138493,1,8,0:0:0:0:
256,192,138555,1,8,0:0:0:0:
256,192,138618,1,0,0:0:0:0:
256,192,138743,1,0,0:0:0:0:
256,192,138805,1,8,0:0:0:0:
256,192,138868,1,0,0:0:0:0:
256,192,138993,1,12,0:0:0:0:
256,192,139113,1,0,0:0:0:0:
256,192,139233,1,0,0:0:0:0:
256,192,139353,1,8,0:0:0:0:
256,192,139413,1,0,0:0:0:0:
256,192,139473,1,8,0:0:0:0:
256,192,139533,1,8,0:0:0:0:
256,192,139593,1,0,0:0:0:0:
256,192,139653,1,0,0:0:0:0:
256,192,139713,1,8,0:0:0:0:
256,192,139833,1,0,0:0:0:0:
256,192,139953,1,0,0:0:0:0:
256,192,140073,1,8,0:0:0:0:
256,192,140133,1,8,0:0:0:0:
256,192,140193,1,0,0:0:0:0:
256,192,140253,1,8,0:0:0:0:
256,192,140313,1,0,0:0:0:0:
256,192,140433,1,8,0:0:0:0:
256,192,140493,1,0,0:0:0:0:
256,192,140553,1,0,0:0:0:0:
256,192,140673,1,12,0:0:0:0:
256,192,140793,1,0,0:0:0:0:
256,192,140913,1,0,0:0:0:0:
256,192,141033,1,8,0:0:0:0:
256,192,141093,1,8,0:0:0:0:
256,192,141153,1,0,0:0:0:0:
256,192,141213,1,8,0:0:0:0:
256,192,141273,1,0,0:0:0:0:
256,192,141333,1,0,0:0:0:0:
256,192,141393,1,8,0:0:0:0:
256,192,141513,1,0,0:0:0:0:
256,192,141633,1,0,0:0:0:0:
256,192,141753,1,8,0:0:0:0:
256,192,141813,1,0,0:0:0:0:
256,192,141873,1,8,0:0:0:0:
256,192,141933,1,8,0:0:0:0:
256,192,141993,1,0,0:0:0:0:
256,192,142113,1,0,0:0:0:0:
256,192,142173,1,8,0:0:0:0:
256,192,142233,1,0,0:0:0:0:
256,192,142353,1,8,0:0:0:0:
256,192,142464,1,8,0:0:0:0:
256,192,142575,1,0,0:0:0:0:
256,192,142686,1,8,0:0:0:0:
256,192,142741,1,8,0:0:0:0:
256,192,142797,1,8,0:0:0:0:
256,192,142853,1,8,0:0:0:0:
256,192,142908,1,0,0:0:0:0:
256,192,143019,1,8,0:0:0:0:
256,192,143130,1,8,0:0:0:0:
256,192,143241,1,0,0:0:0:0:
256,192,143353,1,8,0:0:0:0:
256,192,143408,1,8,0:0:0:0:
256,192,143464,1,0,0:0:0:0:
256,192,143575,1,8,0:0:0:0:
256,192,143686,1,0,0:0:0:0:
256,192,143741,1,0,0:0:0:0:
256,192,143797,1,0,0:0:0:0:
256,192,143908,1,8,0:0:0:0:
256,192,144013,1,8,0:0:0:0:
256,192,144118,1,0,0:0:0:0:
256,192,144223,1,8,0:0:0:0:
256,192,144276,1,0,0:0:0:0:
256,192,144329,1,8,0:0:0:0:
256,192,144381,1,8,0:0:0:0:
256,192,144434,1,0,0:0:0:0:
256,192,144539,1,8,0:0:0:0:
256,192,144644,1,8,0:0:0:0:
256,192,144750,1,0,0:0:0:0:
256,192,144855,1,8,0:0:0:0:
256,192,144908,1,0,0:0:0:0:
256,192,144960,1,8,0:0:0:0:
256,192,145065,1,0,0:0:0:0:
256,192,145171,1,8,0:0:0:0:
256,192,145223,1,8,0:0:0:0:
256,192,145276,1,0,0:0:0:0:
256,192,145381,1,8,0:0:0:0:
256,192,145481,1,8,0:0:0:0:
256,192,145581,1,0,0:0:0:0:
256,192,145681,1,8,0:0:0:0:
256,192,145731,1,8,0:0:0:0:
256,192,145781,1,8,0:0:0:0:
256,192,145831,1,8,0:0:0:0:
256,192,145881,1,0,0:0:0:0:
256,192,145981,1,8,0:0:0:0:
256,192,146081,1,8,0:0:0:0:
256,192,146181,1,0,0:0:0:0:
256,192,146281,1,8,0:0:0:0:
256,192,146331,1,8,0:0:0:0:
256,192,146381,1,0,0:0:0:0:
256,192,146481,1,8,0:0:0:0:
256,192,146581,1,0,0:0:0:0:
256,192,146631,1,0,0:0:0:0:
256,192,146681,1,0,0:0:0:0:
256,192,146781,1,8,0:0:0:0:
256,192,146876,1,8,0:0:0:0:
256,192,146971,1,0,0:0:0:0:
256,192,147066,1,8,0:0:0:0:
256,192,147114,1,0,0:0:0:0:
256,192,147161,1,8,0:0:0:0:
256,192,147209,1,8,0:0:0:0:
256,192,147257,1,0,0:0:0:0:
256,192,147352,1,8,0:0:0:0:
256,192,147447,1,8,0:0:0:0:
256,192,147542,1,0,0:0:0:0:
256,192,147638,1,8,0:0:0:0:
256,192,147685,1,0,0:0:0:0:
256,192,147733,1,8,0:0:0:0:
256,192,147828,1,0,0:0:0:0:
256,192,147923,1,8,0:0:0:0:
256,192,147971,1,8,0:0:0:0:
256,192,148019,1,0,0:0:0:0:
256,192,148114,12,0,154308,0:0:0:0:
