osu file format v14

[General]
AudioFilename: audio.mp3
AudioLeadIn: 0
PreviewTime: 91564
Countdown: 0
SampleSet: Normal
StackLeniency: 0.7
Mode: 1
LetterboxInBreaks: 0
WidescreenStoryboard: 1

[Editor]
Bookmarks: 884,21905,49935,65935,76689,92549,106564,120578,135493
DistanceSpacing: 0.6
BeatDivisor: 4
GridSize: 32
TimelineZoom: 0.9000001

[Metadata]
Title:Apollo
TitleUnicode:Apollo
Artist:TJ.hangneil
ArtistUnicode:TJ.hangneil
Creator:Axer
Version:All-Star Shokyuu
Source:オンゲキ R.E.D. PLUS
Tags:Skull Kid HiroK [Zeth] Genjuro Hivie Dusk- HEAVENLY MOON rubies87 TWC 2022 Taiko World Cup Grand Finals NM4 ongeki red+ r.e.d.+ video game electronic instrumental sasakure.UK artcore O.N.G.E.K.I. 音撃 皇城セツナ 皇城 刹那 スメラギ セツナ Sumeragi Setsuna チャプター Chapter 6 Skid eae finana ryugu _DUSK_ -dusk ginjani nomod no mod
BeatmapID:3643338
BeatmapSetID:1739877

[Difficulty]
HPDrainRate:9
CircleSize:5
OverallDifficulty:2
ApproachRate:9
SliderMultiplier:1
SliderTickRate:1

[Events]
//Background and Video events
Video,30,"output.mp4"
0,0,"4Shokyuu.jpg",0,0
//Break Periods
//Storyboard Layer 0 (Background)
//Storyboard Layer 1 (Fail)
//Storyboard Layer 2 (Pass)
//Storyboard Layer 3 (Foreground)
//Storyboard Layer 4 (Overlay)
//Storyboard Sound Samples

[TimingPoints]
9,218.978102189781,4,1,0,25,1,8
884,218.978102189781,4,1,0,25,1,0
884,-125,4,1,0,25,0,0
7781,-100,4,1,0,75,0,0
7836,-100,4,1,0,90,0,0
22015,-100,4,1,0,75,0,0
46537,-100,4,1,0,90,0,0
49935,285.714285714286,14,1,0,5,1,8
49935,-100,7,1,0,5,0,0
53792,-100,7,1,0,75,0,0
53935,285.714285714286,7,1,0,75,1,0
53935,-100,7,1,0,75,0,0
57899,-100,7,1,0,90,0,0
65935,272.727272727273,7,1,0,90,1,0
69753,260.869565217392,7,1,0,90,1,0
71579,250,7,1,0,90,1,0
73329,240,7,1,11,40,1,0
73329,-100,7,1,11,40,0,0
76689,230.769230769231,8,1,0,5,1,8
76689,-100,8,1,0,5,0,0
78535,218.978102189781,4,1,0,50,1,0
78535,-125,4,1,0,50,0,0
85542,-100,4,1,0,90,0,0
90797,-100,4,1,0,5,0,0
91673,-100,4,1,11,30,0,0
92494,-100,4,1,0,100,0,0
92549,-100,4,1,0,100,0,1
134593,300,3,1,0,5,1,8
134593,-100,3,1,0,5,0,0
135418,-100,3,1,0,75,0,0
135493,250,7,1,0,75,1,0
138993,240,7,1,0,79,1,0
142353,222.222222222222,7,1,0,81,1,1
143908,210.526315789474,7,1,0,90,1,1
145381,200,7,1,0,100,1,1
146781,190.47619047619,7,1,0,100,1,1
148114,176.991150442478,42,1,11,25,1,0
148158,-100,7,1,11,25,0,0

[HitObjects]
256,192,884,5,0,0:0:0:0:
256,192,2635,1,8,0:0:0:0:
256,192,4387,1,0,0:0:0:0:
256,192,6139,1,8,0:0:0:0:
256,192,7891,1,0,0:0:0:0:
256,192,8767,1,8,0:0:0:0:
256,192,9643,1,0,0:0:0:0:
256,192,11394,1,0,0:0:0:0:
256,192,12270,1,0,0:0:0:0:
256,192,13146,1,8,0:0:0:0:
256,192,14898,1,8,0:0:0:0:
256,192,15774,1,0,0:0:0:0:
256,192,16650,1,8,0:0:0:0:
256,192,18402,1,8,0:0:0:0:
256,192,19278,1,8,0:0:0:0:
256,192,20154,1,0,0:0:0:0:
256,192,21029,1,0,0:0:0:0:
256,192,21905,1,8,0:0:0:0:
256,192,23657,1,2,0:0:0:0:
256,192,25409,1,0,0:0:0:0:
256,192,27161,1,2,0:0:0:0:
256,192,28037,1,0,0:0:0:0:
256,192,28913,1,2,0:0:0:0:
256,192,30665,1,2,0:0:0:0:
256,192,32416,1,0,0:0:0:0:
256,192,34168,1,2,0:0:0:0:
256,192,35044,1,2,0:0:0:0:
256,192,35920,1,0,0:0:0:0:
256,192,37672,1,0,0:0:0:0:
256,192,38548,1,2,0:0:0:0:
256,192,39424,1,0,0:0:0:0:
256,192,41175,1,0,0:0:0:0:
256,192,42051,1,2,0:0:0:0:
256,192,42927,1,2,0:0:0:0:
256,192,44679,1,0,0:0:0:0:
256,192,45555,1,2,0:0:0:0:
256,192,46431,1,0,0:0:0:0:
256,192,47307,1,2,0:0:0:0:
256,192,48183,1,2,0:0:0:0:
256,192,49059,1,2,0:0:0:0:
256,192,53935,5,0,0:0:0:0:
256,192,55935,1,0,0:0:0:0:
256,192,57935,1,8,0:0:0:0:
256,192,58935,1,8,0:0:0:0:
256,192,59935,1,0,0:0:0:0:
256,192,60935,1,8,0:0:0:0:
256,192,61935,1,0,0:0:0:0:
256,192,62935,1,8,0:0:0:0:
256,192,63935,1,0,0:0:0:0:
256,192,64935,1,8,0:0:0:0:
256,192,65935,1,0,0:0:0:0:
256,192,66753,1,0,0:0:0:0:
256,192,67844,1,8,0:0:0:0:
256,192,68662,1,8,0:0:0:0:
256,192,69753,1,0,0:0:0:0:
256,192,70535,1,8,0:0:0:0:
256,192,71579,1,8,0:0:0:0:
256,192,72329,1,0,0:0:0:0:
256,192,73329,12,0,76689,0:0:0:0:
256,192,78535,5,0,0:0:0:0:
256,192,79410,1,0,0:0:0:0:
256,192,80286,1,2,0:0:0:0:
256,192,81162,1,2,0:0:0:0:
256,192,82038,1,0,0:0:0:0:
256,192,83790,1,2,0:0:0:0:
256,192,84666,1,2,0:0:0:0:
256,192,85542,1,4,0:0:0:0:
256,192,86418,1,6,0:0:0:0:
256,192,87294,1,4,0:0:0:0:
256,192,88170,1,6,0:0:0:0:
256,192,89045,1,0,0:0:0:0:
256,192,89483,1,0,0:0:0:0:
256,192,89921,1,2,0:0:0:0:
256,192,90359,1,2,0:0:0:0:
256,192,90797,12,0,92111,0:0:0:0:
256,192,92549,5,0,0:0:0:0:
256,192,92987,1,0,0:0:0:0:
256,192,93425,1,8,0:0:0:0:
256,192,94301,1,8,0:0:0:0:
256,192,94739,1,0,0:0:0:0:
256,192,95177,1,8,0:0:0:0:
256,192,96053,1,0,0:0:0:0:
256,192,96929,1,0,0:0:0:0:
256,192,97805,1,8,0:0:0:0:
256,192,99556,1,8,0:0:0:0:
256,192,99994,1,8,0:0:0:0:
256,192,100432,1,0,0:0:0:0:
256,192,101308,1,0,0:0:0:0:
256,192,101746,1,8,0:0:0:0:
256,192,102184,1,0,0:0:0:0:
256,192,103060,1,8,0:0:0:0:
256,192,103936,1,8,0:0:0:0:
256,192,104812,1,0,0:0:0:0:
256,192,106564,1,12,0:0:0:0:
256,192,107221,1,8,0:0:0:0:
256,192,107878,1,8,0:0:0:0:
256,192,108316,1,8,0:0:0:0:
256,192,109191,1,0,0:0:0:0:
256,192,110067,1,8,0:0:0:0:
256,192,110724,1,8,0:0:0:0:
256,192,111381,1,8,0:0:0:0:
256,192,111819,1,0,0:0:0:0:
256,192,113571,1,12,0:0:0:0:
256,192,114228,1,8,0:0:0:0:
256,192,114885,1,8,0:0:0:0:
256,192,115323,1,8,0:0:0:0:
256,192,116199,1,0,0:0:0:0:
256,192,117075,1,8,0:0:0:0:
256,192,117732,1,8,0:0:0:0:
256,192,118389,1,8,0:0:0:0:
256,192,118826,1,0,0:0:0:0:
256,192,120578,1,0,0:0:0:0:
256,192,121454,1,8,0:0:0:0:
256,192,121892,1,8,0:0:0:0:
256,192,122330,1,0,0:0:0:0:
256,192,123206,1,8,0:0:0:0:
256,192,124082,1,0,0:0:0:0:
256,192,124958,1,0,0:0:0:0:
256,192,125834,1,8,0:0:0:0:
256,192,127586,5,0,0:0:0:0:
256,192,128243,1,0,0:0:0:0:
256,192,129337,1,8,0:0:0:0:
256,192,129994,1,8,0:0:0:0:
256,192,131089,1,0,0:0:0:0:
256,192,131965,1,0,0:0:0:0:
256,192,132841,1,8,0:0:0:0:
256,192,133717,1,8,0:0:0:0:
256,192,135493,5,4,0:0:0:0:
256,192,136368,1,8,0:0:0:0:
256,192,137243,1,0,0:0:0:0:
256,192,138118,1,8,0:0:0:0:
256,192,138993,1,0,0:0:0:0:
256,192,139833,1,8,0:0:0:0:
256,192,140673,1,0,0:0:0:0:
256,192,141513,1,8,0:0:0:0:
256,192,142353,1,12,0:0:0:0:
256,192,143908,1,12,0:0:0:0:
256,192,145381,1,12,0:0:0:0:
256,192,146781,1,12,0:0:0:0:
256,192,148114,12,0,154308,0:0:0:0:
