osu file format v14

[General]
AudioFilename: Kamui.mp3
AudioLeadIn: 0
PreviewTime: 59713
Countdown: 0
SampleSet: Normal
StackLeniency: 0.7
Mode: 1
LetterboxInBreaks: 0
WidescreenStoryboard: 0

[Editor]
Bookmarks: 2570,10570,11713,20856,29998,39141,44856,48284,57427,59713,61998,71141,80284,89427,98570,112284,116856
DistanceSpacing: 0.1
BeatDivisor: 4
GridSize: 32
TimelineZoom: 2.1

[Metadata]
Title:Kamui
TitleUnicode:Kamui
Artist:TJ.Hangneil
ArtistUnicode:TJ.Hangneil
Creator:Cristian
Version:Muzukashii
Source:Ez2Dj 7th TraX Class R Codename : Violet
Tags:sasakure.UK lepidopodus -Kazu- kazukisinx -Anhedonia- Kurisuchianu
BeatmapID:179896
BeatmapSetID:60137

[Difficulty]
HPDrainRate:6
CircleSize:3
OverallDifficulty:5
ApproachRate:10
SliderMultiplier:1.4
SliderTickRate:1

[Events]
//Background and Video events
Video,-1474,"KAMUI.AVI"
0,0,"BG.jpg",0,0
//Break Periods
//Storyboard Layer 0 (Background)
//Storyboard Layer 1 (Fail)
//Storyboard Layer 2 (Pass)
//Storyboard Layer 3 (Foreground)
//Storyboard Layer 4 (Overlay)
//Storyboard Sound Samples

[TimingPoints]
284.626818192777,285.714285714286,4,1,0,70,1,0
80284,-100,4,1,0,70,0,1
116856,-100,4,1,0,70,0,0

[Colours]
Combo1 : 255,128,0
Combo2 : 0,255,255
Combo3 : 255,43,255

[HitObjects]
256,192,2570,5,0,0:0:0:0:
256,192,2856,1,8,0:0:0:0:
256,192,2998,1,0,0:0:0:0:
256,192,3284,1,0,0:0:0:0:
256,192,3570,1,0,0:0:0:0:
256,192,3856,1,0,0:0:0:0:
256,192,4141,1,0,0:0:0:0:
256,192,4427,1,0,0:0:0:0:
256,192,4856,1,8,0:0:0:0:
256,192,5141,1,0,0:0:0:0:
256,192,5284,1,8,0:0:0:0:
256,192,5570,1,8,0:0:0:0:
256,192,5856,1,8,0:0:0:0:
256,192,6141,1,0,0:0:0:0:
256,192,6427,1,0,0:0:0:0:
256,192,6713,1,8,0:0:0:0:
256,192,7141,1,0,0:0:0:0:
256,192,7427,1,8,0:0:0:0:
256,192,7570,1,0,0:0:0:0:
256,192,7856,1,0,0:0:0:0:
256,192,8141,1,0,0:0:0:0:
256,192,8427,1,0,0:0:0:0:
256,192,8713,1,0,0:0:0:0:
256,192,8998,1,0,0:0:0:0:
256,192,9427,1,8,0:0:0:0:
256,192,9713,1,0,0:0:0:0:
256,192,9856,1,8,0:0:0:0:
256,192,10141,1,8,0:0:0:0:
256,192,10427,1,0,0:0:0:0:
256,192,10570,1,8,0:0:0:0:
256,192,11713,1,0,0:0:0:0:
256,192,11998,1,8,0:0:0:0:
256,192,12141,1,8,0:0:0:0:
256,192,12284,1,0,0:0:0:0:
256,192,12570,1,8,0:0:0:0:
256,192,12713,1,8,0:0:0:0:
256,192,12784,1,8,0:0:0:0:
256,192,12856,1,0,0:0:0:0:
256,192,13141,1,8,0:0:0:0:
256,192,13284,1,8,0:0:0:0:
256,192,13427,1,0,0:0:0:0:
256,192,13570,1,8,0:0:0:0:
256,192,13713,1,8,0:0:0:0:
256,192,13998,1,0,0:0:0:0:
256,192,14284,1,8,0:0:0:0:
256,192,14427,1,0,0:0:0:0:
256,192,14570,1,8,0:0:0:0:
256,192,14856,1,8,0:0:0:0:
256,192,14998,1,0,0:0:0:0:
256,192,15070,1,0,0:0:0:0:
256,192,15141,1,8,0:0:0:0:
256,192,15427,1,8,0:0:0:0:
256,192,15713,1,8,0:0:0:0:
256,192,15856,1,8,0:0:0:0:
256,192,15998,1,0,0:0:0:0:
256,192,16141,1,8,0:0:0:0:
256,192,16212,1,8,0:0:0:0:
256,192,16284,1,0,0:0:0:0:
256,192,16570,1,8,0:0:0:0:
256,192,16713,1,0,0:0:0:0:
256,192,16856,1,0,0:0:0:0:
256,192,17141,1,8,0:0:0:0:
256,192,17284,1,0,0:0:0:0:
256,192,17356,1,0,0:0:0:0:
256,192,17427,1,0,0:0:0:0:
256,192,17713,1,0,0:0:0:0:
256,192,17856,1,8,0:0:0:0:
256,192,17998,1,0,0:0:0:0:
256,192,18141,1,8,0:0:0:0:
256,192,18284,1,8,0:0:0:0:
256,192,18570,1,0,0:0:0:0:
256,192,18856,1,8,0:0:0:0:
256,192,18998,1,0,0:0:0:0:
256,192,19141,1,0,0:0:0:0:
256,192,19427,1,8,0:0:0:0:
256,192,19713,1,0,0:0:0:0:
256,192,19856,1,0,0:0:0:0:
256,192,19998,1,8,0:0:0:0:
256,192,20141,1,0,0:0:0:0:
256,192,20213,1,0,0:0:0:0:
256,192,20284,1,0,0:0:0:0:
256,192,20427,1,0,0:0:0:0:
256,192,20570,1,8,0:0:0:0:
256,192,20713,1,8,0:0:0:0:
256,192,20856,1,0,0:0:0:0:
256,192,21141,1,8,0:0:0:0:
256,192,21284,1,0,0:0:0:0:
256,192,21570,1,0,0:0:0:0:
256,192,21713,1,8,0:0:0:0:
256,192,21856,1,0,0:0:0:0:
256,192,22141,1,0,0:0:0:0:
256,192,22284,1,8,0:0:0:0:
256,192,22427,1,0,0:0:0:0:
256,192,22713,1,0,0:0:0:0:
256,192,22856,1,8,0:0:0:0:
256,192,23141,1,0,0:0:0:0:
256,192,23427,1,8,0:0:0:0:
256,192,23570,1,0,0:0:0:0:
256,192,23856,1,0,0:0:0:0:
256,192,23998,1,8,0:0:0:0:
256,192,24141,1,0,0:0:0:0:
256,192,24427,1,0,0:0:0:0:
256,192,24570,1,8,0:0:0:0:
256,192,24856,1,8,0:0:0:0:
256,192,24927,1,8,0:0:0:0:
256,192,24998,1,0,0:0:0:0:
256,192,25070,1,0,0:0:0:0:
256,192,25141,1,8,0:0:0:0:
256,192,25284,1,8,0:0:0:0:
256,192,25427,1,0,0:0:0:0:
256,192,26427,1,8,0:0:0:0:
256,192,26570,1,8,0:0:0:0:
256,192,26713,1,8,0:0:0:0:
256,192,26855,1,0,0:0:0:0:
256,192,26998,1,8,0:0:0:0:
256,192,27284,1,0,0:0:0:0:
256,192,27427,1,0,0:0:0:0:
256,192,27570,1,8,0:0:0:0:
256,192,27713,1,0,0:0:0:0:
256,192,27784,1,0,0:0:0:0:
256,192,27856,1,0,0:0:0:0:
256,192,27998,1,0,0:0:0:0:
256,192,28141,1,0,0:0:0:0:
256,192,28284,1,0,0:0:0:0:
256,192,28356,1,0,0:0:0:0:
256,192,28427,1,0,0:0:0:0:
256,192,28570,1,0,0:0:0:0:
256,192,28856,1,8,0:0:0:0:
256,192,28999,1,8,0:0:0:0:
256,192,29070,1,8,0:0:0:0:
256,192,29141,1,8,0:0:0:0:
256,192,29284,1,8,0:0:0:0:
256,192,29427,1,8,0:0:0:0:
256,192,29498,1,8,0:0:0:0:
256,192,29570,1,8,0:0:0:0:
256,192,29713,1,8,0:0:0:0:
256,192,29998,1,4,0:0:0:0:
256,192,30284,1,8,0:0:0:0:
256,192,30427,1,0,0:0:0:0:
256,192,30713,1,0,0:0:0:0:
256,192,30856,1,8,0:0:0:0:
256,192,30998,1,8,0:0:0:0:
256,192,31284,1,8,0:0:0:0:
256,192,31427,1,0,0:0:0:0:
256,192,31712,1,8,0:0:0:0:
256,192,31855,1,0,0:0:0:0:
256,192,31998,1,8,0:0:0:0:
256,192,32284,1,0,0:0:0:0:
256,192,32427,1,0,0:0:0:0:
256,192,32570,1,8,0:0:0:0:
256,192,32713,1,0,0:0:0:0:
256,192,32998,1,8,0:0:0:0:
256,192,33141,1,8,0:0:0:0:
256,192,33284,1,0,0:0:0:0:
256,192,33570,1,0,0:0:0:0:
256,192,33713,1,0,0:0:0:0:
256,192,33856,1,0,0:0:0:0:
256,192,33998,1,8,0:0:0:0:
256,192,34141,1,8,0:0:0:0:
256,192,34284,1,0,0:0:0:0:
256,192,34427,1,8,0:0:0:0:
256,192,34570,1,0,0:0:0:0:
256,192,34856,1,8,0:0:0:0:
256,192,34998,1,8,0:0:0:0:
256,192,35284,1,8,0:0:0:0:
256,192,35427,1,0,0:0:0:0:
256,192,35570,1,0,0:0:0:0:
256,192,35856,1,0,0:0:0:0:
256,192,35998,1,8,0:0:0:0:
256,192,36284,1,8,0:0:0:0:
256,192,36427,1,0,0:0:0:0:
256,192,36570,1,8,0:0:0:0:
256,192,36856,1,0,0:0:0:0:
256,192,37141,1,0,0:0:0:0:
256,192,37284,1,8,0:0:0:0:
256,192,37570,1,8,0:0:0:0:
256,192,37713,1,0,0:0:0:0:
256,192,37856,1,8,0:0:0:0:
256,192,37998,1,0,0:0:0:0:
256,192,38070,1,0,0:0:0:0:
256,192,38141,1,0,0:0:0:0:
256,192,38284,1,8,0:0:0:0:
256,192,38570,1,8,0:0:0:0:
256,192,38641,1,8,0:0:0:0:
256,192,38713,1,0,0:0:0:0:
256,192,38856,1,8,0:0:0:0:
256,192,39141,1,0,0:0:0:0:
256,192,39427,1,8,0:0:0:0:
256,192,39570,1,0,0:0:0:0:
256,192,39856,1,0,0:0:0:0:
256,192,39998,1,8,0:0:0:0:
256,192,40141,1,0,0:0:0:0:
256,192,40427,1,0,0:0:0:0:
256,192,40713,1,0,0:0:0:0:
256,192,40856,1,8,0:0:0:0:
256,192,40998,1,0,0:0:0:0:
256,192,41141,1,8,0:0:0:0:
256,192,41427,1,0,0:0:0:0:
256,192,41713,1,8,0:0:0:0:
256,192,41856,1,0,0:0:0:0:
256,192,42141,1,0,0:0:0:0:
256,192,42284,1,8,0:0:0:0:
256,192,42427,1,8,0:0:0:0:
256,192,42713,1,8,0:0:0:0:
256,192,42856,1,0,0:0:0:0:
256,192,43141,1,0,0:0:0:0:
256,192,43427,1,8,0:0:0:0:
256,192,43713,1,0,0:0:0:0:
256,192,43998,1,0,0:0:0:0:
256,192,44141,1,8,0:0:0:0:
256,192,44427,1,8,0:0:0:0:
256,192,44570,1,0,0:0:0:0:
256,192,44856,1,8,0:0:0:0:
256,192,44998,1,8,0:0:0:0:
256,192,45141,1,8,0:0:0:0:
256,192,45284,1,8,0:0:0:0:
256,192,45427,1,0,0:0:0:0:
256,192,45570,1,0,0:0:0:0:
256,192,45713,1,0,0:0:0:0:
256,192,45856,1,0,0:0:0:0:
256,192,45998,1,8,0:0:0:0:
256,192,46284,1,8,0:0:0:0:
256,192,46427,1,0,0:0:0:0:
256,192,46713,1,8,0:0:0:0:
256,192,46998,1,8,0:0:0:0:
256,192,47141,1,0,0:0:0:0:
256,192,48284,1,8,0:0:0:0:
256,192,48570,1,0,0:0:0:0:
256,192,48713,1,8,0:0:0:0:
256,192,48998,1,0,0:0:0:0:
256,192,49141,1,0,0:0:0:0:
256,192,49284,1,8,0:0:0:0:
256,192,49570,1,0,0:0:0:0:
256,192,49713,1,8,0:0:0:0:
256,192,49998,1,8,0:0:0:0:
256,192,50284,1,8,0:0:0:0:
256,192,50427,1,0,0:0:0:0:
256,192,50713,1,8,0:0:0:0:
256,192,50998,1,0,0:0:0:0:
256,192,51141,1,0,0:0:0:0:
256,192,51284,1,8,0:0:0:0:
256,192,51570,1,8,0:0:0:0:
256,192,51713,1,0,0:0:0:0:
256,192,51856,1,8,0:0:0:0:
256,192,52141,1,0,0:0:0:0:
256,192,52284,1,8,0:0:0:0:
256,192,52427,1,8,0:0:0:0:
256,192,52570,1,0,0:0:0:0:
256,192,52713,1,0,0:0:0:0:
256,192,52856,1,8,0:0:0:0:
256,192,53141,1,0,0:0:0:0:
256,192,53284,1,8,0:0:0:0:
256,192,53570,1,0,0:0:0:0:
256,192,53713,1,0,0:0:0:0:
256,192,53856,1,8,0:0:0:0:
256,192,54141,1,0,0:0:0:0:
256,192,54284,1,8,0:0:0:0:
256,192,54570,1,8,0:0:0:0:
256,192,54856,1,8,0:0:0:0:
256,192,54998,1,0,0:0:0:0:
256,192,55284,1,8,0:0:0:0:
256,192,55570,1,8,0:0:0:0:
256,192,55713,1,0,0:0:0:0:
256,192,55856,1,8,0:0:0:0:
256,192,56141,1,0,0:0:0:0:
256,192,56284,1,0,0:0:0:0:
256,192,56427,1,8,0:0:0:0:
256,192,56713,1,0,0:0:0:0:
256,192,56856,1,8,0:0:0:0:
256,192,56927,1,8,0:0:0:0:
256,192,56998,1,8,0:0:0:0:
256,192,57141,1,8,0:0:0:0:
256,192,57284,1,8,0:0:0:0:
192,96,59713,1,0,0:0:0:0:
192,96,59998,1,0,0:0:0:0:
192,96,60284,1,0,0:0:0:0:
192,96,60570,1,0,0:0:0:0:
192,96,60856,1,0,0:0:0:0:
192,96,60998,1,0,0:0:0:0:
192,96,61141,1,0,0:0:0:0:
192,96,61284,1,0,0:0:0:0:
192,96,61427,1,0,0:0:0:0:
192,96,61570,1,0,0:0:0:0:
192,96,61713,1,0,0:0:0:0:
192,96,61856,1,0,0:0:0:0:
192,96,61998,1,0,0:0:0:0:
192,96,62070,1,0,0:0:0:0:
192,96,62141,1,0,0:0:0:0:
192,96,62284,1,8,0:0:0:0:
192,96,62427,1,0,0:0:0:0:
192,96,62570,1,0,0:0:0:0:
192,96,62641,1,0,0:0:0:0:
192,96,62713,1,0,0:0:0:0:
192,128,62856,1,8,0:0:0:0:
192,96,63141,1,0,0:0:0:0:
192,96,63213,1,0,0:0:0:0:
192,96,63284,1,0,0:0:0:0:
224,160,63427,1,8,0:0:0:0:
192,96,63570,1,0,0:0:0:0:
192,96,63713,1,0,0:0:0:0:
192,96,63784,1,8,0:0:0:0:
192,96,63856,1,0,0:0:0:0:
256,192,63998,1,8,0:0:0:0:
256,192,64284,1,8,0:0:0:0:
256,192,64356,1,8,0:0:0:0:
256,192,64427,1,0,0:0:0:0:
256,192,64570,1,0,0:0:0:0:
256,192,64713,1,0,0:0:0:0:
256,192,64856,1,0,0:0:0:0:
256,192,64927,1,8,0:0:0:0:
256,192,64998,1,0,0:0:0:0:
256,192,65141,1,8,0:0:0:0:
256,192,65427,1,8,0:0:0:0:
256,192,65498,1,8,0:0:0:0:
256,192,65570,1,0,0:0:0:0:
256,192,65713,1,8,0:0:0:0:
256,192,65856,1,0,0:0:0:0:
256,192,65998,1,8,0:0:0:0:
256,192,66070,1,8,0:0:0:0:
256,192,66141,1,0,0:0:0:0:
256,192,66284,1,8,0:0:0:0:
256,192,66570,1,0,0:0:0:0:
256,192,66641,1,8,0:0:0:0:
256,192,66713,1,0,0:0:0:0:
256,192,66856,1,8,0:0:0:0:
256,192,66998,1,0,0:0:0:0:
256,192,67070,1,8,0:0:0:0:
256,192,67141,1,0,0:0:0:0:
256,192,67284,1,8,0:0:0:0:
256,192,67427,1,8,0:0:0:0:
256,192,67713,1,8,0:0:0:0:
256,192,67784,1,0,0:0:0:0:
256,192,67856,1,8,0:0:0:0:
256,192,67998,1,0,0:0:0:0:
256,192,68141,1,8,0:0:0:0:
256,192,68213,1,0,0:0:0:0:
256,192,68284,1,8,0:0:0:0:
256,192,68427,1,0,0:0:0:0:
256,192,68570,1,8,0:0:0:0:
256,192,68856,1,0,0:0:0:0:
256,192,68927,1,0,0:0:0:0:
256,192,68998,1,0,0:0:0:0:
256,192,69141,1,8,0:0:0:0:
256,192,69284,1,0,0:0:0:0:
256,192,69356,1,8,0:0:0:0:
256,192,69427,1,0,0:0:0:0:
256,192,69570,1,8,0:0:0:0:
256,192,69713,1,8,0:0:0:0:
256,192,69998,1,0,0:0:0:0:
256,192,70070,1,0,0:0:0:0:
256,192,70141,1,0,0:0:0:0:
256,192,70284,1,0,0:0:0:0:
256,192,70427,1,0,0:0:0:0:
256,192,70498,1,0,0:0:0:0:
256,192,70570,1,0,0:0:0:0:
256,192,70713,1,0,0:0:0:0:
256,192,70856,1,0,0:0:0:0:
256,192,71141,1,0,0:0:0:0:
256,192,71713,1,0,0:0:0:0:
256,192,72284,1,8,0:0:0:0:
256,192,72856,1,0,0:0:0:0:
256,192,73427,1,8,0:0:0:0:
256,192,73998,1,8,0:0:0:0:
256,192,74570,1,0,0:0:0:0:
256,192,75141,1,8,0:0:0:0:
256,192,75713,1,8,0:0:0:0:
256,192,75784,1,8,0:0:0:0:
256,192,75856,1,0,0:0:0:0:
256,192,75998,1,8,0:0:0:0:
256,192,76141,1,0,0:0:0:0:
256,192,76213,1,8,0:0:0:0:
256,192,76284,1,0,0:0:0:0:
256,192,76427,1,0,0:0:0:0:
256,192,76570,1,8,0:0:0:0:
256,192,76856,1,0,0:0:0:0:
256,192,76927,1,0,0:0:0:0:
256,192,76998,1,8,0:0:0:0:
256,192,77070,1,8,0:0:0:0:
256,192,77141,1,0,0:0:0:0:
256,192,77284,1,0,0:0:0:0:
256,192,77427,1,0,0:0:0:0:
256,192,77570,1,8,0:0:0:0:
256,192,77713,1,8,0:0:0:0:
256,192,77998,1,0,0:0:0:0:
256,192,78141,1,0,0:0:0:0:
256,192,78284,1,8,0:0:0:0:
256,192,78427,1,0,0:0:0:0:
256,192,78713,1,0,0:0:0:0:
256,192,78856,1,8,0:0:0:0:
256,192,78998,1,0,0:0:0:0:
256,192,79284,1,0,0:0:0:0:
256,192,79427,1,8,0:0:0:0:
256,192,79713,1,0,0:0:0:0:
256,192,79784,1,8,0:0:0:0:
256,192,79856,1,8,0:0:0:0:
256,192,79998,1,8,0:0:0:0:
256,192,80141,1,8,0:0:0:0:
256,192,80284,1,0,0:0:0:0:
256,192,80570,1,8,0:0:0:0:
256,192,80856,1,0,0:0:0:0:
256,192,80998,1,0,0:0:0:0:
256,192,81141,1,8,0:0:0:0:
256,192,81427,1,0,0:0:0:0:
256,192,81713,1,8,0:0:0:0:
256,192,81998,1,8,0:0:0:0:
256,192,82141,1,0,0:0:0:0:
256,192,82284,1,8,0:0:0:0:
256,192,82570,1,0,0:0:0:0:
256,192,82856,1,8,0:0:0:0:
256,192,82998,1,0,0:0:0:0:
256,192,83284,1,0,0:0:0:0:
256,192,83427,1,8,0:0:0:0:
256,192,83713,1,0,0:0:0:0:
256,192,83998,1,8,0:0:0:0:
256,192,84284,1,8,0:0:0:0:
256,192,84427,1,0,0:0:0:0:
256,192,84570,1,8,0:0:0:0:
256,192,84856,1,8,0:0:0:0:
256,192,85141,1,8,0:0:0:0:
256,192,85284,1,0,0:0:0:0:
256,192,85570,1,0,0:0:0:0:
256,192,85713,1,8,0:0:0:0:
256,192,85856,1,0,0:0:0:0:
256,192,86141,1,0,0:0:0:0:
256,192,86284,1,8,0:0:0:0:
256,192,86570,1,0,0:0:0:0:
256,192,86713,1,0,0:0:0:0:
256,192,86856,1,8,0:0:0:0:
256,192,87141,1,0,0:0:0:0:
256,192,87427,1,8,0:0:0:0:
256,192,87570,1,0,0:0:0:0:
256,192,87856,1,0,0:0:0:0:
256,192,87998,1,8,0:0:0:0:
256,192,88284,1,0,0:0:0:0:
256,192,88570,1,8,0:0:0:0:
256,192,88856,1,0,0:0:0:0:
256,192,88998,1,0,0:0:0:0:
256,192,89141,1,8,0:0:0:0:
256,192,89427,1,0,0:0:0:0:
256,192,89570,1,0,0:0:0:0:
256,192,89713,1,8,0:0:0:0:
256,192,89856,1,0,0:0:0:0:
256,192,90141,1,0,0:0:0:0:
256,192,90284,1,8,0:0:0:0:
256,192,90427,1,8,0:0:0:0:
256,192,90570,1,0,0:0:0:0:
256,192,90713,1,8,0:0:0:0:
256,192,90998,1,8,0:0:0:0:
256,192,91141,1,0,0:0:0:0:
256,192,91284,1,0,0:0:0:0:
256,192,91427,1,8,0:0:0:0:
256,192,91570,1,8,0:0:0:0:
256,192,91856,1,0,0:0:0:0:
256,192,91999,1,8,0:0:0:0:
256,192,92141,1,0,0:0:0:0:
256,192,92284,1,0,0:0:0:0:
256,192,92427,1,8,0:0:0:0:
256,192,92713,1,0,0:0:0:0:
256,192,92856,1,0,0:0:0:0:
256,192,92998,1,8,0:0:0:0:
256,192,93141,1,8,0:0:0:0:
256,192,93284,1,0,0:0:0:0:
256,192,93570,1,0,0:0:0:0:
256,192,93713,1,8,0:0:0:0:
256,192,93856,1,8,0:0:0:0:
256,192,93998,1,0,0:0:0:0:
256,192,94141,1,8,0:0:0:0:
256,192,94427,1,0,0:0:0:0:
256,192,94570,1,8,0:0:0:0:
256,192,94713,1,8,0:0:0:0:
256,192,94856,1,0,0:0:0:0:
256,192,94999,1,8,0:0:0:0:
256,192,95141,1,0,0:0:0:0:
256,192,95213,1,0,0:0:0:0:
256,192,95284,1,8,0:0:0:0:
256,192,95355,1,8,0:0:0:0:
256,192,95427,1,0,0:0:0:0:
256,192,95570,1,0,0:0:0:0:
256,192,95713,1,8,0:0:0:0:
256,192,95856,1,0,0:0:0:0:
256,192,96141,1,0,0:0:0:0:
256,192,96284,1,8,0:0:0:0:
256,192,96427,1,0,0:0:0:0:
256,192,96570,1,8,0:0:0:0:
256,192,96713,1,0,0:0:0:0:
256,192,96998,1,0,0:0:0:0:
256,192,97141,1,8,0:0:0:0:
256,192,97284,1,0,0:0:0:0:
256,192,97570,1,0,0:0:0:0:
256,192,97713,1,8,0:0:0:0:
256,192,97998,1,0,0:0:0:0:
256,192,98070,1,8,0:0:0:0:
256,192,98141,1,0,0:0:0:0:
256,192,98284,1,8,0:0:0:0:
288,192,98427,1,8,0:0:0:0:
256,192,98570,1,0,0:0:0:0:
256,192,98856,1,0,0:0:0:0:
256,192,98999,1,8,0:0:0:0:
256,192,99284,1,8,0:0:0:0:
256,192,99426,1,0,0:0:0:0:
256,192,99713,1,0,0:0:0:0:
256,192,99856,1,8,0:0:0:0:
256,192,100141,1,0,0:0:0:0:
256,192,100284,1,0,0:0:0:0:
256,192,100570,1,0,0:0:0:0:
256,192,100713,1,8,0:0:0:0:
256,192,100998,1,8,0:0:0:0:
256,192,101141,1,8,0:0:0:0:
256,192,101427,1,8,0:0:0:0:
256,192,101569,1,0,0:0:0:0:
256,192,101856,1,0,0:0:0:0:
256,192,101999,1,8,0:0:0:0:
256,192,102284,1,8,0:0:0:0:
256,192,102427,1,0,0:0:0:0:
256,192,102713,1,0,0:0:0:0:
256,192,102856,1,8,0:0:0:0:
256,192,103141,1,8,0:0:0:0:
256,192,103284,1,0,0:0:0:0:
256,192,103570,1,0,0:0:0:0:
256,192,103713,1,8,0:0:0:0:
256,192,103998,1,8,0:0:0:0:
256,192,104141,1,8,0:0:0:0:
256,192,104427,1,8,0:0:0:0:
256,192,104570,1,0,0:0:0:0:
256,192,104856,1,0,0:0:0:0:
256,192,104998,1,8,0:0:0:0:
256,192,105284,1,0,0:0:0:0:
256,192,105427,1,0,0:0:0:0:
256,192,105713,1,0,0:0:0:0:
256,192,105856,1,8,0:0:0:0:
256,192,106141,1,8,0:0:0:0:
256,192,106284,1,0,0:0:0:0:
256,192,106570,1,8,0:0:0:0:
256,192,106713,1,0,0:0:0:0:
256,192,106998,1,8,0:0:0:0:
256,192,107141,1,8,0:0:0:0:
256,192,107427,1,0,0:0:0:0:
256,192,107713,1,8,0:0:0:0:
256,192,107998,1,0,0:0:0:0:
256,192,108141,1,8,0:0:0:0:
256,192,108427,1,8,0:0:0:0:
256,192,108570,1,0,0:0:0:0:
256,192,108856,1,0,0:0:0:0:
256,192,108998,1,8,0:0:0:0:
256,192,109284,1,8,0:0:0:0:
256,192,109427,1,8,0:0:0:0:
256,192,109713,1,0,0:0:0:0:
256,192,109856,1,8,0:0:0:0:
256,192,110141,1,0,0:0:0:0:
256,192,110284,1,0,0:0:0:0:
256,192,110570,1,8,0:0:0:0:
256,192,110713,1,0,0:0:0:0:
256,192,110998,1,0,0:0:0:0:
256,192,111141,1,8,0:0:0:0:
256,192,111427,1,8,0:0:0:0:
256,192,111569,1,8,0:0:0:0:
256,192,111856,1,0,0:0:0:0:
256,192,111998,1,8,0:0:0:0:
256,192,112284,1,8,0:0:0:0:
256,192,112427,1,0,0:0:0:0:
256,192,112713,1,0,0:0:0:0:
256,192,112856,1,8,0:0:0:0:
256,192,113141,1,8,0:0:0:0:
256,192,113284,1,0,0:0:0:0:
256,192,113570,1,0,0:0:0:0:
256,192,113713,1,8,0:0:0:0:
256,192,113998,1,8,0:0:0:0:
256,192,114141,1,0,0:0:0:0:
256,192,114284,1,8,0:0:0:0:
256,192,114427,1,0,0:0:0:0:
256,192,114570,1,8,0:0:0:0:
256,192,114713,1,8,0:0:0:0:
256,192,114999,1,8,0:0:0:0:
256,192,115141,1,0,0:0:0:0:
256,192,115284,1,0,0:0:0:0:
256,192,115427,1,8,0:0:0:0:
256,192,115713,1,8,0:0:0:0:
256,192,115856,1,0,0:0:0:0:
256,192,115998,1,0,0:0:0:0:
256,192,116141,1,8,0:0:0:0:
256,192,116284,1,8,0:0:0:0:
256,192,116427,1,8,0:0:0:0:
256,192,116498,1,8,0:0:0:0:
256,192,116570,1,8,0:0:0:0:
256,192,116641,1,8,0:0:0:0:
256,192,116713,1,8,0:0:0:0:
256,192,116856,1,0,0:0:0:0:
