osu file format v14

[General]
AudioFilename: audio.mp3
AudioLeadIn: 0
PreviewTime: 1548
Countdown: 0
SampleSet: Soft
StackLeniency: 0.7
Mode: 0
LetterboxInBreaks: 0
WidescreenStoryboard: 1

[Editor]
Bookmarks: 1633,12542,17997,27542,35809
DistanceSpacing: 1.3
BeatDivisor: 4
GridSize: 32
TimelineZoom: 1.2

[Metadata]
Title:The Owl House Theme Song (TV Size)
TitleUnicode:The Owl House Theme Song (TV Size)
Artist:TJ Hill
ArtistUnicode:TJ Hill
Creator:Videos
Version:bnmc, Leomine & Videos' Advanced
Source:The Owl House
Tags:share crysisters sylvantia leominexd leomine bnmc mrgglock animestyle disney channel cartoon folk instrumental opening op
BeatmapID:3599044
BeatmapSetID:1757984

[Difficulty]
HPDrainRate:4
CircleSize:3.6
OverallDifficulty:4.5
ApproachRate:6
SliderMultiplier:1.2
SliderTickRate:1

[Events]
//Background and Video events
0,0,"moebg.jpg",0,0
Video,-55,"video (3).mp4"
//Break Periods
//Storyboard Layer 0 (Background)
//Storyboard Layer 1 (Fail)
//Storyboard Layer 2 (Pass)
//Storyboard Layer 3 (Foreground)
//Storyboard Layer 4 (Overlay)
//Storyboard Sound Samples

[TimingPoints]
270,340.909090909091,4,2,1,60,1,0
1633,-105.263157894737,4,2,1,60,0,0
12542,-111.111111111111,4,2,2,60,0,0
17997,-100,4,2,3,60,0,1
18167,-100,4,2,1,60,0,1
27542,-105.263157894737,4,2,1,40,0,0
31633,-105.263157894737,4,2,1,60,0,0
33679,-111.111111111111,4,2,3,60,0,0
35809,-100,4,2,3,60,0,0

[Colours]
Combo1 : 134,169,240
Combo2 : 255,255,72
Combo3 : 238,162,34
Combo4 : 189,62,0

[HitObjects]
136,101,1633,6,0,P|143:70|149:39,2,56.9999984779358,6|0|10,1:2|0:0|0:0,0:0:0:0:
83,153,2145,1,2,0:0:0:0:
83,153,2315,2,0,P|113:200|98:255,1,113.999996955872,2|8,1:2|0:0,0:0:0:0:
187,373,2997,2,0,P|217:365|248:359,1,56.9999984779358,0|0,1:2|0:0,0:0:0:0:
295,307,3338,2,0,P|325:314|356:320,1,56.9999984779358,10|0,0:0|0:0,0:0:0:0:
416,353,3679,2,0,P|446:346|477:340,1,56.9999984779358,2|0,1:2|0:0,0:0:0:0:
512,279,4020,1,10,0:0:0:0:
409,172,4360,6,0,L|347:185,2,56.9999984779358,2|2|10,1:2|0:0|0:0,0:0:0:0:
461,119,4872,1,2,1:2:0:0:
461,119,5042,2,0,B|481:65|481:65|444:22,1,113.999996955872,2|8,1:2|0:0,0:0:0:0:
315,96,5724,2,0,P|286:96|261:84,1,56.9999984779358,0|0,1:2|0:0,0:0:0:0:
194,116,6065,2,0,P|168:103|140:104,1,56.9999984779358,10|0,0:0|0:0,0:0:0:0:
66,107,6406,2,0,P|73:134|80:162,1,56.9999984779358,2|0,1:2|0:0,0:0:0:0:
122,223,6747,1,10,0:0:0:0:
226,327,7088,6,0,L|210:388,2,56.9999984779358,2|2|10,1:2|0:0|0:0,0:0:0:0:
291,292,7599,1,2,1:2:0:0:
291,292,7770,2,0,B|347:302|319:348|377:360,1,113.999996955872,2|8,1:2|0:0,0:0:0:0:
504,285,8451,2,0,P|512:258|507:230,1,56.9999984779358,0|0,1:2|0:0,0:0:0:0:
443,190,8792,2,0,P|437:162|446:135,1,56.9999984779358,10|0,0:0|1:2,0:0:0:0:
495,80,9133,2,0,P|501:52|492:25,1,56.9999984779358,2|0,1:2|0:0,0:0:0:0:
418,14,9474,1,10,0:0:0:0:
280,68,9815,6,0,P|289:97|294:128,2,56.9999984779358,2|2|10,1:2|0:0|0:0,0:0:0:0:
224,18,10326,1,2,1:2:0:0:
224,18,10497,2,0,P|167:14|124:50,1,113.999996955872,2|8,1:2|0:0,0:0:0:0:
43,172,11179,2,0,P|52:202|59:232,1,56.9999984779358,0|0,1:2|1:2,0:0:0:0:
115,275,11520,2,0,P|145:267|175:258,1,56.9999984779358,10|0,0:0|0:0,0:0:0:0:
227,213,11860,2,0,B|272:222|272:222|289:241|289:241|332:250,1,113.999996955872,2|10,1:2|0:0,0:0:0:0:
454,337,12542,6,0,B|485:312|485:312|479:244,1,107.999996704102,6|0,1:2|1:2,0:0:0:0:
453,177,13054,1,2,1:2:0:0:
453,177,13224,2,0,P|407:151|361:175,1,107.999996704102,2|10,1:2|0:0,0:0:0:0:
209,175,13906,2,0,L|212:67,1,107.999996704102,2|0,1:2|1:2,0:0:0:0:
164,15,14417,1,2,1:2:0:0:
164,15,14588,2,0,P|138:8|113:16,1,53.9999983520508,2|2,1:2|0:0,0:0:0:0:
45,50,14929,2,0,P|34:74|39:100,1,53.9999983520508,10|2,0:0|0:0,0:0:0:0:
31,175,15270,6,0,B|72:173|72:173|100:189|100:189|134:187,1,107.999996704102,2|0,1:2|1:2,0:0:0:0:
209,175,15781,1,2,1:2:0:0:
209,175,15951,2,0,P|257:158|293:195,1,107.999996704102,2|10,1:2|0:0,0:0:0:0:
362,329,16633,2,0,P|385:340|412:336,1,53.9999983520508,2|2,1:2|1:2,0:0:0:0:
465,282,16974,2,0,L|459:228,1,53.9999983520508,2|2,1:2|1:2,0:0:0:0:
416,165,17315,2,0,L|420:111,1,53.9999983520508,2|2,1:2|1:2,0:0:0:0:
457,47,17656,1,2,1:2:0:0:
457,47,17826,1,2,1:2:0:0:
390,6,17997,6,0,B|335:-6|335:43|276:28,1,120,6|8,1:2|0:0,0:0:0:0:
204,11,18508,1,0,0:0:0:0:
204,11,18679,2,0,L|195:98,1,60,0|0,1:2|0:0,0:0:0:0:
187,148,19020,1,8,0:0:0:0:
89,269,19360,2,0,B|126:264|126:264|156:293|156:293|195:289,1,120,2|8,1:2|0:0,0:0:0:0:
278,299,19872,1,0,1:2:0:0:
278,299,20042,2,0,P|266:265|274:223,1,60,2|0,1:2|0:0,0:0:0:0:
318,182,20383,2,0,P|326:147|315:105,1,60,8|0,0:0|1:2,0:0:0:0:
251,90,20724,6,0,P|295:49|359:52,1,120,2|8,1:2|0:0,0:0:0:0:
494,113,21406,2,0,P|498:85|507:50,2,60,0|0|8,1:2|0:0|0:0,0:0:0:0:
454,181,21917,1,0,0:0:0:0:
454,181,22088,2,0,P|468:239|477:299,1,120,2|8,1:2|0:0,0:0:0:0:
426,359,22599,1,0,0:0:0:0:
426,359,22770,2,0,B|371:373|370:324|311:341,1,120,2|8,1:2|0:0,0:0:0:0:
160,382,23451,6,0,P|172:341|168:317,1,60,2|0,1:2|1:2,0:0:0:0:
111,272,23792,2,0,P|98:231|102:207,1,60,8|0,0:0|0:0,0:0:0:0:
132,142,24133,2,0,B|165:167|165:167|246:154,1,120,0|8,1:2|0:0,0:0:0:0:
377,77,24815,2,0,P|354:111|370:186,1,120,2|8,1:2|0:0,0:0:0:0:
444,219,25326,1,0,1:2:0:0:
444,219,25497,2,0,P|469:208|508:209,2,60,2|0|8,1:2|0:0|0:0,0:0:0:0:
334,330,26179,6,0,B|277:324|277:324|273:334|273:334|218:330,1,120,10|0,0:0|1:2,0:0:0:0:
149,298,26690,2,0,B|178:269|178:269|166:179,1,120,8|0,0:0|1:2,0:0:0:0:
154,118,27201,1,8,0:0:0:0:
154,118,27372,1,0,1:2:0:0:
199,59,27542,5,6,1:2:0:0:
199,59,31633,6,0,L|265:64,1,56.9999984779358,10|10,0:0|0:0,0:0:0:0:
319,24,31974,2,0,L|375:19,1,56.9999984779358,10|10,0:0|0:0,0:0:0:0:
429,68,32315,2,0,P|440:95|431:121,1,56.9999984779358,10|10,0:0|0:0,0:0:0:0:
372,167,32656,2,0,P|363:193|373:219,1,56.9999984779358,10|10,0:0|0:0,0:0:0:0:
429,276,32997,1,10,0:0:0:0:
429,276,33167,1,10,0:0:0:0:
393,341,33338,2,0,L|331:336,1,56.9999984779358,10|10,0:0|0:0,0:0:0:0:
266,323,33679,1,6,1:2:0:0:
256,192,33849,12,0,35809,0:0:0:0:
