osu file format v14

[General]
AudioFilename: audio.mp3
AudioLeadIn: 0
PreviewTime: 1548
Countdown: 0
SampleSet: Soft
StackLeniency: 0.7
Mode: 0
LetterboxInBreaks: 0
WidescreenStoryboard: 1

[Editor]
Bookmarks: 1633,12542,17997,27542,35809
DistanceSpacing: 1.5
BeatDivisor: 4
GridSize: 32
TimelineZoom: 1.4

[Metadata]
Title:The Owl House Theme Song (TV Size)
TitleUnicode:The Owl House Theme Song (TV Size)
Artist:TJ Hill
ArtistUnicode:TJ Hill
Creator:Videos
Version:Share, Crysisters & Videos' Hard
Source:The Owl House
Tags:share crysisters sylvantia leominexd leomine bnmc mrgglock animestyle disney channel cartoon folk instrumental opening op
BeatmapID:3597651
BeatmapSetID:1757984

[Difficulty]
HPDrainRate:5
CircleSize:3.8
OverallDifficulty:6
ApproachRate:8
SliderMultiplier:1.4
SliderTickRate:1

[Events]
//Background and Video events
0,0,"moebg.jpg",0,0
Video,-55,"video (3).mp4"
//Break Periods
//Storyboard Layer 0 (Background)
//Storyboard Layer 1 (Fail)
//Storyboard Layer 2 (Pass)
//Storyboard Layer 3 (Foreground)
//Storyboard Layer 4 (Overlay)
//Storyboard Sound Samples

[TimingPoints]
270,340.909090909091,4,2,1,60,1,0
1633,-100,4,2,1,60,0,0
12542,-111.111111111111,4,2,2,60,0,0
17997,-83.3333333333333,4,2,3,60,0,1
18167,-83.3333333333333,4,2,1,60,0,1
27542,-111.111111111111,4,2,1,40,0,0
28906,-111.111111111111,4,2,1,40,0,0
31633,-100,4,2,1,60,0,0
33679,-100,4,2,3,60,0,0
35809,-100,4,2,3,60,0,0

[Colours]
Combo1 : 134,169,240
Combo2 : 255,255,72
Combo3 : 238,162,34
Combo4 : 189,62,0

[HitObjects]
35,100,1633,6,0,L|123:91,1,70,6|0,1:2|0:0,0:0:0:0:
162,29,1974,1,10,0:0:0:0:
212,93,2145,1,2,0:0:0:0:
317,67,2315,2,0,P|300:113|325:169,1,105,2|0,1:2|0:0,0:0:0:0:
338,185,2656,2,0,L|429:182,1,70,8|0,0:0|0:0,0:0:0:0:
486,265,2997,2,0,L|395:262,1,70,0|0,1:2|0:0,0:0:0:0:
347,321,3338,6,0,P|300:338|236:315,1,105,10|0,0:0|0:0,0:0:0:0:
229,303,3679,2,0,L|138:315,1,70,2|0,1:2|0:0,0:0:0:0:
87,257,4020,1,10,0:0:0:0:
181,202,4190,1,0,0:0:0:0:
181,202,4276,1,0,0:0:0:0:
181,202,4361,6,0,L|262:204,2,70,2|2|10,1:2|0:0|0:0,0:0:0:0:
76,161,4872,1,2,1:2:0:0:
145,118,5042,2,0,P|146:72|57:27,1,140,2|8,1:2|0:0,0:0:0:0:
218,20,5554,1,0,0:0:0:0:
145,118,5724,6,0,P|213:110|298:117,1,140,0|10,1:2|0:0,0:0:0:0:
374,108,6235,1,0,0:0:0:0:
298,183,6406,2,0,P|290:145|283:108,1,70,2|0,1:2|0:0,0:0:0:0:
388,190,6747,2,0,P|381:224|374:258,1,70,10|0,0:0|0:0,0:0:0:0:
358,346,7088,6,0,P|400:333|436:332,1,70,2|2,1:2|0:0,0:0:0:0:
235,350,7429,1,10,0:0:0:0:
289,274,7599,1,2,1:2:0:0:
126,316,7770,2,0,P|160:289|153:211,1,105,2|0,1:2|0:0,0:0:0:0:
153,222,8110,2,0,P|111:227|64:233,1,70,8|0,0:0|0:0,0:0:0:0:
17,114,8451,6,0,P|59:119|133:129,1,105,0|0,1:2|0:0,0:0:0:0:
135,128,8792,2,0,P|146:88|126:43,1,70,10|0,0:0|1:2,0:0:0:0:
238,17,9133,2,0,P|227:57|247:102,1,70,2|0,1:2|0:0,0:0:0:0:
276,170,9474,1,10,0:0:0:0:
385,97,9645,5,0,0:0:0:0:
385,97,9730,1,0,0:0:0:0:
385,97,9815,2,0,L|299:93,2,70,2|2|10,1:2|0:0|0:0,0:0:0:0:
411,190,10326,1,2,1:2:0:0:
357,274,10497,2,0,P|287:260|202:260,1,140,2|8,1:2|0:0,0:0:0:0:
111,340,11008,5,0,0:0:0:0:
111,340,11093,1,0,0:0:0:0:
111,340,11179,2,0,P|152:332|190:331,1,70,0|0,1:2|1:2,0:0:0:0:
140,249,11520,2,0,P|121:208|173:161,1,105,10|0,0:0|0:0,0:0:0:0:
162,161,11860,2,0,P|126:152|75:148,1,70,2|0,1:2|1:2,0:0:0:0:
15,64,12201,2,0,P|51:68|102:66,1,70,10|0,0:0|0:0,0:0:0:0:
183,24,12542,6,0,P|245:27|308:31,1,125.999996154785,6|0,1:2|1:2,0:0:0:0:
383,89,13054,1,2,1:2:0:0:
383,89,13224,1,2,1:2:0:0:
292,240,13565,1,10,0:0:0:0:
376,278,13735,1,2,0:0:0:0:
376,278,13906,6,0,L|376:208,2,62.9999980773926,2|0|0,1:2|1:2|1:2,0:0:0:0:
461,300,14417,1,2,1:2:0:0:
409,372,14588,2,0,P|380:383|350:374,1,62.9999980773926,2|2,1:2|0:0,0:0:0:0:
278,322,14929,2,0,P|248:313|219:324,1,62.9999980773926,10|2,0:0|0:0,0:0:0:0:
151,380,15270,6,0,B|126:349|126:349|129:313|133:263,1,125.999996154785,2|0,1:2|1:2,0:0:0:0:
150,176,15781,1,2,1:2:0:0:
231,211,15951,2,0,P|262:210|293:209,1,62.9999980773926,2|2,1:2|0:0,0:0:0:0:
340,203,16207,1,2,0:0:0:0:
340,203,16292,1,10,0:0:0:0:
412,151,16463,1,2,0:0:0:0:
465,226,16633,5,2,1:2:0:0:
465,226,16804,1,2,1:2:0:0:
399,284,16974,1,2,1:2:0:0:
399,284,17145,1,2,1:2:0:0:
340,203,17315,1,2,1:2:0:0:
340,203,17485,1,2,1:2:0:0:
416,156,17656,1,2,1:2:0:0:
416,156,17826,1,2,1:2:0:0:
373,78,17997,6,0,B|348:69|348:69|343:62|343:62|313:49|313:49|328:89|300:125,1,125.999996154785,6|0,1:2|0:0,0:0:0:0:
298,134,18338,2,0,B|265:123|265:123|244:129|244:129|206:116,1,83.9999974365235,8|0,0:0|0:0,0:0:0:0:
131,101,18679,1,0,1:2:0:0:
131,101,18849,1,0,0:0:0:0:
84,20,19020,2,0,P|126:5|175:21,1,83.9999974365235,8|0,0:0|0:0,0:0:0:0:
218,120,19360,6,0,B|189:142|190:176|190:176|215:194|220:238,1,125.999996154785,2|0,1:2|0:0,0:0:0:0:
222,259,19701,2,0,P|187:287|139:276,1,83.9999974365235,8|0,0:0|1:2,0:0:0:0:
308,246,20042,2,0,P|314:290|282:325,1,83.9999974365235,2|0,1:2|0:0,0:0:0:0:
334,159,20383,2,0,P|375:175|390:221,1,83.9999974365235,8|0,0:0|1:2,0:0:0:0:
219,229,20724,6,0,B|130:189|134:267|52:227,1,167.999994873047,2|8,1:2|0:0,0:0:0:0:
11,139,21235,1,0,1:2:0:0:
11,139,21321,1,0,0:0:0:0:
11,139,21406,2,0,L|99:157,1,83.9999974365235,0|0,1:2|0:0,0:0:0:0:
189,125,21747,2,0,B|202:102|192:76|192:76|180:99|155:107,1,83.9999974365235,8|0,0:0|0:0,0:0:0:0:
146,3,22088,6,0,P|202:-10|266:25,1,125.999996154785,2|0,1:2|0:0,0:0:0:0:
282,41,22429,2,0,P|283:86|300:131,1,83.9999974365235,8|0,0:0|0:0,0:0:0:0:
380,163,22770,6,0,P|323:161|267:209,1,125.999996154785,2|0,1:2|0:0,0:0:0:0:
267,224,23111,2,0,P|283:265|287:313,1,83.9999974365235,8|0,0:0|1:2,0:0:0:0:
375,352,23451,6,0,B|414:335|458:357|458:357|450:335|452:313,1,125.999996154785,2|0,1:2|0:0,0:0:0:0:
444,298,23792,2,0,P|455:256|462:204,1,83.9999974365235,8|0,0:0|0:0,0:0:0:0:
468,123,24133,1,0,1:2:0:0:
468,123,24304,1,0,1:2:0:0:
393,68,24474,2,0,P|351:74|310:85,1,83.9999974365235,8|0,0:0|0:0,0:0:0:0:
210,177,24815,6,0,B|229:164|232:129|232:129|210:92|231:51,1,125.999996154785,2|0,1:2|0:0,0:0:0:0:
238,37,25156,2,0,P|202:5|155:26,1,83.9999974365235,8|0,0:0|1:2,0:0:0:0:
109,81,25497,2,0,P|63:96|57:147,1,83.9999974365235,2|0,1:2|0:0,0:0:0:0:
85,213,25838,2,0,P|75:260|116:290,1,83.9999974365235,8|0,0:0|0:0,0:0:0:0:
180,341,26179,5,10,0:0:0:0:
255,274,26349,2,0,P|246:234|228:177,1,83.9999974365235,0|0,1:2|1:2,0:0:0:0:
295,96,26690,5,8,0:0:0:0:
389,206,26860,2,0,P|397:166|411:125,1,83.9999974365235,0|0,1:2|1:2,0:0:0:0:
348,26,27201,5,8,0:0:0:0:
263,16,27372,1,0,1:2:0:0:
207,77,27542,1,6,1:2:0:0:
207,76,28906,6,0,P|177:87|147:81,1,62.9999980773926,2|2,0:0|0:0,0:0:0:0:
88,23,29247,2,0,P|57:16|28:27,1,62.9999980773926,2|2,0:0|0:0,0:0:0:0:
0,104,29588,2,0,P|0:167|0:230,1,125.999996154785,2|0,0:0|0:0,0:0:0:0:
47,297,30099,1,0,0:0:0:0:
82,223,30270,6,0,B|153:207|139:271|216:236,1,125.999996154785,0|2,0:0|0:0,0:0:0:0:
265,190,30781,1,0,0:0:0:0:
280,270,30951,2,0,L|275:332,1,62.9999980773926,2|0,0:0|0:0,0:0:0:0:
351,364,31292,2,0,L|355:301,1,62.9999980773926,2|0,0:0|0:0,0:0:0:0:
439,248,31633,5,10,0:0:0:0:
439,248,31804,1,10,0:0:0:0:
440,349,31974,1,10,0:0:0:0:
440,349,32145,1,10,0:0:0:0:
355,301,32315,2,0,P|341:269|346:234,1,70,10|10,0:0|0:0,0:0:0:0:
408,158,32656,2,0,P|413:123|399:91,1,70,10|10,0:0|0:0,0:0:0:0:
320,34,32997,5,10,0:0:0:0:
315,131,33167,1,10,0:0:0:0:
399,91,33338,1,10,0:0:0:0:
320,34,33508,1,10,0:0:0:0:
315,131,33679,1,6,1:2:0:0:
256,192,33764,12,0,35809,0:0:0:0:
