osu file format v14

[General]
AudioFilename: audio.mp3
AudioLeadIn: 0
PreviewTime: 1548
Countdown: 0
SampleSet: Soft
StackLeniency: 0.7
Mode: 0
LetterboxInBreaks: 0
WidescreenStoryboard: 1

[Editor]
Bookmarks: 1633,12542,17997,27542,35809
DistanceSpacing: 1.2
BeatDivisor: 4
GridSize: 32
TimelineZoom: 1.4

[Metadata]
Title:The Owl House Theme Song (TV Size)
TitleUnicode:The Owl House Theme Song (TV Size)
Artist:TJ Hill
ArtistUnicode:TJ Hill
Creator:Videos
Version:Share & Crysisters' Journey
Source:The Owl House
Tags:share crysisters sylvantia leominexd leomine bnmc mrgglock animestyle disney channel cartoon folk instrumental opening op
BeatmapID:3598270
BeatmapSetID:1757984

[Difficulty]
HPDrainRate:5
CircleSize:3.8
OverallDifficulty:8
ApproachRate:9
SliderMultiplier:1.4
SliderTickRate:1

[Events]
//Background and Video events
0,0,"moebg.jpg",0,0
Video,-55,"video (3).mp4"
//Break Periods
//Storyboard Layer 0 (Background)
//Storyboard Layer 1 (Fail)
//Storyboard Layer 2 (Pass)
//Storyboard Layer 3 (Foreground)
//Storyboard Layer 4 (Overlay)
//Storyboard Sound Samples

[TimingPoints]
270,340.909090909091,4,2,1,60,1,0
1633,-100,4,2,1,60,0,0
12542,-111.111111111111,4,2,2,60,0,0
16633,-83.3333333333333,4,2,2,60,0,0
17997,-71.4285714285714,4,2,3,60,0,1
18167,-71.4285714285714,4,2,1,60,0,1
27542,-111.111111111111,4,2,1,40,0,0
28906,-100,4,2,1,40,0,0
31633,-90.9090909090909,4,2,1,60,0,0
33679,-90.9090909090909,4,2,3,60,0,0
35809,-90.9090909090909,4,2,3,60,0,0

[Colours]
Combo1 : 134,169,240
Combo2 : 255,255,72
Combo3 : 238,162,34
Combo4 : 189,62,0

[HitObjects]
49,48,1633,6,0,P|31:83|43:127,1,70,6|0,1:2|0:0,0:0:0:0:
158,165,1974,1,10,0:0:0:0:
114,95,2145,1,2,0:0:0:0:
6,196,2315,2,0,P|48:191|87:187,1,70,2|0,1:2|1:2,0:0:0:0:
167,285,2656,2,0,P|125:280|86:276,1,70,8|0,0:0|0:0,0:0:0:0:
245,339,2997,6,0,P|217:291|265:222,1,140,0|10,1:2|0:0,0:0:0:0:
154,368,3508,1,0,0:0:0:0:
338,317,3679,2,0,P|375:316|427:319,1,70,2|0,1:2|0:0,0:0:0:0:
256,224,4020,2,0,P|221:225|186:224,1,70,10|0,0:0|0:0,0:0:0:0:
365,146,4360,5,2,1:2:0:0:
256,224,4531,1,2,0:0:0:0:
317,74,4701,5,10,0:0:0:0:
405,216,4872,1,2,1:2:0:0:
228,136,5042,6,0,P|159:140|88:149,1,140,2|8,1:2|0:0,0:0:0:0:
22,40,5554,1,0,0:0:0:0:
22,40,5639,1,0,0:0:0:0:
22,40,5724,6,0,P|63:36|110:23,1,70,0|0,1:2|0:0,0:0:0:0:
5,186,6065,2,0,P|12:151|15:117,1,70,10|0,0:0|0:0,0:0:0:0:
101,185,6406,2,0,L|92:272,1,70,2|0,1:2|0:0,0:0:0:0:
182,367,6747,2,0,P|147:351|105:357,1,70,10|0,0:0|0:0,0:0:0:0:
219,273,7088,6,0,P|264:279|306:273,1,70,2|2,1:2|0:0,0:0:0:0:
379,330,7429,1,10,0:0:0:0:
337,211,7599,1,2,1:2:0:0:
489,262,7770,2,0,P|443:256|402:257,1,70,2|0,1:2|0:0,0:0:0:0:
337,211,8110,2,0,P|375:181|360:113,1,105,8|0,0:0|0:0,0:0:0:0:
348,105,8451,6,0,L|258:115,1,70,0|0,1:2|0:0,0:0:0:0:
170,203,8792,2,0,L|260:213,1,70,10|0,0:0|1:2,0:0:0:0:
197,48,9133,2,0,P|184:84|193:130,1,70,2|0,1:2|0:0,0:0:0:0:
307,262,9474,2,0,P|320:226|311:180,1,70,10|0,0:0|0:0,0:0:0:0:
244,355,9815,5,2,1:2:0:0:
170,203,9985,1,2,0:0:0:0:
159,373,10156,5,10,0:0:0:0:
330,335,10326,1,2,1:2:0:0:
155,277,10497,6,0,B|105:272|105:272|81:289|81:289|14:278,1,140,2|8,1:2|0:0,0:0:0:0:
121,170,11008,1,0,0:0:0:0:
30,203,11179,6,0,P|20:158|37:128,1,70,0|0,1:2|1:2,0:0:0:0:
154,25,11520,2,0,P|164:70|147:100,1,70,10|0,0:0|0:0,0:0:0:0:
10,62,11860,2,0,L|87:55,1,70,2|0,1:2|1:2,0:0:0:0:
190,176,12201,2,0,L|113:169,1,70,10|0,0:0|0:0,0:0:0:0:
255,0,12542,6,0,B|294:29|294:29|265:118,1,125.999996154785,6|0,1:2|1:2,0:0:0:0:
331,170,13054,1,2,1:2:0:0:
331,170,13224,2,0,L|405:150,1,62.9999980773926,2|2,1:2|0:0,0:0:0:0:
466,96,13565,5,10,0:0:0:0:
387,56,13735,1,2,0:0:0:0:
478,188,13906,1,2,1:2:0:0:
478,188,14076,2,0,P|487:229|459:260,1,62.9999980773926,0|0,1:2|1:2,0:0:0:0:
431,315,14417,1,2,1:2:0:0:
352,273,14588,2,0,L|284:291,1,62.9999980773926,2|2,1:2|0:0,0:0:0:0:
224,352,14929,5,10,0:0:0:0:
323,374,15099,1,2,0:0:0:0:
206,261,15270,2,0,P|226:218|184:150,1,125.999996154785,2|0,1:2|1:2,0:0:0:0:
59,193,15781,1,2,1:2:0:0:
59,193,15951,2,0,B|89:199|89:199|96:202|96:202|139:208,1,62.9999980773926,2|2,1:2|0:0,0:0:0:0:
120,205,16207,1,2,0:0:0:0:
120,205,16292,1,10,0:0:0:0:
190,154,16463,1,2,0:0:0:0:
118,77,16633,5,2,1:2:0:0:
297,165,16804,1,2,1:2:0:0:
190,154,16974,5,2,1:2:0:0:
385,88,17145,1,2,1:2:0:0:
297,165,17315,5,2,1:2:0:0:
255,0,17485,1,2,1:2:0:0:
434,195,17656,6,0,L|441:152,1,41.9999987182618,2|0,1:2|0:0,0:0:0:0:
308,325,17826,2,0,L|297:285,1,41.9999987182618,2|0,1:2|0:0,0:0:0:0:
491,364,17997,6,0,P|455:302|385:292,1,146.999995513916,6|0,1:2|0:0,0:0:0:0:
308,325,18338,2,0,P|261:348|197:326,1,97.9999970092774,8|0,0:0|0:0,0:0:0:0:
137,293,18593,1,0,0:0:0:0:
137,293,18679,2,0,L|155:227,1,48.9999985046387,0|0,1:2|0:0,0:0:0:0:
240,177,18849,2,0,L|222:111,1,48.9999985046387
169,21,19020,1,8,0:0:0:0:
67,77,19190,1,0,0:0:0:0:
355,144,19360,6,0,P|414:159|453:204,1,97.9999970092774,2|0,1:2|0:0,0:0:0:0:
337,4,19701,2,0,P|289:13|252:44,1,97.9999970092774,8|0,0:0|1:2,0:0:0:0:
67,77,20042,6,0,P|85:32|122:2,1,97.9999970092774,2|0,1:2|0:0,0:0:0:0:
347,18,20383,2,0,P|299:27|262:58,1,97.9999970092774,8|0,0:0|1:2,0:0:0:0:
103,184,20724,6,0,B|153:167|153:167|199:190|199:190|269:167,1,146.999995513916,2|0,1:2|0:0,0:0:0:0:
303,233,21065,2,0,B|352:249|352:249|407:211,1,97.9999970092774,8|0,0:0|1:2,0:0:0:0:
451,166,21321,1,0,0:0:0:0:
451,166,21406,1,0,1:2:0:0:
299,89,21576,1,0,0:0:0:0:
433,0,21747,2,0,L|417:64,1,48.9999985046387,8|0,0:0|0:0,0:0:0:0:
310,136,21917,2,0,L|298:88,1,48.9999985046387
202,0,22088,5,2,1:2:0:0:
112,57,22258,1,0,1:2:0:0:
167,148,22429,2,0,P|197:165|213:239,1,97.9999970092774,8|0,0:0|0:0,0:0:0:0:
12,336,22770,5,2,1:2:0:0:
106,383,22940,1,0,1:2:0:0:
159,291,23111,2,0,P|167:256|234:221,1,97.9999970092774,8|0,0:0|1:2,0:0:0:0:
361,384,23451,6,0,B|282:361|331:307|217:294,1,146.999995513916,2|0,1:2|0:0,0:0:0:0:
240,383,23792,2,0,P|276:382|319:339,1,97.9999970092774,8|0,0:0|0:0,0:0:0:0:
380,272,24048,1,0,0:0:0:0:
380,272,24133,2,0,P|368:250|363:225,1,48.9999985046387,0|0,1:2|0:0,0:0:0:0:
325,128,24304,2,0,P|337:107|357:89,1,48.9999985046387,0|0,1:2|0:0,0:0:0:0:
510,149,24474,1,8,0:0:0:0:
469,35,24645,1,0,0:0:0:0:
269,211,24815,6,0,P|219:209|187:170,1,97.9999970092774,2|0,1:2|1:2,0:0:0:0:
76,72,25156,2,0,P|97:27|146:13,1,97.9999970092774,8|0,0:0|1:2,0:0:0:0:
189,175,25497,6,0,P|187:224|148:256,1,97.9999970092774,2|0,1:2|0:0,0:0:0:0:
60,369,25838,2,0,P|18:343|8:292,1,97.9999970092774,8|0,0:0|0:0,0:0:0:0:
189,175,26179,5,10,0:0:0:0:
75,213,26349,1,0,1:2:0:0:
208,327,26520,1,0,1:2:0:0:
336,173,26690,5,8,0:0:0:0:
152,256,26860,1,0,1:2:0:0:
223,58,27031,1,0,1:2:0:0:
493,269,27201,5,8,0:0:0:0:
301,358,27371,1,0,1:2:0:0:
189,175,27542,6,0,P|220:170|251:170,1,62.9999980773926,6|0,1:2|0:0,0:0:0:0:
351,88,27883,2,0,P|319:92|288:92,1,62.9999980773926
336,173,28224,2,0,P|345:217|330:242,1,62.9999980773926
257,309,28565,2,0,P|248:265|263:240,1,62.9999980773926
87,321,28906,5,2,0:0:0:0:
173,231,29076,1,2,0:0:0:0:
83,233,29247,5,2,0:0:0:0:
170,318,29417,1,2,0:0:0:0:
182,161,29588,6,0,L|170:251,1,70,2|0,0:0|0:0,0:0:0:0:
88,137,29929,1,0,0:0:0:0:
172,230,30099,1,0,0:0:0:0:
18,147,30270,6,0,P|56:143|96:134,1,70
222,60,30610,2,0,P|187:52|152:49,1,70,2|0,0:0|0:0,0:0:0:0:
259,184,30951,5,2,0:0:0:0:
363,107,31122,1,0,0:0:0:0:
375,190,31292,5,2,0:0:0:0:
307,36,31463,1,0,0:0:0:0:
463,201,31633,6,0,P|472:148|490:108,1,77.0000023498536,10|10,0:0|0:0,0:0:0:0:
292,272,31974,2,0,P|304:308|309:346,1,77.0000023498536,10|10,0:0|0:0,0:0:0:0:
483,198,32315,6,0,P|492:145|510:105,1,77.0000023498536,10|10,0:0|0:0,0:0:0:0:
269,289,32656,2,0,P|281:325|286:363,1,77.0000023498536,10|10,0:0|0:0,0:0:0:0:
222,158,32997,5,10,0:0:0:0:
222,158,33082,1,0,0:0:0:0:
222,158,33167,2,0,P|178:164|165:164,1,38.5000011749268,10|0,0:0|0:0,0:0:0:0:
70,267,33338,1,10,0:0:0:0:
70,267,33423,1,0,0:0:0:0:
70,267,33508,2,0,P|114:273|127:273,1,38.5000011749268,10|0,0:0|0:0,0:0:0:0:
43,125,33679,1,6,1:2:0:0:
256,192,33764,12,0,35809,0:0:0:0:
