osu file format v14

[General]
AudioFilename: audio.mp3
AudioLeadIn: 0
PreviewTime: 1548
Countdown: 0
SampleSet: Soft
StackLeniency: 0.7
Mode: 0
LetterboxInBreaks: 0
WidescreenStoryboard: 1

[Editor]
Bookmarks: 1633,12542,17997,27542,35809
DistanceSpacing: 1.1
BeatDivisor: 4
GridSize: 32
TimelineZoom: 0.8

[Metadata]
Title:The Owl House Theme Song (TV Size)
TitleUnicode:The Owl House Theme Song (TV Size)
Artist:TJ Hill
ArtistUnicode:TJ Hill
Creator:Videos
Version:Mrgglock & Videos' Normal
Source:The Owl House
Tags:share crysisters sylvantia leominexd leomine bnmc mrgglock animestyle disney channel cartoon folk instrumental opening op
BeatmapID:3603545
BeatmapSetID:1757984

[Difficulty]
HPDrainRate:3.5
CircleSize:3
OverallDifficulty:3.5
ApproachRate:5
SliderMultiplier:1
SliderTickRate:1

[Events]
//Background and Video events
0,0,"moebg.jpg",0,0
Video,-55,"video (3).mp4"
//Break Periods
//Storyboard Layer 0 (Background)
//Storyboard Layer 1 (Fail)
//Storyboard Layer 2 (Pass)
//Storyboard Layer 3 (Foreground)
//Storyboard Layer 4 (Overlay)
//Storyboard Sound Samples

[TimingPoints]
270,340.909090909091,4,2,1,60,1,0
1633,-111.111111111111,4,2,1,60,0,0
12542,-111.111111111111,4,2,2,60,0,0
17997,-100,4,2,3,60,0,1
18167,-100,4,2,1,60,0,1
27542,-111.111111111111,4,2,1,40,0,0
31633,-111.111111111111,4,2,1,60,0,0
33679,-111.111111111111,4,2,3,60,0,0
35809,-100,4,2,3,60,0,0

[Colours]
Combo1 : 134,169,240
Combo2 : 255,255,72
Combo3 : 238,162,34
Combo4 : 189,62,0

[HitObjects]
506,67,1633,6,0,L|513:21,2,44.999998626709,6|0|10,1:2|0:0|0:0,0:0:0:0:
500,120,2145,1,2,0:0:0:0:
500,120,2315,1,2,1:2:0:0:
413,168,2656,1,8,0:0:0:0:
349,92,2997,2,0,P|306:80|257:98,1,89.9999972534181,0|10,1:2|0:0,0:0:0:0:
197,167,3679,1,2,1:2:0:0:
245,253,4020,1,10,0:0:0:0:
179,326,4360,6,0,L|185:370,2,44.999998626709,2|2|10,1:2|0:0|0:0,0:0:0:0:
90,281,5042,2,0,P|36:292|-3:274,1,89.9999972534181,2|8,1:2|0:0,0:0:0:0:
1,180,5724,2,0,L|15:88,1,89.9999972534181,0|10,1:2|0:0,0:0:0:0:
89,26,6406,2,0,P|124:28|148:20,1,44.999998626709,2|0,1:2|0:0,0:0:0:0:
180,8,6747,1,10,0:0:0:0:
251,75,7088,6,0,L|295:82,2,44.999998626709,2|2|10,1:2|0:0|0:0,0:0:0:0:
220,115,7600,1,2,1:2:0:0:
220,115,7770,1,2,1:2:0:0:
173,202,8111,1,8,0:0:0:0:
223,287,8452,2,0,P|269:275|317:298,1,89.9999972534181,0|10,1:2|0:0,0:0:0:0:
379,357,9134,1,2,1:2:0:0:
465,309,9475,1,10,0:0:0:0:
428,217,9815,6,0,L|383:223,2,44.999998626709,2|2|10,1:2|0:0|0:0,0:0:0:0:
504,153,10497,2,0,L|513:57,1,89.9999972534181,2|8,1:2|0:0,0:0:0:0:
434,2,11179,2,0,P|380:13|341:-5,1,89.9999972534181,0|10,1:2|0:0,0:0:0:0:
264,52,11860,2,0,L|270:111,1,44.999998626709,2|0,1:2|1:2,0:0:0:0:
274,146,12201,1,10,0:0:0:0:
249,241,12542,6,0,P|205:248|164:229,1,89.9999972534181,6|0,1:2|1:2,0:0:0:0:
140,192,13054,1,2,1:2:0:0:
140,192,13224,2,0,L|148:102,1,89.9999972534181,2|10,1:2|0:0,0:0:0:0:
100,15,13906,2,0,P|57:3|20:27,1,89.9999972534181,2|0,1:2|1:2,0:0:0:0:
51,121,14588,1,2,1:2:0:0:
1,207,14929,1,10,0:0:0:0:
26,302,15270,6,0,P|70:305|115:307,1,89.9999972534181,2|0,1:2|1:2,0:0:0:0:
158,282,15781,1,2,1:2:0:0:
158,282,15951,2,0,P|198:263|240:276,1,89.9999972534181,2|10,1:2|0:0,0:0:0:0:
313,342,16633,5,2,1:2:0:0:
377,266,16974,1,2,1:2:0:0:
305,197,17315,1,2,1:2:0:0:
375,126,17656,1,2,1:2:0:0:
313,34,17997,6,0,L|193:44,1,100,6|8,1:2|0:0,0:0:0:0:
105,17,18679,1,0,1:2:0:0:
28,95,19020,1,8,0:0:0:0:
69,196,19360,2,0,P|112:216|157:198,1,100,2|8,1:2|0:0,0:0:0:0:
243,128,20042,2,0,P|286:106|331:126,1,100,2|8,1:2|0:0,0:0:0:0:
372,170,20554,1,0,1:2:0:0:
372,170,20724,6,0,L|362:285,1,100,2|8,1:2|0:0,0:0:0:0:
294,356,21406,2,0,L|233:350,1,50,0|0,1:2|0:0,0:0:0:0:
202,315,21747,2,0,L|152:319,1,50,8|0,0:0|0:0,0:0:0:0:
100,338,22088,2,0,P|52:349|13:321,1,100,2|8,1:2|0:0,0:0:0:0:
1,211,22770,2,0,L|12:105,1,100,2|8,1:2|0:0,0:0:0:0:
40,66,23281,1,0,1:2:0:0:
40,66,23451,6,0,P|86:51|130:73,1,100,2|8,1:2|0:0,0:0:0:0:
213,145,24133,1,0,1:2:0:0:
135,223,24474,1,8,0:0:0:0:
200,311,24815,2,0,L|304:299,1,100,2|8,1:2|0:0,0:0:0:0:
377,221,25497,2,0,L|374:171,1,50,2|0,1:2|0:0,0:0:0:0:
335,131,25838,2,0,L|337:81,1,50,8|0,0:0|0:0,0:0:0:0:
367,34,26179,6,0,P|409:10|454:27,1,100,10|0,0:0|1:2,0:0:0:0:
490,68,26690,2,0,L|483:175,1,100,8|0,0:0|1:2,0:0:0:0:
477,222,27201,1,8,0:0:0:0:
502,317,27542,1,6,1:2:0:0:
438,328,31633,6,0,L|496:334,2,44.999998626709,10|10|10,0:0|0:0|0:0,0:0:0:0:
374,253,32315,2,0,L|316:259,2,44.999998626709,10|10|10,0:0|0:0|0:0,0:0:0:0:
444,183,32997,2,0,P|446:141|442:127,1,44.999998626709,10|10,0:0|0:0,0:0:0:0:
430,92,33338,2,0,P|428:50|432:36,1,44.999998626709,10|10,0:0|0:0,0:0:0:0:
445,1,33679,1,6,1:2:0:0:
256,192,34020,12,0,35809,0:0:0:0:
