osu file format v14

[General]
AudioFilename: audio.mp3
AudioLeadIn: 0
PreviewTime: 17954
Countdown: 0
SampleSet: None
StackLeniency: 0.7
Mode: 2
LetterboxInBreaks: 0
WidescreenStoryboard: 1

[Editor]
DistanceSpacing: 1
BeatDivisor: 4
GridSize: 8
TimelineZoom: 2.2

[Metadata]
Title:The Owl House Theme Song (TV Size)
TitleUnicode:The Owl House Theme Song (TV Size)
Artist:TJ Hill
ArtistUnicode:TJ Hill
Creator:Phob
Version:Salad
Source:The Owl House
Tags:wwwww connor disney channel cartoon animation folk instrumental opening op tv television series show sunset
BeatmapID:4096187
BeatmapSetID:1952148

[Difficulty]
HPDrainRate:3
CircleSize:3
OverallDifficulty:7
ApproachRate:7
SliderMultiplier:1.7
SliderTickRate:1

[Events]
//Background and Video events
0,0,"bg.jpg",0,0
//Break Periods
//Storyboard Layer 0 (Background)
//Storyboard Layer 1 (Fail)
//Storyboard Layer 2 (Pass)
//Storyboard Layer 3 (Foreground)
//Storyboard Layer 4 (Overlay)
//Storyboard Sound Samples

[TimingPoints]
270,340.909090909091,4,2,1,20,1,0
270,-49.476135040745,4,2,1,20,0,0
610,-49.476135040745,4,2,1,30,0,0
951,-49.476135040745,4,2,1,40,0,0
1292,-49.476135040745,4,2,1,50,0,0
1633,-49.476135040745,4,2,1,60,0,0
2656,-49.476135040745,4,2,2,60,0,0
2997,-49.476135040745,4,2,3,60,0,0
3338,-49.476135040745,4,2,1,60,0,0
5383,-49.476135040745,4,2,2,60,0,0
5724,-49.476135040745,4,2,3,60,0,0
6065,-49.476135040745,4,2,1,60,0,0
8110,-49.476135040745,4,2,2,60,0,0
8451,-49.476135040745,4,2,3,60,0,0
8792,-49.476135040745,4,2,1,60,0,0
10838,-49.476135040745,4,2,2,60,0,0
11179,-49.476135040745,4,2,3,60,0,0
11520,-49.476135040745,4,2,1,70,0,0
11860,-49.476135040745,4,2,1,80,0,0
12201,-49.476135040745,4,2,1,90,0,0
12542,-49.476135040745,4,2,1,100,0,0
12883,-49.476135040745,4,2,1,60,0,0
16633,-49.476135040745,4,2,1,70,0,0
17315,-49.476135040745,4,2,1,80,0,0
17997,-49.476135040745,4,2,1,90,0,1
19360,-49.476135040745,4,2,1,80,0,1
20724,-49.476135040745,4,2,1,70,0,1
22088,-49.476135040745,4,2,1,60,0,1
23451,-49.476135040745,4,2,1,70,0,1
24815,-49.476135040745,4,2,1,80,0,1
26179,-49.476135040745,4,2,1,90,0,1
27542,-49.476135040745,4,2,1,40,0,0
28906,-49.476135040745,4,2,1,60,0,0
29588,-60.1983002832862,4,2,1,60,0,0
30610,-49.476135040745,4,2,1,60,0,0
31633,-49.476135040745,4,2,1,70,0,0
32315,-49.476135040745,4,2,1,80,0,0
32997,-49.476135040745,4,2,1,90,0,0
33679,-49.476135040745,4,2,1,100,0,0
34020,-49.476135040745,4,2,1,90,0,0
34360,-49.476135040745,4,2,1,80,0,0
34701,-49.476135040745,4,2,1,70,0,0
35042,-49.476135040745,4,2,1,60,0,0
35383,-49.476135040745,4,2,1,50,0,0
35724,-49.476135040745,4,2,1,40,0,0
35809,-49.476135040745,4,2,1,100,0,0
35895,-49.476135040745,4,2,1,40,0,0

[Colours]
Combo1 : 134,169,240
Combo2 : 255,255,72
Combo3 : 238,162,34
Combo4 : 189,62,0

[HitObjects]
256,192,270,12,0,1292,0:0:0:0:
184,192,1633,6,0,L|170:258|170:258|108:341|108:341,1,171.79999475708,2|0,0:0|0:0,0:0:0:0:
176,192,1974,1,8,0:0:0:0:
328,296,2315,6,0,B|325:382|325:382|313:297|313:297|324:212|324:212|335:127|335:127|293:52|293:52|252:127|252:127|204:199|204:199|184:283|184:283|184:360|184:360|189:283|189:283|174:208|174:208|176:95|176:95,1,1030.79996854248,2|8,0:0|0:0,0:0:0:0:
328,296,3679,1,2,0:0:0:0:
64,296,4020,1,8,0:0:0:0:
344,192,4360,6,0,L|365:256|365:256|420:344|420:344,1,171.79999475708,2|0,0:0|0:0,0:0:0:0:
456,120,4701,1,8,0:0:0:0:
304,272,5042,6,0,B|262:347|262:347|236:265|236:265|198:188|198:188|152:115|152:115|136:31|136:31|141:117|141:117|134:203|134:203|146:288|146:288|198:345|198:345|230:275|230:275|245:200|245:200|299:100|299:100,1,1030.79996854248,2|8,0:0|0:0,0:0:0:0:
184,112,6406,1,2,0:0:0:0:
68,104,6747,1,8,0:0:0:0:
328,192,7088,6,0,L|350:256|350:256|404:345|404:345,1,171.79999475708,2|0,0:0|0:0,0:0:0:0:
336,192,7429,1,8,0:0:0:0:
184,296,7770,6,0,B|188:382|188:382|177:297|177:297|179:211|179:211|177:125|177:125|231:58|231:58|242:143|242:143|310:196|310:196|328:280|328:280|319:356|319:356|340:282|340:282|339:205|339:205|336:92|336:92,1,1030.79996854248,2|8,0:0|0:0,0:0:0:0:
184,296,9134,1,2,0:0:0:0:
448,296,9475,1,8,0:0:0:0:
168,192,9815,6,0,L|138:253|138:253|92:346|92:346,1,171.79999475708,2|0,0:0|0:0,0:0:0:0:
56,120,10156,1,8,0:0:0:0:
208,272,10497,6,0,B|240:352|240:352|298:289|298:289|315:205|315:205|360:132|360:132|369:47|369:47|360:132|360:132|354:218|354:218|366:303|366:303|331:371|331:371|310:297|310:297|261:238|261:238|213:135|213:135,1,1030.79996854248,2|8,0:0|0:0,0:0:0:0:
288,192,11860,2,0,B|303:267|303:267|358:320|358:320|391:250|391:250|441:149|441:149,1,343.599989514161,2|8,0:0|0:0,0:0:0:0:
128,192,12542,5,6,0:0:0:0:
140,192,13054,2,0,L|187:241|187:241|216:341|216:341,1,171.79999475708,2|2,0:0|0:0,0:0:0:0:
256,192,13565,1,8,0:0:0:0:
384,192,13906,5,2,0:0:0:0:
184,192,14418,2,0,L|199:258|199:258|188:361|188:361,1,171.79999475708,2|2,0:0|0:0,0:0:0:0:
328,192,14929,1,8,0:0:0:0:
48,192,15270,5,2,0:0:0:0:
160,192,15781,2,0,L|158:260|158:260|156:364|156:364,1,171.79999475708,2|2,0:0|0:0,0:0:0:0:
80,192,16122,2,0,L|65:258|65:258|84:360|84:360,1,171.79999475708,0|8,0:0|0:0,0:0:0:0:
384,192,16633,6,0,L|402:257|402:257|460:343|460:343,1,171.79999475708,6|2,0:0|0:0,0:0:0:0:
392,192,16974,1,2,0:0:0:0:
256,192,17315,1,2,0:0:0:0:
280,192,17485,1,2,0:0:0:0:
336,192,17656,1,2,0:0:0:0:
416,192,17826,1,2,0:0:0:0:
496,192,17997,5,6,0:0:0:0:
208,192,18338,1,8,0:0:0:0:
496,192,18679,1,2,0:0:0:0:
456,192,18849,1,0,0:0:0:0:
376,192,19020,1,8,0:0:0:0:
256,192,19360,6,0,L|279:265|279:265|325:326|325:326|342:251|342:251|409:160|409:160,1,343.599989514161,2|8,0:0|0:0,0:0:0:0:
272,152,20042,2,0,L|314:216|314:216|325:292|325:292|387:338|387:338|425:231|425:231,1,343.599989514161,2|8,0:0|0:0,0:0:0:0:
128,192,20724,6,0,L|140:268|140:268|128:344|128:344|144:269|144:269|136:156|136:156,1,343.599989514161,2|8,0:0|0:0,0:0:0:0:
296,192,21406,1,2,0:0:0:0:
216,192,21576,1,0,0:0:0:0:
176,192,21747,1,8,0:0:0:0:
328,228,22088,2,0,B|346:303|346:303|407:349|407:349|380:277|380:277|336:173|336:173,1,343.599989514161,2|8,0:0|0:0,0:0:0:0:
176,192,22770,2,0,B|158:267|158:267|121:334|121:334|141:260|141:260|184:155|184:155,1,343.599989514161,2|8,0:0|0:0,0:0:0:0:
332,128,23451,6,0,L|306:200|306:200|268:267|268:267|233:336|233:336|179:237|179:237,1,343.599989514161,2|8,0:0|0:0,0:0:0:0:
340,192,24133,1,2,0:0:0:0:
348,192,24303,1,0,0:0:0:0:
332,192,24474,1,8,0:0:0:0:
56,192,24815,6,0,L|76:266|76:266|121:328|121:328|170:269|170:269|209:163|209:163,1,343.599989514161,2|8,0:0|0:0,0:0:0:0:
344,152,25497,2,0,L|321:225|321:225|290:295|290:295|244:357|244:357|191:257|191:257,1,343.599989514161,2|8,0:0|0:0,0:0:0:0:
56,192,26179,5,8,0:0:0:0:
456,192,26690,1,8,0:0:0:0:
56,192,27201,2,0,L|83:254|83:254|132:346|132:346,1,171.79999475708,8|2,0:0|0:0,0:0:0:0:
304,192,27542,5,4,0:0:0:0:
384,192,28224,1,0,0:0:0:0:
464,192,28906,5,0,0:0:0:0:
384,192,29247,1,0,0:0:0:0:
304,48,29588,2,0,L|314:118|314:118|288:184|288:184|267:251|267:251|272:321|272:321|248:255|248:255|264:186|264:186|258:116|258:116|240:48|240:48|215:106|215:106|216:169|216:169|200:230|200:230|208:323|208:323,1,847.199974145509
128,192,30951,1,0,0:0:0:0:
48,192,31292,1,0,0:0:0:0:
336,192,31633,5,0,0:0:0:0:
344,192,31804,1,0,0:0:0:0:
328,192,31974,1,0,0:0:0:0:
176,192,32315,1,0,0:0:0:0:
168,192,32486,1,0,0:0:0:0:
184,192,32656,1,0,0:0:0:0:
456,192,32997,5,2,0:0:0:0:
376,192,33167,1,2,0:0:0:0:
296,192,33338,1,2,0:0:0:0:
216,192,33508,1,2,0:0:0:0:
56,192,33679,5,4,0:3:0:0:
256,192,34020,12,4,35809,0:0:0:0:
