osu file format v14

[General]
AudioFilename: audio.mp3
AudioLeadIn: 0
PreviewTime: 17954
Countdown: 0
SampleSet: Soft
StackLeniency: 0.7
Mode: 2
LetterboxInBreaks: 0
WidescreenStoryboard: 0

[Editor]
DistanceSpacing: 1
BeatDivisor: 8
GridSize: 4
TimelineZoom: 3.499999

[Metadata]
Title:The Owl House Theme Song (TV Size)
TitleUnicode:The Owl House Theme Song (TV Size)
Artist:TJ Hill
ArtistUnicode:TJ Hill
Creator:Phob
Version:Overdose
Source:The Owl House
Tags:wwwww connor disney channel cartoon animation folk instrumental opening op tv television series show sunset
BeatmapID:4050112
BeatmapSetID:1952148

[Difficulty]
HPDrainRate:6
CircleSize:4.5
OverallDifficulty:9.4
ApproachRate:9.4
SliderMultiplier:1.70454545455
SliderTickRate:2

[Events]
//Background and Video events
0,0,"bg.jpg",0,0
//Break Periods
//Storyboard Layer 0 (Background)
//Storyboard Layer 1 (Fail)
//Storyboard Layer 2 (Pass)
//Storyboard Layer 3 (Foreground)
//Storyboard Layer 4 (Overlay)
//Storyboard Sound Samples

[TimingPoints]
270,340.909090909091,4,2,1,20,1,0
270,-46.7581047382093,4,2,1,20,0,0
610,-46.7581047382093,4,2,1,30,0,0
951,-46.7581047382093,4,2,1,40,0,0
1292,-46.7581047382093,4,2,1,50,0,0
1633,-46.7581047382093,4,2,1,60,0,0
11520,-17.4256505576284,4,2,1,70,0,0
11860,-17.4256505576284,4,2,1,80,0,0
12201,-17.4256505576284,4,2,1,90,0,0
12542,-46.7581047382093,4,2,1,100,0,0
12883,-46.7581047382093,4,2,1,60,0,0
16633,-46.7581047382093,4,2,1,70,0,0
17315,-46.7581047382093,4,2,1,80,0,0
17997,-46.7581047382093,4,2,1,90,0,1
19360,-46.7581047382093,4,2,1,80,0,1
20724,-46.7581047382093,4,2,1,70,0,1
22088,-46.7581047382093,4,2,1,60,0,1
23451,-46.7581047382093,4,2,1,70,0,1
24815,-46.7581047382093,4,2,1,80,0,1
26179,-46.7581047382093,4,2,1,90,0,1
27542,-46.7581047382093,4,2,1,40,0,0
28906,-46.7581047382093,4,2,1,60,0,0
31633,-46.7581047382093,4,2,1,70,0,0
32315,-46.7581047382093,4,2,1,80,0,0
32997,-46.7581047382093,4,2,1,90,0,0
33679,-46.7581047382093,4,2,1,100,0,0
34020,-46.7581047382093,4,2,1,90,0,0
34360,-46.7581047382093,4,2,1,80,0,0
34701,-46.7581047382093,4,2,1,70,0,0
35042,-46.7581047382093,4,2,1,60,0,0
35383,-46.7581047382093,4,2,1,50,0,0
35724,-46.7581047382093,4,2,1,40,0,0
35809,-46.7581047382093,4,2,1,100,0,0
35895,-46.7581047382093,4,2,1,40,0,0

[Colours]
Combo1 : 134,169,240
Combo2 : 255,255,72
Combo3 : 238,162,34
Combo4 : 189,62,0

[HitObjects]
256,192,270,12,0,1292,0:0:0:0:
392,152,1633,5,2,0:0:0:0:
320,152,1718,1,0,0:0:0:0:
276,152,1804,1,0,0:0:0:0:
352,104,1974,5,8,0:0:0:0:
264,104,2059,1,0,0:0:0:0:
212,104,2145,1,0,0:0:0:0:
288,48,2315,5,2,0:0:0:0:
376,48,2400,1,0,0:0:0:0:
424,48,2485,1,0,0:0:0:0:
384,48,2571,1,0,0:0:0:0:
184,48,2656,2,0,L|197:119|197:119|176:227|176:227,1,182.272727273,8|0,0:0|0:0,0:0:0:0:
328,48,2997,1,2,0:0:0:0:
331,90,3082,1,0,0:0:0:0:
335,132,3167,1,0,0:0:0:0:
80,272,3338,6,0,L|68:343|68:343|62:233|62:233,1,182.272727273,8|0,0:0|0:0,0:0:0:0:
208,192,3679,6,0,L|187:261|187:261|202:370|202:370,1,182.272727273,2|0,0:0|0:0,0:0:0:0:
432,272,4020,6,0,L|427:344|427:344|444:235|444:235,1,182.272727273,8|0,0:0|0:0,0:0:0:0:
176,248,4360,5,2,0:0:0:0:
88,248,4446,1,0,0:0:0:0:
168,248,4531,1,0,0:0:0:0:
336,248,4701,5,8,0:0:0:0:
424,248,4787,1,0,0:0:0:0:
344,248,4872,1,0,0:0:0:0:
176,160,5042,5,2,0:0:0:0:
256,160,5127,1,0,0:0:0:0:
336,160,5213,1,0,0:0:0:0:
380,160,5298,1,0,0:0:0:0:
176,48,5383,2,0,L|169:120|169:120|184:229|184:229,1,182.272727273,8|0,0:0|0:0,0:0:0:0:
336,48,5724,1,2,0:0:0:0:
333,90,5809,1,0,0:0:0:0:
329,132,5894,1,0,0:0:0:0:
48,272,6065,6,0,L|39:343|39:343|36:233|36:233,1,182.272727273,8|0,0:0|0:0,0:0:0:0:
192,192,6406,6,0,L|187:264|187:264|198:374|198:374,1,182.272727273,2|0,0:0|0:0,0:0:0:0:
288,192,6747,6,0,L|270:262|270:262|282:372|282:372,1,182.272727273,8|0,0:0|0:0,0:0:0:0:
120,152,7088,5,2,0:0:0:0:
192,152,7173,1,0,0:0:0:0:
236,152,7259,1,0,0:0:0:0:
160,104,7429,5,8,0:0:0:0:
248,104,7514,1,0,0:0:0:0:
300,104,7600,1,0,0:0:0:0:
224,48,7770,5,2,0:0:0:0:
136,48,7855,1,0,0:0:0:0:
88,48,7940,1,0,0:0:0:0:
128,48,8026,1,0,0:0:0:0:
328,48,8111,2,0,L|345:118|345:118|336:228|336:228,1,182.272727273,8|0,0:0|0:0,0:0:0:0:
184,48,8452,1,2,0:0:0:0:
181,90,8537,1,0,0:0:0:0:
177,132,8622,1,0,0:0:0:0:
432,272,8793,6,0,L|441:343|441:343|450:233|450:233,1,182.272727273,8|0,0:0|0:0,0:0:0:0:
304,192,9134,6,0,L|315:263|315:263|310:373|310:373,1,182.272727273,2|0,0:0|0:0,0:0:0:0:
80,272,9475,6,0,L|70:343|70:343|68:233|68:233,1,182.272727273,8|0,0:0|0:0,0:0:0:0:
336,248,9815,5,2,0:0:0:0:
424,248,9901,1,0,0:0:0:0:
344,248,9986,1,0,0:0:0:0:
176,248,10156,5,8,0:0:0:0:
88,248,10242,1,0,0:0:0:0:
168,248,10327,1,0,0:0:0:0:
336,160,10497,5,2,0:0:0:0:
256,160,10582,1,0,0:0:0:0:
176,160,10668,1,0,0:0:0:0:
132,160,10753,1,0,0:0:0:0:
336,48,10838,2,0,L|324:119|324:119|328:229|328:229,1,182.272727273,8|0,0:0|0:0,0:0:0:0:
176,48,11179,1,2,0:0:0:0:
179,90,11264,1,0,0:0:0:0:
183,132,11349,1,0,0:0:0:0:
464,384,11520,6,0,B|468:139|468:139|480:383|480:383|401:152|401:152|304:376|304:376|286:132|286:132|296:376|296:376|242:138|242:138|212:381|212:381|364:189|364:189|480:404|480:404|342:269|342:269|139:53|139:53,1,2934.545454552,8|6,0:0|0:0,0:0:0:0:
132,84,12713,1,0,0:0:0:0:
256,192,13054,5,2,0:0:0:0:
176,192,13224,2,0,L|165:263|165:263|168:373|168:373,1,182.272727273,2|0,0:0|0:0,0:0:0:0:
336,192,13565,2,0,L|345:263|345:263|344:373|344:373,1,182.272727273,8|0,0:0|0:0,0:0:0:0:
256,192,13906,5,2,0:0:0:0:
384,192,14076,1,2,0:0:0:0:
256,192,14417,5,2,0:0:0:0:
336,192,14587,2,0,L|336:264|336:264|344:374|344:374,1,182.272727273,2|0,0:0|0:0,0:0:0:0:
176,192,14928,2,0,L|174:264|174:264|168:374|168:374,1,182.272727273,8|0,0:0|0:0,0:0:0:0:
336,192,15269,5,2,0:0:0:0:
224,152,15610,1,2,0:0:0:0:
228,112,15695,1,0,0:0:0:0:
288,152,15780,1,2,0:0:0:0:
284,112,15866,1,0,0:0:0:0:
112,192,15951,6,0,L|92:261|92:261|104:371|104:371,1,182.272727273,2|0,0:0|0:0,0:0:0:0:
200,80,16207,1,0,0:0:0:0:
144,72,16292,1,8,0:0:0:0:
56,40,16463,1,0,0:0:0:0:
432,272,16633,5,6,0:0:0:0:
472,192,16804,1,2,0:0:0:0:
432,272,16974,1,2,0:0:0:0:
304,304,17145,1,2,0:0:0:0:
56,80,17315,5,2,0:0:0:0:
224,80,17485,1,2,0:0:0:0:
456,80,17656,1,2,0:0:0:0:
184,80,17826,1,2,0:0:0:0:
141,80,17869,1,0,0:0:0:0:
98,80,17912,1,0,0:0:0:0:
256,304,17997,6,0,L|260:213|260:213,1,91.1363636365,6|0,0:0|0:0,0:0:0:0:
456,232,18167,2,0,L|460:323|460:323,1,91.1363636365
208,304,18338,2,0,L|212:213|212:213,1,91.1363636365,8|0,0:0|0:0,0:0:0:0:
408,232,18508,2,0,L|427:301|427:301|416:191|416:191,1,182.272727273,0|2,0:0|0:0,0:0:0:0:
256,304,18849,6,0,L|260:213|260:213,1,91.1363636365
456,232,19019,2,0,L|460:323|460:323,1,91.1363636365,8|0,0:0|0:0,0:0:0:0:
208,304,19190,2,0,L|212:213|212:213,1,91.1363636365
368,48,19360,6,0,L|372:139|372:139,1,91.1363636365,2|0,0:0|0:0,0:0:0:0:
432,48,19531,2,0,L|436:139|436:139,1,91.1363636365
336,48,19701,2,0,L|332:139|332:139,1,91.1363636365,8|0,0:0|0:0,0:0:0:0:
272,48,19872,2,0,L|268:139|268:139,1,91.1363636365
368,160,20042,6,0,L|372:251|372:251,1,91.1363636365,2|0,0:0|0:0,0:0:0:0:
464,160,20213,2,0,L|468:251|468:251,1,91.1363636365
312,224,20383,2,0,L|316:315|316:315,1,91.1363636365,8|0,0:0|0:0,0:0:0:0:
408,224,20554,2,0,L|412:315|412:315,1,91.1363636365
120,48,20724,6,0,L|124:139|124:139,1,91.1363636365,2|0,0:0|0:0,0:0:0:0:
208,48,20895,2,0,L|212:139|212:139,1,91.1363636365
296,48,21065,2,0,L|300:139|300:139,1,91.1363636365,8|0,0:0|0:0,0:0:0:0:
384,48,21236,2,0,L|376:119|376:119|392:228|392:228,1,182.272727273,0|2,0:0|0:0,0:0:0:0:
224,48,21576,6,0,L|228:139|228:139,1,91.1363636365
312,48,21747,2,0,L|316:139|316:139,1,91.1363636365,8|0,0:0|0:0,0:0:0:0:
224,48,21917,2,0,L|228:139|228:139,1,91.1363636365
56,272,22088,6,0,L|60:363|60:363,1,91.1363636365,2|0,0:0|0:0,0:0:0:0:
152,272,22259,2,0,L|156:363|156:363,1,91.1363636365
308,206,22429,2,0,L|304:297|304:297,1,91.1363636365,8|0,0:0|0:0,0:0:0:0:
212,206,22600,2,0,L|208:297|208:297,1,91.1363636365
116,96,22770,6,0,L|113:187|113:187,1,91.1363636365,2|0,0:0|0:0,0:0:0:0:
172,96,22941,2,0,L|169:187|169:187,1,91.1363636365
104,144,23110,2,0,L|101:235|101:235,1,91.1363636365,8|0,0:0|0:0,0:0:0:0:
40,144,23281,2,0,L|37:235|37:235,1,91.1363636365
224,272,23451,6,0,L|221:363|221:363,1,91.1363636365,2|0,0:0|0:0,0:0:0:0:
120,272,23622,2,0,L|117:363|117:363,1,91.1363636365
216,272,23792,2,0,L|213:363|213:363,1,91.1363636365,8|0,0:0|0:0,0:0:0:0:
112,272,23963,2,0,L|127:342|127:342|104:234|104:234,1,182.272727273,0|2,0:0|0:0,0:0:0:0:
256,160,24304,6,0,L|253:251|253:251,1,91.1363636365
152,160,24475,2,0,L|149:251|149:251,1,91.1363636365,8|0,0:0|0:0,0:0:0:0:
248,160,24645,2,0,L|245:251|245:251,1,91.1363636365
336,232,24815,6,0,L|340:323|340:323,1,91.1363636365,2|0,0:0|0:0,0:0:0:0:
432,232,24986,2,0,L|436:323|436:323,1,91.1363636365
284,298,25156,2,0,L|280:207|280:207,1,91.1363636365,8|0,0:0|0:0,0:0:0:0:
188,298,25327,2,0,L|184:207|184:207,1,91.1363636365
464,344,25497,6,0,L|459:253|459:253,1,91.1363636365,2|0,0:0|0:0,0:0:0:0:
368,344,25668,2,0,L|363:253|363:253,1,91.1363636365
148,280,25838,2,0,L|153:371|153:371,1,91.1363636365,8|0,0:0|0:0,0:0:0:0:
244,272,26009,2,0,L|249:363|249:363,1,91.1363636365
48,144,26179,6,0,L|53:235|53:235,1,91.1363636365,8|0,0:0|0:0,0:0:0:0:
304,128,26349,2,0,L|309:219|309:219,1,91.1363636365,2|0,0:0|0:0,0:0:0:0:
400,120,26520,2,0,L|405:211|405:211,1,91.1363636365
104,112,26690,6,0,L|109:203|109:203,1,91.1363636365,8|0,0:0|0:0,0:0:0:0:
360,96,26860,2,0,L|365:187|365:187,1,91.1363636365,2|0,0:0|0:0,0:0:0:0:
456,88,27031,2,0,L|461:179|461:179,1,91.1363636365
152,96,27201,6,0,L|147:187|147:187,1,91.1363636365,8|0,0:0|0:0,0:0:0:0:
56,88,27372,2,0,L|51:179|51:179,1,91.1363636365,2|0,0:0|0:0,0:0:0:0:
256,150,27542,5,4,0:0:0:0:
321,192,27713,1,0,0:0:0:0:
346,258,27883,1,0,0:0:0:0:
321,192,28054,1,0,0:0:0:0:
256,150,28224,5,0,0:0:0:0:
190,192,28395,1,0,0:0:0:0:
166,258,28565,1,0,0:0:0:0:
190,192,28736,1,0,0:0:0:0:
360,192,28906,6,0,L|356:264|356:264|368:374|368:374,1,182.272727273
456,192,29247,2,0,L|448:263|448:263|464:372|464:372,1,182.272727273
360,192,29588,2,0,L|371:263|371:263|368:373|368:373,1,182.272727273
360,192,29929,2,0,L|369:263|369:263|368:373|368:373,1,182.272727273
272,192,30270,2,0,L|275:264|275:264|280:374|280:374,1,182.272727273
360,192,30610,6,0,L|357:264|357:264|368:374|368:374,1,182.272727273
240,192,30951,2,0,L|257:262|257:262|248:372|248:372,1,182.272727273
424,192,31292,2,0,L|419:264|419:264|432:374|432:374,1,182.272727273
200,192,31633,5,0,0:0:0:0:
192,160,31718,1,0,0:0:0:0:
248,152,31804,1,0,0:0:0:0:
292,152,31889,1,0,0:0:0:0:
224,128,31974,5,0,0:0:0:0:
208,104,32059,1,0,0:0:0:0:
288,96,32145,1,0,0:0:0:0:
322,96,32230,1,0,0:0:0:0:
232,272,32315,5,0,0:0:0:0:
206,256,32400,1,0,0:0:0:0:
304,272,32485,1,0,0:0:0:0:
330,256,32570,1,0,0:0:0:0:
224,192,32656,5,0,0:0:0:0:
190,192,32741,1,0,0:0:0:0:
304,192,32826,1,0,0:0:0:0:
320,192,32912,1,0,0:0:0:0:
112,104,32997,5,2,0:0:0:0:
40,104,33082,1,0,0:0:0:0:
336,104,33167,1,2,0:0:0:0:
408,104,33252,1,0,0:0:0:0:
176,104,33338,5,2,0:0:0:0:
104,104,33423,1,0,0:0:0:0:
400,104,33508,1,2,0:0:0:0:
472,104,33593,1,0,0:0:0:0:
40,104,33679,5,4,0:3:0:0:
256,192,33849,12,4,35809,0:0:0:0:
