osu file format v14

[General]
AudioFilename: audio.mp3
AudioLeadIn: 0
PreviewTime: 17954
Countdown: 0
SampleSet: Soft
StackLeniency: 0.7
Mode: 2
LetterboxInBreaks: 0
WidescreenStoryboard: 1

[Editor]
DistanceSpacing: 1
BeatDivisor: 8
GridSize: 16
TimelineZoom: 2.1

[Metadata]
Title:The Owl House Theme Song (TV Size)
TitleUnicode:The Owl House Theme Song (TV Size)
Artist:TJ Hill
ArtistUnicode:TJ Hill
Creator:Phob
Version:Connor's Rain
Source:The Owl House
Tags:wwwww connor disney channel cartoon animation folk instrumental opening op tv television series show sunset
BeatmapID:4042450
BeatmapSetID:1952148

[Difficulty]
HPDrainRate:5
CircleSize:4
OverallDifficulty:9
ApproachRate:9
SliderMultiplier:1.9
SliderTickRate:2

[Events]
//Background and Video events
0,0,"bg.jpg",0,0
//Break Periods
//Storyboard Layer 0 (Background)
//Storyboard Layer 1 (Fail)
//Storyboard Layer 2 (Pass)
//Storyboard Layer 3 (Foreground)
//Storyboard Layer 4 (Overlay)
//Storyboard Sound Samples

[TimingPoints]
270,340.909090909091,4,2,1,20,1,0
610,-100,4,2,1,30,0,0
951,-100,4,2,1,40,0,0
1292,-100,4,2,1,50,0,0
1633,-100,4,2,1,60,0,0
11520,-66.6666666666667,4,2,1,70,0,0
11860,-66.6666666666667,4,2,1,80,0,0
12201,-66.6666666666667,4,2,1,90,0,0
12542,-100,4,2,1,100,0,0
12883,-100,4,2,1,60,0,0
16633,-66.6666666666667,4,2,1,70,0,0
17315,-66.6666666666667,4,2,1,80,0,0
17997,-100,4,2,1,90,0,1
18167,-100,4,2,1,90,0,1
19360,-100,4,2,1,80,0,1
20724,-100,4,2,1,70,0,1
22088,-100,4,2,1,60,0,1
23451,-100,4,2,1,70,0,1
24815,-100,4,2,1,80,0,1
26179,-100,4,2,1,90,0,1
26690,-33.3333333333333,4,2,1,90,0,1
27542,-100,4,2,1,40,0,0
28906,-100,4,2,1,60,0,0
31633,-100,4,2,1,70,0,0
32315,-100,4,2,1,80,0,0
32997,-100,4,2,1,90,0,0
33679,-100,4,2,1,100,0,0
34020,-100,4,2,1,90,0,0
34360,-100,4,2,1,80,0,0
34701,-100,4,2,1,70,0,0
35042,-100,4,2,1,60,0,0
35383,-100,4,2,1,50,0,0
35724,-100,4,2,1,40,0,0
35809,-100,4,2,1,100,0,0
35895,-100,4,2,1,40,0,0

[Colours]
Combo1 : 134,169,240
Combo2 : 255,255,72
Combo3 : 238,162,34
Combo4 : 189,62,0

[HitObjects]
256,192,270,12,0,1292,0:0:0:0:
320,192,1633,5,2,0:0:0:0:
400,192,1804,1,0,0:0:0:0:
320,192,1974,1,8,0:0:0:0:
240,192,2145,1,0,0:0:0:0:
400,192,2315,1,2,0:0:0:0:
224,208,2656,1,8,0:0:0:0:
48,272,2997,6,0,B|48:80,1,190,2|8,0:0|0:0,0:0:0:0:
144,80,3508,1,0,0:0:0:0:
48,82,3679,1,2,0:0:0:0:
192,80,3849,1,0,0:0:0:0:
48,82,4020,1,8,0:0:0:0:
448,80,4360,5,2,0:0:0:0:
336,80,4531,1,0,0:0:0:0:
304,80,4701,1,8,0:0:0:0:
336,80,4872,1,0,0:0:0:0:
496,80,5042,1,2,0:0:0:0:
272,80,5383,1,8,0:0:0:0:
48,80,5724,5,2,0:0:0:0:
256,80,6065,1,8,0:0:0:0:
320,80,6235,1,0,0:0:0:0:
224,80,6406,1,2,0:0:0:0:
144,80,6576,1,0,0:0:0:0:
272,192,6747,1,8,0:0:0:0:
400,80,6917,1,0,0:0:0:0:
160,192,7088,5,2,0:0:0:0:
80,192,7258,1,0,0:0:0:0:
160,192,7429,1,8,0:0:0:0:
240,192,7599,1,0,0:0:0:0:
80,192,7770,1,2,0:0:0:0:
256,192,8110,1,8,0:0:0:0:
448,192,8451,6,0,L|448:0,1,190,2|8,0:0|0:0,0:0:0:0:
352,192,8963,1,0,0:0:0:0:
448,192,9134,1,2,0:0:0:0:
304,192,9304,1,0,0:0:0:0:
448,192,9475,1,8,0:0:0:0:
48,192,9815,5,2,0:0:0:0:
144,192,9985,1,0,0:0:0:0:
240,192,10156,1,8,0:0:0:0:
144,192,10326,1,0,0:0:0:0:
304,192,10497,1,2,0:0:0:0:
128,192,10838,1,8,0:0:0:0:
352,192,11179,5,2,0:0:0:0:
80,320,11520,2,0,B|80:176|80:176|224:176|224:176|224:32|224:32|80:32,1,570.000021743775,8|8,0:0|0:0,0:0:0:0:
488,32,12542,5,6,0:0:0:0:
256,192,13054,1,2,0:0:0:0:
352,192,13224,1,2,0:0:0:0:
384,144,13395,1,0,0:0:0:0:
272,128,13565,1,8,0:0:0:0:
224,112,13650,1,0,0:0:0:0:
160,112,13735,1,0,0:0:0:0:
304,192,13906,5,2,0:0:0:0:
192,192,14076,1,2,0:0:0:0:
160,192,14247,1,0,0:0:0:0:
32,192,14417,1,2,0:0:0:0:
160,144,14588,1,2,0:0:0:0:
96,144,14758,1,0,0:0:0:0:
240,144,14929,1,8,0:0:0:0:
256,96,15099,1,0,0:0:0:0:
400,96,15270,5,2,0:0:0:0:
192,96,15610,1,2,0:0:0:0:
336,96,15781,1,2,0:0:0:0:
384,96,15866,1,0,0:0:0:0:
400,96,15951,1,2,0:0:0:0:
256,96,16122,1,0,0:0:0:0:
224,96,16207,1,0,0:0:0:0:
272,96,16292,1,8,0:0:0:0:
368,96,16463,1,0,0:0:0:0:
192,176,16633,6,0,B|384:384|384:384|192:176|192:176|320:128|320:128|192:80|192:80|336:0|336:0,1,997.500038051607,2|2,0:0|0:0,0:0:0:0:
96,192,17997,1,2,0:0:0:0:
48,192,18082,1,0,0:0:0:0:
96,192,18167,1,0,0:0:0:0:
240,192,18338,1,8,0:0:0:0:
336,192,18508,1,0,0:0:0:0:
160,192,18679,1,2,0:0:0:0:
80,192,18849,1,0,0:0:0:0:
240,192,19020,1,8,0:0:0:0:
80,192,19190,1,0,0:0:0:0:
320,192,19360,5,2,0:0:0:0:
304,192,19446,1,0,0:0:0:0:
256,192,19531,1,0,0:0:0:0:
352,192,19701,1,8,0:0:0:0:
432,192,19872,1,0,0:0:0:0:
192,128,20042,1,2,0:0:0:0:
240,128,20127,1,0,0:0:0:0:
304,80,20213,1,0,0:0:0:0:
160,128,20383,1,8,0:0:0:0:
80,128,20554,1,0,0:0:0:0:
368,128,20724,5,2,0:0:0:0:
304,128,20809,1,0,0:0:0:0:
224,128,20895,1,0,0:0:0:0:
384,128,21065,1,8,0:0:0:0:
432,128,21235,1,0,0:0:0:0:
288,128,21406,1,2,0:0:0:0:
432,128,21576,1,0,0:0:0:0:
304,128,21747,1,8,0:0:0:0:
448,128,21917,1,0,0:0:0:0:
192,128,22088,5,2,0:0:0:0:
144,128,22173,1,0,0:0:0:0:
112,128,22258,1,0,0:0:0:0:
256,128,22429,1,8,0:0:0:0:
352,128,22599,1,0,0:0:0:0:
112,64,22770,1,2,0:0:0:0:
64,64,22855,1,0,0:0:0:0:
32,64,22940,1,0,0:0:0:0:
192,64,23110,1,8,0:0:0:0:
112,64,23281,1,0,0:0:0:0:
400,80,23451,5,2,0:0:0:0:
432,80,23537,1,0,0:0:0:0:
384,80,23622,1,0,0:0:0:0:
240,192,23792,1,8,0:0:0:0:
96,192,23963,1,0,0:0:0:0:
240,192,24133,1,2,0:0:0:0:
96,192,24304,1,0,0:0:0:0:
336,192,24474,1,8,0:0:0:0:
432,192,24645,1,0,0:0:0:0:
192,192,24815,5,2,0:0:0:0:
112,160,24900,1,0,0:0:0:0:
96,128,24985,1,0,0:0:0:0:
240,112,25156,1,8,0:0:0:0:
336,112,25326,1,0,0:0:0:0:
96,128,25497,1,2,0:0:0:0:
80,96,25582,1,0,0:0:0:0:
160,80,25667,1,0,0:0:0:0:
288,144,25838,1,8,0:0:0:0:
384,144,26008,1,0,0:0:0:0:
96,304,26179,5,8,0:0:0:0:
336,304,26349,1,2,0:0:0:0:
208,304,26520,1,0,0:0:0:0:
448,384,26690,2,0,B|218:210|218:210|218:-75,1,570.000021743775,8|0,0:0|0:0,0:0:0:0:
80,16,27201,1,8,0:0:0:0:
171,15,27372,1,2,0:0:0:0:
401,256,27542,2,0,B|400:64|400:64|209:64|209:64|209:267,1,570,4|0,0:0|0:0,0:0:0:0:
384,240,28906,5,0,0:0:0:0:
256,240,29076,1,0,0:0:0:0:
336,208,29247,1,0,0:0:0:0:
352,176,29417,1,0,0:0:0:0:
256,144,29588,1,0,0:0:0:0:
352,144,29758,1,0,0:0:0:0:
272,96,29929,1,0,0:0:0:0:
256,64,30099,1,0,0:0:0:0:
352,64,30270,5,0,0:0:0:0:
256,96,30440,1,0,0:0:0:0:
240,48,30610,1,0,0:0:0:0:
144,48,30781,1,0,0:0:0:0:
256,48,30951,1,0,0:0:0:0:
160,80,31122,1,0,0:0:0:0:
144,128,31292,1,0,0:0:0:0:
48,128,31463,1,0,0:0:0:0:
192,112,31633,5,0,0:0:0:0:
160,96,31718,1,0,0:0:0:0:
80,96,31804,1,0,0:0:0:0:
224,80,31974,1,0,0:0:0:0:
304,80,32145,1,0,0:0:0:0:
144,256,32315,1,0,0:0:0:0:
96,256,32400,1,0,0:0:0:0:
80,208,32485,1,0,0:0:0:0:
144,208,32571,1,0,0:0:0:0:
288,208,32656,5,0,0:0:0:0:
336,208,32741,1,0,0:0:0:0:
352,176,32826,1,0,0:0:0:0:
304,176,32912,1,0,0:0:0:0:
144,160,32997,6,0,L|64:160,1,47.5,2|0,0:0|0:0,0:0:0:0:
304,144,33167,2,0,L|352:144,1,47.5,2|0,0:0|0:0,0:0:0:0:
128,112,33338,2,0,L|64:112,1,47.5,2|0,0:0|0:0,0:0:0:0:
320,96,33508,2,0,L|384:96,1,47.5,2|0,0:0|0:0,0:0:0:0:
64,112,33679,5,0,0:0:0:0:
256,192,33849,12,0,35383,0:0:0:0:
32,96,35809,6,0,L|176:96,1,142.5,4|0,0:0|0:0,0:0:0:0:
96,96,36321,1,0,0:0:0:0:
80,96,36363,1,0,0:0:0:0:
