osu file format v14

[General]
AudioFilename: audio.mp3
AudioLeadIn: 0
PreviewTime: 35435
Countdown: 0
SampleSet: Normal
StackLeniency: 0.7
Mode: 1
LetterboxInBreaks: 0
WidescreenStoryboard: 1

[Editor]
Bookmarks: 1304,12940,36213,59485,82758,106031,129304,152576,164213,175849,187485,199122,210758
DistanceSpacing: 0.1
BeatDivisor: 4
GridSize: 32
TimelineZoom: 2.1

[Metadata]
Title:Super Sonic Racing
TitleUnicode:Super Sonic Racing
Artist:TJ Davis
ArtistUnicode:TJ Davis
Creator:Hivie
Version:Oni
Source:Sonic R
Tags:sega sound team richard jacques sonic the hedgehog video game soundtrack ost original english electronic
BeatmapID:3276865
BeatmapSetID:1599585

[Difficulty]
HPDrainRate:5.5
CircleSize:2
OverallDifficulty:5.5
ApproachRate:9
SliderMultiplier:1.4
SliderTickRate:1

[Events]
//Background and Video events
0,0,"bg.jpg",0,-140
//Break Periods
2,117850,122503
//Storyboard Layer 0 (Background)
//Storyboard Layer 1 (Fail)
//Storyboard Layer 2 (Pass)
//Storyboard Layer 3 (Foreground)
//Storyboard Layer 4 (Overlay)
//Storyboard Sound Samples

[TimingPoints]
1304,363.581275564308,4,1,0,60,1,0
1304,-76.9230769230769,4,1,0,60,0,0
1576,-125,4,1,0,60,0,0
9984,-125,4,1,0,60,0,0
10166,-123.076923076923,4,1,0,60,0,0
10257,-122.137404580153,4,1,0,60,0,0
10347,-121.212121212121,4,1,0,60,0,0
10438,-120.300751879699,4,1,0,60,0,0
10529,-119.402985074627,4,1,0,60,0,0
10620,-118.518518518519,4,1,0,60,0,0
10711,-117.647058823529,4,1,0,60,0,0
10802,-116.788321167883,4,1,0,60,0,0
10893,-115.942028985507,4,1,0,60,0,0
10984,-115.107913669065,4,1,0,60,0,0
11075,-114.285714285714,4,1,0,60,0,0
11166,-113.475177304965,4,1,0,60,0,0
11257,-112.676056338028,4,1,0,60,0,0
11347,-111.888111888112,4,1,0,60,0,0
11438,-111.111111111111,4,1,0,60,0,0
11529,-110.344827586207,4,1,0,60,0,0
11620,-109.58904109589,4,1,0,60,0,0
11711,-108.843537414966,4,1,0,60,0,0
11802,-108.108108108108,4,1,0,60,0,0
11893,-107.38255033557,4,1,0,60,0,0
11984,-106.666666666667,4,1,0,60,0,0
12075,-105.960264900662,4,1,0,60,0,0
12166,-105.263157894737,4,1,0,60,0,0
12257,-104.575163398693,4,1,0,60,0,0
12347,-103.896103896104,4,1,0,60,0,0
12438,-103.225806451613,4,1,0,60,0,0
12529,-102.564102564103,4,1,0,60,0,0
12620,-101.910828025478,4,1,0,60,0,0
12711,-101.26582278481,4,1,0,60,0,0
12893,-100,4,1,0,80,0,0
35438,-98.0392156862745,4,1,0,80,0,0
35529,-97.0873786407767,4,1,0,80,0,0
35620,-96.1538461538461,4,1,0,80,0,0
35711,-95.2380952380952,4,1,0,80,0,0
35802,-94.3396226415094,4,1,0,80,0,0
35984,-92.5925925925926,4,1,0,80,0,0
36207,-90.9090909090909,4,1,0,90,0,1
59477,-90.9090909090909,4,1,0,90,0,0
59795,-93.0120078502135,4,1,0,90,0,0
59977,-94.100465420902,4,1,0,90,0,0
60068,-94.6542139582783,4,1,0,90,0,0
60159,-95.2146089678832,4,1,0,90,0,0
60250,-95.7816790719905,4,1,0,90,0,0
60340,-96.3554514060187,4,1,0,90,0,0
60522,-97.5239640760726,4,1,0,90,0,0
60704,-98.7212634742184,4,1,0,90,0,0
60886,-99.948226818508,4,1,0,90,0,0
81977,-96.7957696376837,4,1,0,90,0,0
82159,-95.2693980403085,4,1,0,90,0,0
82250,-94.5241230288176,4,1,0,90,0,0
82340,-93.7904178081742,4,1,0,90,0,0
82431,-93.0680150360685,4,1,0,90,0,0
82522,-92.3566555438468,4,1,0,90,0,0
82746,-90.9090909090909,4,1,0,90,0,1
106015,-90.9090909090909,4,1,0,90,0,0
106213,-100,4,1,0,80,0,0
128531,-96.7957696376837,4,1,0,90,0,0
128713,-95.2693980403085,4,1,0,90,0,0
128804,-94.5241230288176,4,1,0,90,0,0
128894,-93.7904178081742,4,1,0,90,0,0
128985,-93.0680150360685,4,1,0,90,0,0
129076,-92.3566555438468,4,1,0,90,0,0
129284,-90.9090909090909,4,1,0,90,0,1
152553,-90.9090909090909,4,1,0,90,0,0
152871,-93.0120078502135,4,1,0,90,0,0
153053,-94.100465420902,4,1,0,90,0,0
153144,-94.6542139582783,4,1,0,90,0,0
153235,-95.2146089678832,4,1,0,90,0,0
153325,-95.7816790719905,4,1,0,90,0,0
153416,-96.3554514060187,4,1,0,90,0,0
153598,-97.5239640760726,4,1,0,90,0,0
153780,-98.7212634742184,4,1,0,90,0,0
153962,-99.948226818508,4,1,0,90,0,0
222440,-100,4,1,0,90,0,0
222758,-111.111111111111,4,1,0,90,0,0
223804,-125,4,1,0,80,0,0
225258,-142.857142857143,4,1,0,70,0,0
226713,-166.666666666666,4,1,0,60,0,0
228167,-200,4,1,0,50,0,0

[HitObjects]
256,192,1304,5,4,0:0:0:0:
256,192,1667,1,8,0:0:0:0:
256,192,2031,1,0,0:0:0:0:
256,192,2212,1,0,0:0:0:0:
256,192,2394,1,8,0:0:0:0:
256,192,2576,1,8,0:0:0:0:
256,192,2667,1,8,0:0:0:0:
256,192,2758,1,0,0:0:0:0:
256,192,3121,1,8,0:0:0:0:
256,192,3303,1,8,0:0:0:0:
256,192,3485,1,0,0:0:0:0:
256,192,3667,1,0,0:0:0:0:
256,192,3849,1,8,0:0:0:0:
256,192,4030,1,0,0:0:0:0:
256,192,4121,1,8,0:0:0:0:
256,192,4212,1,0,0:0:0:0:
256,192,4576,1,8,0:0:0:0:
256,192,4939,1,0,0:0:0:0:
256,192,5121,1,0,0:0:0:0:
256,192,5303,1,8,0:0:0:0:
256,192,5485,1,0,0:0:0:0:
256,192,5576,1,8,0:0:0:0:
256,192,5666,1,0,0:0:0:0:
256,192,6030,1,8,0:0:0:0:
256,192,6212,1,8,0:0:0:0:
256,192,6394,1,0,0:0:0:0:
256,192,6575,1,0,0:0:0:0:
256,192,6757,1,8,0:0:0:0:
256,192,7121,1,4,0:0:0:0:
256,192,7484,1,8,0:0:0:0:
256,192,7666,1,0,0:0:0:0:
256,192,7757,1,0,0:0:0:0:
256,192,7848,1,8,0:0:0:0:
256,192,8030,1,0,0:0:0:0:
256,192,8212,1,8,0:0:0:0:
256,192,8393,1,0,0:0:0:0:
256,192,8484,1,8,0:0:0:0:
256,192,8575,1,0,0:0:0:0:
256,192,8757,1,0,0:0:0:0:
256,192,8939,1,8,0:0:0:0:
256,192,9120,1,0,0:0:0:0:
256,192,9302,1,0,0:0:0:0:
256,192,9484,1,8,0:0:0:0:
256,192,9666,1,8,0:0:0:0:
256,192,10029,1,0,0:0:0:0:
256,192,10211,1,8,0:0:0:0:
256,192,10393,1,0,0:0:0:0:
256,192,10484,1,0,0:0:0:0:
256,192,10575,1,8,0:0:0:0:
256,192,10666,1,8,0:0:0:0:
256,192,10757,1,0,0:0:0:0:
256,192,10938,1,8,0:0:0:0:
256,192,11120,1,0,0:0:0:0:
256,192,11302,1,8,0:0:0:0:
256,192,11393,1,8,0:0:0:0:
256,192,11484,1,0,0:0:0:0:
256,192,11575,1,0,0:0:0:0:
256,192,11666,1,8,0:0:0:0:
256,192,11847,1,0,0:0:0:0:
256,192,11938,1,8,0:0:0:0:
256,192,12029,1,0,0:0:0:0:
256,192,12120,1,0,0:0:0:0:
256,192,12211,1,8,0:0:0:0:
256,192,12393,1,8,0:0:0:0:
256,192,12484,1,0,0:0:0:0:
256,192,12575,1,8,0:0:0:0:
256,192,12665,1,8,0:0:0:0:
256,192,12756,1,0,0:0:0:0:
256,96,12938,1,12,0:0:0:0:
256,192,13302,1,8,0:0:0:0:
256,192,13483,1,0,0:0:0:0:
256,192,13574,1,8,0:0:0:0:
256,192,13756,1,8,0:0:0:0:
256,192,13847,1,0,0:0:0:0:
256,192,14029,1,8,0:0:0:0:
256,192,14211,1,8,0:0:0:0:
256,192,14392,1,0,0:0:0:0:
256,192,14574,1,0,0:0:0:0:
256,192,14665,1,0,0:0:0:0:
256,192,14756,1,8,0:0:0:0:
256,192,14938,1,0,0:0:0:0:
256,192,15029,1,8,0:0:0:0:
256,192,15210,1,8,0:0:0:0:
256,192,15301,1,0,0:0:0:0:
256,192,15483,1,8,0:0:0:0:
256,192,15665,1,8,0:0:0:0:
256,192,15847,1,0,0:0:0:0:
256,192,16029,1,0,0:0:0:0:
256,192,16119,1,8,0:0:0:0:
256,192,16210,1,0,0:0:0:0:
256,192,16392,1,0,0:0:0:0:
256,192,16483,1,8,0:0:0:0:
256,192,16665,1,8,0:0:0:0:
256,192,16756,1,0,0:0:0:0:
256,192,16937,1,8,0:0:0:0:
256,192,17119,1,8,0:0:0:0:
256,192,17301,1,0,0:0:0:0:
256,192,17483,1,0,0:0:0:0:
256,192,17665,1,8,0:0:0:0:
256,192,17846,1,0,0:0:0:0:
256,192,17937,1,8,0:0:0:0:
256,192,18119,1,0,0:0:0:0:
256,192,18210,1,8,0:0:0:0:
256,192,18301,1,0,0:0:0:0:
256,192,18392,1,8,0:0:0:0:
256,192,18574,1,0,0:0:0:0:
256,192,18755,1,8,0:0:0:0:
256,192,19119,1,8,0:0:0:0:
256,192,19301,1,0,0:0:0:0:
256,192,19392,1,8,0:0:0:0:
256,192,19573,1,8,0:0:0:0:
256,192,19664,1,0,0:0:0:0:
256,192,19846,1,8,0:0:0:0:
256,192,20028,1,8,0:0:0:0:
256,192,20210,1,0,0:0:0:0:
256,192,20392,1,0,0:0:0:0:
256,192,20482,1,8,0:0:0:0:
256,192,20573,1,0,0:0:0:0:
256,192,20755,1,0,0:0:0:0:
256,192,20846,1,8,0:0:0:0:
256,192,21028,1,8,0:0:0:0:
256,192,21119,1,0,0:0:0:0:
256,192,21300,1,8,0:0:0:0:
256,192,21482,1,8,0:0:0:0:
256,192,21573,1,0,0:0:0:0:
256,192,21664,1,0,0:0:0:0:
256,192,21846,1,8,0:0:0:0:
256,192,22028,1,8,0:0:0:0:
256,192,22209,1,0,0:0:0:0:
256,192,22300,1,8,0:0:0:0:
256,192,22482,1,8,0:0:0:0:
256,192,22573,1,0,0:0:0:0:
256,192,22755,1,8,0:0:0:0:
256,192,22937,1,8,0:0:0:0:
256,192,23118,1,0,0:0:0:0:
256,192,23300,1,8,0:0:0:0:
256,192,23391,1,0,0:0:0:0:
256,192,23482,1,8,0:0:0:0:
256,192,23664,1,0,0:0:0:0:
256,192,23755,1,8,0:0:0:0:
256,192,23846,1,0,0:0:0:0:
256,192,24027,1,8,0:0:0:0:
256,192,24209,1,0,0:0:0:0:
256,192,24300,1,0,0:0:0:0:
256,192,24391,1,0,0:0:0:0:
256,192,24573,5,12,0:0:0:0:
256,192,24936,1,0,0:0:0:0:
256,192,25118,1,8,0:0:0:0:
256,192,25209,1,8,0:0:0:0:
256,192,25391,1,0,0:0:0:0:
256,192,25482,1,0,0:0:0:0:
256,192,25663,1,8,0:0:0:0:
256,192,25845,1,8,0:0:0:0:
256,192,26027,1,0,0:0:0:0:
256,192,26209,1,0,0:0:0:0:
256,192,26300,1,0,0:0:0:0:
256,192,26391,1,8,0:0:0:0:
256,192,26572,1,0,0:0:0:0:
256,192,26663,1,8,0:0:0:0:
256,192,26845,1,8,0:0:0:0:
256,192,26936,1,0,0:0:0:0:
256,192,27118,1,8,0:0:0:0:
256,192,27300,1,8,0:0:0:0:
256,192,27481,1,0,0:0:0:0:
256,192,27663,1,0,0:0:0:0:
256,192,27845,1,8,0:0:0:0:
256,192,28027,1,0,0:0:0:0:
256,192,28118,1,0,0:0:0:0:
256,192,28299,1,8,0:0:0:0:
256,192,28390,1,8,0:0:0:0:
256,192,28572,1,0,0:0:0:0:
256,192,28754,1,8,0:0:0:0:
256,192,28936,1,0,0:0:0:0:
256,192,29117,1,0,0:0:0:0:
256,192,29208,1,0,0:0:0:0:
256,192,29299,1,8,0:0:0:0:
256,192,29481,1,0,0:0:0:0:
256,192,29572,1,8,0:0:0:0:
256,192,29754,1,0,0:0:0:0:
256,192,29845,1,8,0:0:0:0:
256,192,29936,1,0,0:0:0:0:
256,192,30026,1,8,0:0:0:0:
256,192,30208,1,0,0:0:0:0:
256,192,30390,1,8,0:0:0:0:
256,192,30754,1,8,0:0:0:0:
256,192,30935,1,0,0:0:0:0:
256,192,31026,1,8,0:0:0:0:
256,192,31208,1,8,0:0:0:0:
256,192,31299,1,0,0:0:0:0:
256,192,31481,1,8,0:0:0:0:
256,192,31663,1,8,0:0:0:0:
256,192,31844,1,0,0:0:0:0:
256,192,32026,1,0,0:0:0:0:
256,192,32117,1,8,0:0:0:0:
256,192,32208,1,0,0:0:0:0:
256,192,32390,1,0,0:0:0:0:
256,192,32481,1,8,0:0:0:0:
256,192,32662,1,8,0:0:0:0:
256,192,32753,1,8,0:0:0:0:
256,192,32935,5,0,0:0:0:0:
256,192,33117,1,8,0:0:0:0:
256,192,33208,1,0,0:0:0:0:
256,192,33299,1,0,0:0:0:0:
256,192,33480,5,8,0:0:0:0:
256,192,33662,1,8,0:0:0:0:
256,192,33844,1,0,0:0:0:0:
256,192,33935,1,8,0:0:0:0:
256,192,34117,1,8,0:0:0:0:
256,192,34208,1,0,0:0:0:0:
256,192,34389,1,8,0:0:0:0:
256,192,34571,1,0,0:0:0:0:
256,192,34753,5,8,0:0:0:0:
256,192,34935,1,0,0:0:0:0:
256,192,35026,1,0,0:0:0:0:
256,192,35117,1,8,0:0:0:0:
256,192,35298,1,0,0:0:0:0:
256,192,35480,1,8,0:0:0:0:
256,192,35571,1,8,0:0:0:0:
256,192,35662,1,0,0:0:0:0:
256,192,35753,1,0,0:0:0:0:
256,192,35844,1,8,0:0:0:0:
256,192,36026,1,0,0:0:0:0:
256,96,36207,5,12,0:0:0:0:
256,192,36571,1,8,0:0:0:0:
256,192,36753,1,0,0:0:0:0:
256,192,36844,1,0,0:0:0:0:
256,192,36934,1,8,0:0:0:0:
256,192,37025,1,8,0:0:0:0:
256,192,37116,1,0,0:0:0:0:
256,192,37298,1,0,0:0:0:0:
256,192,37480,1,8,0:0:0:0:
256,192,37571,1,8,0:0:0:0:
256,192,37662,1,0,0:0:0:0:
256,192,37843,1,8,0:0:0:0:
256,192,38025,1,0,0:0:0:0:
256,192,38116,1,8,0:0:0:0:
256,192,38207,1,0,0:0:0:0:
256,192,38389,1,8,0:0:0:0:
256,192,38571,1,8,0:0:0:0:
256,192,38661,1,0,0:0:0:0:
256,192,38752,1,8,0:0:0:0:
256,192,38843,1,8,0:0:0:0:
256,192,38934,1,0,0:0:0:0:
256,192,39116,1,8,0:0:0:0:
256,192,39298,1,0,0:0:0:0:
256,192,39480,1,8,0:0:0:0:
256,192,39570,1,8,0:0:0:0:
256,192,39661,1,0,0:0:0:0:
256,192,39752,1,8,0:0:0:0:
256,192,39843,1,0,0:0:0:0:
256,192,40025,1,8,0:0:0:0:
256,192,40207,1,0,0:0:0:0:
256,192,40298,1,0,0:0:0:0:
256,192,40388,1,8,0:0:0:0:
256,192,40479,1,8,0:0:0:0:
256,192,40570,1,0,0:0:0:0:
256,192,40752,1,8,0:0:0:0:
256,192,40934,1,8,0:0:0:0:
256,192,41116,1,0,0:0:0:0:
256,192,41207,1,8,0:0:0:0:
256,192,41297,1,0,0:0:0:0:
256,192,41479,1,8,0:0:0:0:
256,192,41570,1,0,0:0:0:0:
256,192,41661,1,8,0:0:0:0:
256,192,41752,1,8,0:0:0:0:
256,192,41843,1,0,0:0:0:0:
256,192,42025,1,8,0:0:0:0:
256,192,42388,1,0,0:0:0:0:
256,192,42570,1,8,0:0:0:0:
256,192,42661,1,8,0:0:0:0:
256,192,42752,1,0,0:0:0:0:
256,192,42843,1,0,0:0:0:0:
256,192,42934,1,8,0:0:0:0:
256,192,43115,1,0,0:0:0:0:
256,192,43297,1,8,0:0:0:0:
256,192,43388,1,8,0:0:0:0:
256,192,43479,1,0,0:0:0:0:
256,192,43661,1,8,0:0:0:0:
256,192,43843,1,0,0:0:0:0:
256,192,44024,1,0,0:0:0:0:
256,192,44115,1,0,0:0:0:0:
256,192,44206,1,8,0:0:0:0:
256,192,44388,1,8,0:0:0:0:
256,192,44479,1,0,0:0:0:0:
256,192,44570,1,8,0:0:0:0:
256,192,44661,1,8,0:0:0:0:
256,192,44751,1,0,0:0:0:0:
256,192,44933,1,8,0:0:0:0:
256,192,45297,1,0,0:0:0:0:
256,192,45479,1,8,0:0:0:0:
256,192,45570,1,0,0:0:0:0:
256,192,45660,1,8,0:0:0:0:
256,192,45842,1,8,0:0:0:0:
256,192,46024,1,0,0:0:0:0:
256,192,46115,1,0,0:0:0:0:
256,192,46206,1,8,0:0:0:0:
256,192,46297,1,8,0:0:0:0:
256,192,46388,1,8,0:0:0:0:
288,192,46569,1,0,0:0:0:0:
288,192,46751,1,8,0:0:0:0:
256,192,46933,1,0,0:0:0:0:
256,192,47024,1,8,0:0:0:0:
256,192,47115,1,0,0:0:0:0:
256,192,47297,1,0,0:0:0:0:
256,192,47387,1,0,0:0:0:0:
256,192,47478,1,8,0:0:0:0:
256,192,47569,1,8,0:0:0:0:
256,192,47660,1,0,0:0:0:0:
256,96,47842,5,12,0:0:0:0:
256,192,48205,1,8,0:0:0:0:
256,192,48387,1,0,0:0:0:0:
256,192,48478,1,0,0:0:0:0:
256,192,48569,1,8,0:0:0:0:
256,192,48660,1,8,0:0:0:0:
256,192,48751,1,0,0:0:0:0:
256,192,48933,1,0,0:0:0:0:
256,192,49114,1,8,0:0:0:0:
256,192,49205,1,8,0:0:0:0:
256,192,49296,1,0,0:0:0:0:
256,192,49478,1,8,0:0:0:0:
256,192,49660,1,0,0:0:0:0:
256,192,49751,1,8,0:0:0:0:
256,192,49842,1,0,0:0:0:0:
256,192,50023,1,8,0:0:0:0:
256,192,50205,1,0,0:0:0:0:
256,192,50296,1,0,0:0:0:0:
256,192,50387,1,8,0:0:0:0:
256,192,50478,1,0,0:0:0:0:
256,192,50569,1,8,0:0:0:0:
256,192,50751,1,0,0:0:0:0:
256,192,50932,1,8,0:0:0:0:
256,192,51114,1,8,0:0:0:0:
256,192,51205,1,8,0:0:0:0:
256,192,51296,1,0,0:0:0:0:
256,192,51387,1,0,0:0:0:0:
256,192,51478,1,8,0:0:0:0:
256,192,51660,1,0,0:0:0:0:
256,192,51841,1,8,0:0:0:0:
256,192,51932,1,0,0:0:0:0:
256,192,52023,1,8,0:0:0:0:
256,192,52114,1,8,0:0:0:0:
256,192,52205,1,0,0:0:0:0:
256,192,52387,1,8,0:0:0:0:
256,192,52568,1,8,0:0:0:0:
256,192,52750,1,0,0:0:0:0:
256,192,52841,1,8,0:0:0:0:
256,192,52932,1,0,0:0:0:0:
256,192,53114,1,0,0:0:0:0:
256,192,53205,1,0,0:0:0:0:
256,192,53296,1,8,0:0:0:0:
256,192,53387,1,8,0:0:0:0:
256,192,53477,1,0,0:0:0:0:
256,192,53659,1,8,0:0:0:0:
256,192,54023,1,8,0:0:0:0:
256,192,54205,1,0,0:0:0:0:
256,192,54295,1,8,0:0:0:0:
256,192,54386,1,0,0:0:0:0:
256,192,54477,1,0,0:0:0:0:
256,192,54568,1,8,0:0:0:0:
256,192,54750,1,0,0:0:0:0:
256,192,54932,1,8,0:0:0:0:
256,192,55023,1,8,0:0:0:0:
256,192,55114,1,0,0:0:0:0:
256,192,55295,1,8,0:0:0:0:
256,192,55477,1,0,0:0:0:0:
256,192,55659,1,0,0:0:0:0:
256,192,55750,1,0,0:0:0:0:
256,192,55841,1,8,0:0:0:0:
256,192,56022,1,8,0:0:0:0:
256,192,56113,1,0,0:0:0:0:
256,192,56204,1,8,0:0:0:0:
256,192,56295,1,8,0:0:0:0:
256,192,56386,1,0,0:0:0:0:
256,192,56568,1,8,0:0:0:0:
256,192,56931,1,0,0:0:0:0:
256,192,57113,1,8,0:0:0:0:
256,192,57204,1,0,0:0:0:0:
256,192,57295,1,8,0:0:0:0:
256,192,57477,1,8,0:0:0:0:
256,192,57659,1,0,0:0:0:0:
256,192,57749,1,0,0:0:0:0:
256,192,57840,1,8,0:0:0:0:
256,192,57931,1,8,0:0:0:0:
256,192,58022,1,8,0:0:0:0:
288,192,58204,1,0,0:0:0:0:
288,192,58386,1,8,0:0:0:0:
256,192,58568,1,0,0:0:0:0:
256,192,58658,1,8,0:0:0:0:
256,192,58749,1,0,0:0:0:0:
256,192,58931,1,0,0:0:0:0:
256,192,59022,1,0,0:0:0:0:
256,192,59113,5,8,0:0:0:0:
256,192,59204,1,8,0:0:0:0:
256,192,59295,1,0,0:0:0:0:
256,96,59477,5,12,0:0:0:0:
256,192,59840,1,8,0:0:0:0:
256,192,60022,1,0,0:0:0:0:
256,192,60113,1,8,0:0:0:0:
256,192,60204,1,0,0:0:0:0:
256,192,60295,1,0,0:0:0:0:
256,192,60385,1,8,0:0:0:0:
256,192,60567,1,0,0:0:0:0:
256,192,60749,1,8,0:0:0:0:
256,192,60931,1,0,0:0:0:0:
256,192,61113,1,0,0:0:0:0:
256,192,61294,1,8,0:0:0:0:
256,192,61476,1,0,0:0:0:0:
256,192,61658,1,8,0:0:0:0:
256,192,61749,1,8,0:0:0:0:
256,192,61840,1,0,0:0:0:0:
256,192,61931,1,0,0:0:0:0:
256,192,62022,1,8,0:0:0:0:
256,192,62203,1,8,0:0:0:0:
256,192,62294,1,8,0:0:0:0:
256,192,62385,1,0,0:0:0:0:
256,192,62567,1,0,0:0:0:0:
256,192,62749,1,8,0:0:0:0:
256,192,62931,1,0,0:0:0:0:
256,192,63112,1,0,0:0:0:0:
256,192,63203,1,0,0:0:0:0:
256,192,63294,1,8,0:0:0:0:
256,192,63385,1,0,0:0:0:0:
256,192,63476,1,8,0:0:0:0:
256,192,63658,1,0,0:0:0:0:
256,192,63839,1,8,0:0:0:0:
256,192,64021,1,0,0:0:0:0:
256,192,64112,1,0,0:0:0:0:
256,192,64203,1,8,0:0:0:0:
256,192,64385,1,0,0:0:0:0:
256,192,64567,1,8,0:0:0:0:
256,192,64658,1,8,0:0:0:0:
256,192,64748,1,0,0:0:0:0:
256,192,64930,1,8,0:0:0:0:
256,192,65112,1,8,0:0:0:0:
256,192,65294,1,0,0:0:0:0:
256,192,65657,1,8,0:0:0:0:
256,192,65839,1,0,0:0:0:0:
256,192,65930,1,0,0:0:0:0:
256,192,66021,1,8,0:0:0:0:
256,192,66112,1,0,0:0:0:0:
256,192,66203,1,8,0:0:0:0:
256,192,66385,1,0,0:0:0:0:
256,192,66566,1,8,0:0:0:0:
256,192,66748,1,0,0:0:0:0:
256,192,66930,1,0,0:0:0:0:
256,192,67112,1,8,0:0:0:0:
256,192,67294,1,0,0:0:0:0:
256,192,67475,1,8,0:0:0:0:
256,192,67566,1,8,0:0:0:0:
256,192,67657,1,0,0:0:0:0:
256,192,67748,1,0,0:0:0:0:
256,192,67839,1,8,0:0:0:0:
256,192,68021,1,8,0:0:0:0:
256,192,68112,1,8,0:0:0:0:
256,192,68202,1,0,0:0:0:0:
256,192,68384,1,0,0:0:0:0:
256,192,68566,1,8,0:0:0:0:
256,192,68748,1,8,0:0:0:0:
256,192,68930,1,0,0:0:0:0:
256,192,69021,1,8,0:0:0:0:
256,192,69111,1,0,0:0:0:0:
256,192,69202,1,0,0:0:0:0:
256,192,69293,1,8,0:0:0:0:
256,192,69475,1,0,0:0:0:0:
256,192,69657,1,8,0:0:0:0:
256,192,69839,1,0,0:0:0:0:
256,192,69929,1,0,0:0:0:0:
256,192,70020,1,8,0:0:0:0:
256,192,70202,1,0,0:0:0:0:
256,192,70384,1,8,0:0:0:0:
256,192,70475,1,8,0:0:0:0:
256,192,70566,1,0,0:0:0:0:
256,192,70748,5,8,0:0:0:0:
256,192,70929,5,8,0:0:0:0:
256,96,71111,1,4,0:0:0:0:
256,192,71475,1,8,0:0:0:0:
256,192,71656,1,0,0:0:0:0:
256,192,71838,1,8,0:0:0:0:
256,192,71929,1,8,0:0:0:0:
256,192,72020,1,0,0:0:0:0:
256,192,72111,1,0,0:0:0:0:
256,192,72202,1,8,0:0:0:0:
256,192,72384,1,8,0:0:0:0:
256,192,72565,1,0,0:0:0:0:
256,192,72747,1,0,0:0:0:0:
256,192,72929,1,8,0:0:0:0:
256,192,73111,1,0,0:0:0:0:
256,192,73293,1,8,0:0:0:0:
256,192,73383,1,0,0:0:0:0:
256,192,73474,1,8,0:0:0:0:
256,192,73565,1,8,0:0:0:0:
256,192,73656,1,0,0:0:0:0:
256,192,73838,1,8,0:0:0:0:
256,192,73929,1,8,0:0:0:0:
256,192,74020,1,0,0:0:0:0:
256,192,74202,1,0,0:0:0:0:
256,192,74383,1,8,0:0:0:0:
256,192,74565,1,0,0:0:0:0:
256,192,74747,1,8,0:0:0:0:
256,192,74838,1,8,0:0:0:0:
256,192,74929,1,0,0:0:0:0:
256,192,75020,1,8,0:0:0:0:
256,192,75110,1,0,0:0:0:0:
256,192,75292,1,8,0:0:0:0:
256,192,75474,1,0,0:0:0:0:
256,192,75656,1,0,0:0:0:0:
256,192,75747,1,0,0:0:0:0:
256,192,75838,1,8,0:0:0:0:
256,192,76019,1,0,0:0:0:0:
256,192,76201,1,8,0:0:0:0:
256,192,76292,1,8,0:0:0:0:
256,192,76383,1,0,0:0:0:0:
256,192,76565,5,8,0:0:0:0:
256,192,76747,1,8,0:0:0:0:
256,192,76928,1,0,0:0:0:0:
256,192,77292,1,8,0:0:0:0:
256,192,77474,1,0,0:0:0:0:
256,192,77565,1,8,0:0:0:0:
256,192,77656,1,0,0:0:0:0:
256,192,77746,1,0,0:0:0:0:
256,192,77837,1,8,0:0:0:0:
256,192,78019,1,8,0:0:0:0:
256,192,78201,1,0,0:0:0:0:
256,192,78383,1,0,0:0:0:0:
256,192,78565,1,8,0:0:0:0:
256,192,78746,1,0,0:0:0:0:
256,192,78928,1,0,0:0:0:0:
256,192,79019,1,0,0:0:0:0:
256,192,79110,1,8,0:0:0:0:
256,192,79201,1,8,0:0:0:0:
256,192,79292,1,0,0:0:0:0:
256,192,79473,1,8,0:0:0:0:
256,192,79655,1,0,0:0:0:0:
256,192,79746,1,0,0:0:0:0:
256,192,79837,1,8,0:0:0:0:
256,192,79928,1,0,0:0:0:0:
256,192,80019,1,8,0:0:0:0:
256,192,80201,1,8,0:0:0:0:
256,192,80292,1,8,0:0:0:0:
256,192,80382,1,0,0:0:0:0:
256,192,80473,1,0,0:0:0:0:
256,192,80564,1,8,0:0:0:0:
256,192,80746,1,8,0:0:0:0:
256,192,80928,1,0,0:0:0:0:
256,192,81019,1,8,0:0:0:0:
256,192,81110,1,0,0:0:0:0:
256,192,81291,1,8,0:0:0:0:
256,192,81473,1,0,0:0:0:0:
256,192,81564,1,0,0:0:0:0:
256,192,81655,1,8,0:0:0:0:
256,192,82019,1,0,0:0:0:0:
256,192,82200,1,8,0:0:0:0:
256,192,82291,1,0,0:0:0:0:
256,192,82382,1,8,0:0:0:0:
256,192,82473,1,8,0:0:0:0:
256,192,82564,1,0,0:0:0:0:
256,96,82746,5,12,0:0:0:0:
256,192,83109,1,8,0:0:0:0:
256,192,83291,1,0,0:0:0:0:
256,192,83382,1,0,0:0:0:0:
256,192,83473,1,8,0:0:0:0:
256,192,83564,1,8,0:0:0:0:
256,192,83655,1,0,0:0:0:0:
256,192,83836,1,0,0:0:0:0:
256,192,84018,1,8,0:0:0:0:
256,192,84109,1,8,0:0:0:0:
256,192,84200,1,0,0:0:0:0:
256,192,84382,1,8,0:0:0:0:
256,192,84564,1,0,0:0:0:0:
256,192,84655,1,8,0:0:0:0:
256,192,84745,1,0,0:0:0:0:
256,192,84927,1,8,0:0:0:0:
256,192,85109,1,8,0:0:0:0:
256,192,85200,1,0,0:0:0:0:
256,192,85291,1,8,0:0:0:0:
256,192,85382,1,8,0:0:0:0:
256,192,85473,1,0,0:0:0:0:
256,192,85654,1,8,0:0:0:0:
256,192,85836,1,0,0:0:0:0:
256,192,86018,1,8,0:0:0:0:
256,192,86109,1,8,0:0:0:0:
256,192,86200,1,0,0:0:0:0:
256,192,86291,1,8,0:0:0:0:
256,192,86382,1,0,0:0:0:0:
256,192,86563,1,8,0:0:0:0:
256,192,86745,1,0,0:0:0:0:
256,192,86836,1,0,0:0:0:0:
256,192,86927,1,8,0:0:0:0:
256,192,87018,1,8,0:0:0:0:
256,192,87109,1,8,0:0:0:0:
256,192,87290,1,0,0:0:0:0:
256,192,87472,1,8,0:0:0:0:
256,192,87654,1,0,0:0:0:0:
256,192,87745,1,8,0:0:0:0:
256,192,87836,1,0,0:0:0:0:
256,192,88018,1,8,0:0:0:0:
256,192,88109,1,0,0:0:0:0:
256,192,88199,1,8,0:0:0:0:
256,192,88290,1,8,0:0:0:0:
256,192,88381,1,0,0:0:0:0:
256,192,88563,1,8,0:0:0:0:
256,192,88927,1,0,0:0:0:0:
256,192,89108,1,8,0:0:0:0:
256,192,89199,1,8,0:0:0:0:
256,192,89290,1,0,0:0:0:0:
256,192,89381,1,0,0:0:0:0:
256,192,89472,1,8,0:0:0:0:
256,192,89654,1,0,0:0:0:0:
256,192,89836,1,8,0:0:0:0:
256,192,89926,1,0,0:0:0:0:
256,192,90017,1,0,0:0:0:0:
256,192,90199,1,8,0:0:0:0:
256,192,90381,1,0,0:0:0:0:
256,192,90563,1,0,0:0:0:0:
256,192,90654,1,0,0:0:0:0:
256,192,90744,1,8,0:0:0:0:
256,192,90926,1,8,0:0:0:0:
256,192,91017,1,0,0:0:0:0:
256,192,91108,1,8,0:0:0:0:
256,192,91199,1,8,0:0:0:0:
256,192,91290,1,0,0:0:0:0:
256,192,91472,1,8,0:0:0:0:
256,192,91835,1,0,0:0:0:0:
256,192,92017,1,8,0:0:0:0:
256,192,92108,1,0,0:0:0:0:
256,192,92199,1,8,0:0:0:0:
256,192,92381,1,8,0:0:0:0:
256,192,92562,1,0,0:0:0:0:
256,192,92653,1,0,0:0:0:0:
256,192,92744,1,8,0:0:0:0:
256,192,92835,1,8,0:0:0:0:
256,192,92926,1,8,0:0:0:0:
288,192,93108,1,0,0:0:0:0:
288,192,93290,1,8,0:0:0:0:
256,192,93471,1,0,0:0:0:0:
256,192,93562,1,8,0:0:0:0:
256,192,93653,1,0,0:0:0:0:
256,192,93835,1,0,0:0:0:0:
256,192,93926,1,0,0:0:0:0:
256,192,94017,1,8,0:0:0:0:
256,192,94108,1,8,0:0:0:0:
256,192,94199,1,0,0:0:0:0:
256,96,94380,5,12,0:0:0:0:
256,192,94744,1,8,0:0:0:0:
256,192,94926,1,0,0:0:0:0:
256,192,95017,1,0,0:0:0:0:
256,192,95107,1,8,0:0:0:0:
256,192,95198,1,8,0:0:0:0:
256,192,95289,1,0,0:0:0:0:
256,192,95471,1,0,0:0:0:0:
256,192,95653,1,8,0:0:0:0:
256,192,95744,1,8,0:0:0:0:
256,192,95835,1,0,0:0:0:0:
256,192,96016,1,8,0:0:0:0:
256,192,96198,1,0,0:0:0:0:
256,192,96289,1,8,0:0:0:0:
256,192,96380,1,0,0:0:0:0:
256,192,96562,1,8,0:0:0:0:
256,192,96744,1,0,0:0:0:0:
256,192,96834,1,0,0:0:0:0:
256,192,96925,1,8,0:0:0:0:
256,192,97016,1,0,0:0:0:0:
256,192,97107,1,8,0:0:0:0:
256,192,97289,1,0,0:0:0:0:
256,192,97471,1,8,0:0:0:0:
256,192,97653,1,8,0:0:0:0:
256,192,97743,1,8,0:0:0:0:
256,192,97834,1,0,0:0:0:0:
256,192,97925,1,0,0:0:0:0:
256,192,98016,1,8,0:0:0:0:
256,192,98198,1,0,0:0:0:0:
256,192,98380,1,8,0:0:0:0:
256,192,98471,1,0,0:0:0:0:
256,192,98561,1,8,0:0:0:0:
256,192,98652,1,8,0:0:0:0:
256,192,98743,1,0,0:0:0:0:
256,192,98925,1,8,0:0:0:0:
256,192,99107,1,8,0:0:0:0:
256,192,99289,1,0,0:0:0:0:
256,192,99380,1,8,0:0:0:0:
256,192,99470,1,0,0:0:0:0:
256,192,99652,1,0,0:0:0:0:
256,192,99743,1,0,0:0:0:0:
256,192,99834,1,8,0:0:0:0:
256,192,99925,1,8,0:0:0:0:
256,192,100016,1,0,0:0:0:0:
256,192,100107,1,0,0:0:0:0:
256,192,100198,1,8,0:0:0:0:
256,192,100561,1,8,0:0:0:0:
256,192,100743,1,0,0:0:0:0:
256,192,100834,1,8,0:0:0:0:
256,192,100925,1,0,0:0:0:0:
256,192,101016,1,0,0:0:0:0:
256,192,101107,1,8,0:0:0:0:
256,192,101288,1,0,0:0:0:0:
256,192,101470,1,8,0:0:0:0:
256,192,101561,1,8,0:0:0:0:
256,192,101652,1,0,0:0:0:0:
256,192,101834,1,8,0:0:0:0:
256,192,102016,1,0,0:0:0:0:
256,192,102197,1,0,0:0:0:0:
256,192,102288,1,0,0:0:0:0:
256,192,102379,1,8,0:0:0:0:
256,192,102561,1,8,0:0:0:0:
256,192,102652,1,0,0:0:0:0:
256,192,102743,1,8,0:0:0:0:
256,192,102834,1,8,0:0:0:0:
256,192,102924,1,0,0:0:0:0:
256,192,103106,1,8,0:0:0:0:
256,192,103470,1,0,0:0:0:0:
256,192,103652,1,8,0:0:0:0:
256,192,103743,1,0,0:0:0:0:
256,192,103833,1,8,0:0:0:0:
256,192,104015,1,8,0:0:0:0:
256,192,104197,1,0,0:0:0:0:
256,192,104288,1,0,0:0:0:0:
256,192,104379,1,8,0:0:0:0:
256,192,104470,1,8,0:0:0:0:
256,192,104561,1,8,0:0:0:0:
288,192,104742,1,0,0:0:0:0:
288,192,104924,1,8,0:0:0:0:
256,192,105106,1,0,0:0:0:0:
256,192,105197,1,8,0:0:0:0:
256,192,105288,1,0,0:0:0:0:
256,192,105470,1,8,0:0:0:0:
256,192,105560,1,0,0:0:0:0:
256,192,105651,5,8,0:0:0:0:
256,192,105742,1,8,0:0:0:0:
256,192,105833,1,0,0:0:0:0:
256,96,106015,5,12,0:0:0:0:
256,192,107106,5,8,0:0:0:0:
256,192,107833,1,8,0:0:0:0:
256,192,108560,1,8,0:0:0:0:
256,192,108742,1,0,0:0:0:0:
256,192,108833,1,0,0:0:0:0:
256,192,108924,1,0,0:0:0:0:
256,192,109287,1,8,0:0:0:0:
256,192,110014,1,8,0:0:0:0:
256,192,110741,1,8,0:0:0:0:
256,192,111469,1,8,0:0:0:0:
256,192,111650,1,0,0:0:0:0:
256,192,111741,1,8,0:0:0:0:
256,192,111832,1,0,0:0:0:0:
256,192,112196,1,8,0:0:0:0:
256,192,112923,1,8,0:0:0:0:
256,192,113650,1,8,0:0:0:0:
256,192,114377,1,8,0:0:0:0:
256,192,114559,1,8,0:0:0:0:
256,192,114650,1,8,0:0:0:0:
256,192,114741,1,0,0:0:0:0:
256,192,115104,1,8,0:0:0:0:
256,192,115832,1,8,0:0:0:0:
256,192,116559,1,8,0:0:0:0:
256,192,116922,1,0,0:0:0:0:
256,192,117013,1,0,0:0:0:0:
256,192,117104,1,0,0:0:0:0:
256,192,117286,1,8,0:0:0:0:
256,192,117468,1,0,0:0:0:0:
256,192,117650,1,12,0:0:0:0:
256,192,123103,5,0,0:0:0:0:
256,192,123285,1,0,0:0:0:0:
256,96,123467,1,12,0:0:0:0:
256,192,123649,1,0,0:0:0:0:
256,192,123830,1,8,0:0:0:0:
256,192,124194,1,0,0:0:0:0:
256,192,124558,1,8,0:0:0:0:
256,192,124739,1,0,0:0:0:0:
256,192,125103,1,0,0:0:0:0:
256,192,125285,1,8,0:0:0:0:
256,192,125648,1,0,0:0:0:0:
256,192,126012,1,8,0:0:0:0:
256,192,126194,1,0,0:0:0:0:
256,192,126375,1,0,0:0:0:0:
256,192,126739,1,8,0:0:0:0:
256,192,127103,1,0,0:0:0:0:
256,192,127466,1,8,0:0:0:0:
256,192,127648,1,8,0:0:0:0:
256,192,128012,1,0,0:0:0:0:
256,192,128193,1,8,0:0:0:0:
256,192,128557,1,8,0:0:0:0:
256,192,128739,1,0,0:0:0:0:
256,192,128830,1,0,0:0:0:0:
256,192,128921,1,8,0:0:0:0:
256,192,129011,1,8,0:0:0:0:
256,192,129102,1,0,0:0:0:0:
256,96,129284,5,12,0:0:0:0:
256,192,129648,1,8,0:0:0:0:
256,192,129829,1,0,0:0:0:0:
256,192,129920,1,0,0:0:0:0:
256,192,130011,1,8,0:0:0:0:
256,192,130102,1,8,0:0:0:0:
256,192,130193,1,8,0:0:0:0:
256,192,130375,1,0,0:0:0:0:
256,192,130557,1,8,0:0:0:0:
256,192,130648,1,8,0:0:0:0:
256,192,130738,1,0,0:0:0:0:
256,192,130920,1,8,0:0:0:0:
256,192,131102,1,0,0:0:0:0:
256,192,131193,1,8,0:0:0:0:
256,192,131284,1,0,0:0:0:0:
256,192,131466,1,8,0:0:0:0:
256,192,131647,1,8,0:0:0:0:
256,192,131738,1,0,0:0:0:0:
256,192,131829,1,8,0:0:0:0:
256,192,131920,1,8,0:0:0:0:
256,192,132011,1,0,0:0:0:0:
256,192,132193,1,8,0:0:0:0:
256,192,132375,1,0,0:0:0:0:
256,192,132556,1,8,0:0:0:0:
256,192,132647,1,8,0:0:0:0:
256,192,132738,1,0,0:0:0:0:
256,192,132829,1,8,0:0:0:0:
256,192,132920,1,0,0:0:0:0:
256,192,133102,1,8,0:0:0:0:
256,192,133284,1,0,0:0:0:0:
256,192,133374,1,0,0:0:0:0:
256,192,133465,1,8,0:0:0:0:
256,192,133556,1,8,0:0:0:0:
256,192,133647,1,8,0:0:0:0:
256,192,133829,1,0,0:0:0:0:
256,192,134011,1,8,0:0:0:0:
256,192,134192,1,0,0:0:0:0:
256,192,134283,1,8,0:0:0:0:
256,192,134374,1,0,0:0:0:0:
256,192,134556,1,8,0:0:0:0:
256,192,134647,1,0,0:0:0:0:
256,192,134738,1,8,0:0:0:0:
256,192,134829,1,8,0:0:0:0:
256,192,134920,1,0,0:0:0:0:
256,192,135011,1,0,0:0:0:0:
256,192,135101,1,8,0:0:0:0:
256,192,135465,1,0,0:0:0:0:
256,192,135647,1,8,0:0:0:0:
256,192,135738,1,8,0:0:0:0:
256,192,135829,1,0,0:0:0:0:
256,192,135919,1,0,0:0:0:0:
256,192,136010,1,8,0:0:0:0:
256,192,136192,1,0,0:0:0:0:
256,192,136374,1,8,0:0:0:0:
256,192,136465,1,0,0:0:0:0:
256,192,136556,1,0,0:0:0:0:
256,192,136738,1,8,0:0:0:0:
256,192,136919,1,0,0:0:0:0:
256,192,137101,1,0,0:0:0:0:
256,192,137192,1,0,0:0:0:0:
256,192,137283,1,8,0:0:0:0:
256,192,137465,1,8,0:0:0:0:
256,192,137556,1,0,0:0:0:0:
256,192,137646,1,8,0:0:0:0:
256,192,137737,1,8,0:0:0:0:
256,192,137828,1,0,0:0:0:0:
256,192,138010,1,8,0:0:0:0:
256,192,138374,1,0,0:0:0:0:
256,192,138555,1,8,0:0:0:0:
256,192,138646,1,0,0:0:0:0:
256,192,138737,1,8,0:0:0:0:
256,192,138919,1,8,0:0:0:0:
256,192,139101,1,0,0:0:0:0:
256,192,139192,1,0,0:0:0:0:
256,192,139283,1,8,0:0:0:0:
256,192,139373,1,8,0:0:0:0:
256,192,139464,1,8,0:0:0:0:
288,192,139646,1,0,0:0:0:0:
288,192,139828,1,8,0:0:0:0:
256,192,140010,1,0,0:0:0:0:
256,192,140101,1,8,0:0:0:0:
256,192,140192,1,0,0:0:0:0:
256,192,140373,1,0,0:0:0:0:
256,192,140464,1,0,0:0:0:0:
256,192,140555,1,8,0:0:0:0:
256,192,140646,1,8,0:0:0:0:
256,192,140737,1,0,0:0:0:0:
256,96,140919,5,12,0:0:0:0:
256,192,141282,1,8,0:0:0:0:
256,192,141464,1,0,0:0:0:0:
256,192,141555,1,0,0:0:0:0:
256,192,141646,1,8,0:0:0:0:
256,192,141737,1,8,0:0:0:0:
256,192,141828,1,0,0:0:0:0:
256,192,142009,1,0,0:0:0:0:
256,192,142191,1,8,0:0:0:0:
256,192,142282,1,8,0:0:0:0:
256,192,142373,1,0,0:0:0:0:
256,192,142555,1,8,0:0:0:0:
256,192,142737,1,0,0:0:0:0:
256,192,142828,1,8,0:0:0:0:
256,192,142918,1,0,0:0:0:0:
256,192,143100,1,8,0:0:0:0:
256,192,143282,1,0,0:0:0:0:
256,192,143373,1,0,0:0:0:0:
256,192,143464,1,8,0:0:0:0:
256,192,143555,1,0,0:0:0:0:
256,192,143646,1,8,0:0:0:0:
256,192,143736,1,8,0:0:0:0:
256,192,143827,1,0,0:0:0:0:
256,192,144009,1,8,0:0:0:0:
256,192,144191,1,0,0:0:0:0:
256,192,144282,1,0,0:0:0:0:
256,192,144373,1,8,0:0:0:0:
256,192,144464,1,8,0:0:0:0:
256,192,144555,1,0,0:0:0:0:
256,192,144736,1,0,0:0:0:0:
256,192,144918,1,8,0:0:0:0:
256,192,145009,1,0,0:0:0:0:
256,192,145100,1,8,0:0:0:0:
256,192,145191,1,8,0:0:0:0:
256,192,145282,1,0,0:0:0:0:
256,192,145463,1,8,0:0:0:0:
256,192,145645,1,8,0:0:0:0:
256,192,145827,1,0,0:0:0:0:
256,192,145918,1,8,0:0:0:0:
256,192,146009,1,0,0:0:0:0:
256,192,146191,1,0,0:0:0:0:
256,192,146282,1,0,0:0:0:0:
256,192,146372,1,8,0:0:0:0:
256,192,146463,1,8,0:0:0:0:
256,192,146554,1,0,0:0:0:0:
256,192,146645,1,0,0:0:0:0:
256,192,146736,1,8,0:0:0:0:
256,192,147100,1,8,0:0:0:0:
256,192,147281,1,0,0:0:0:0:
256,192,147372,1,8,0:0:0:0:
256,192,147463,1,0,0:0:0:0:
256,192,147554,1,0,0:0:0:0:
256,192,147645,1,8,0:0:0:0:
256,192,147827,1,0,0:0:0:0:
256,192,148009,1,8,0:0:0:0:
256,192,148099,1,8,0:0:0:0:
256,192,148190,1,0,0:0:0:0:
256,192,148372,1,8,0:0:0:0:
256,192,148554,1,0,0:0:0:0:
256,192,148736,1,0,0:0:0:0:
256,192,148827,1,0,0:0:0:0:
256,192,148917,1,8,0:0:0:0:
256,192,149099,1,8,0:0:0:0:
256,192,149190,1,0,0:0:0:0:
256,192,149281,1,8,0:0:0:0:
256,192,149372,1,8,0:0:0:0:
256,192,149463,1,0,0:0:0:0:
256,192,149645,1,8,0:0:0:0:
256,192,150008,1,0,0:0:0:0:
256,192,150190,1,8,0:0:0:0:
256,192,150281,1,0,0:0:0:0:
256,192,150372,1,8,0:0:0:0:
256,192,150554,1,8,0:0:0:0:
256,192,150735,1,0,0:0:0:0:
256,192,150826,1,0,0:0:0:0:
256,192,150917,1,8,0:0:0:0:
256,192,151008,1,8,0:0:0:0:
256,192,151099,1,8,0:0:0:0:
288,192,151281,1,0,0:0:0:0:
288,192,151463,1,8,0:0:0:0:
256,192,151644,1,0,0:0:0:0:
256,192,151735,1,8,0:0:0:0:
256,192,151826,1,0,0:0:0:0:
256,192,152008,1,8,0:0:0:0:
256,192,152099,1,0,0:0:0:0:
256,192,152190,5,8,0:0:0:0:
256,192,152281,1,8,0:0:0:0:
256,192,152372,1,0,0:0:0:0:
256,96,152553,5,12,0:0:0:0:
256,192,152917,1,8,0:0:0:0:
256,192,153099,1,0,0:0:0:0:
256,192,153190,1,8,0:0:0:0:
256,192,153280,1,0,0:0:0:0:
256,192,153371,1,0,0:0:0:0:
256,192,153462,1,8,0:0:0:0:
256,192,153644,1,0,0:0:0:0:
256,192,153826,1,8,0:0:0:0:
256,192,154008,1,0,0:0:0:0:
256,192,154189,1,0,0:0:0:0:
256,192,154371,1,8,0:0:0:0:
256,192,154553,1,0,0:0:0:0:
256,192,154644,1,8,0:0:0:0:
256,192,154735,1,0,0:0:0:0:
256,192,154826,1,8,0:0:0:0:
256,192,154917,1,0,0:0:0:0:
256,192,155098,1,8,0:0:0:0:
256,192,155280,1,8,0:0:0:0:
256,192,155371,1,8,0:0:0:0:
256,192,155462,1,0,0:0:0:0:
256,192,155644,1,0,0:0:0:0:
256,192,155826,1,8,0:0:0:0:
256,192,156007,1,0,0:0:0:0:
256,192,156098,1,8,0:0:0:0:
256,192,156189,1,0,0:0:0:0:
256,192,156280,1,0,0:0:0:0:
256,192,156371,1,8,0:0:0:0:
256,192,156553,1,0,0:0:0:0:
256,192,156734,1,8,0:0:0:0:
256,192,156916,1,0,0:0:0:0:
256,192,157098,1,0,0:0:0:0:
256,192,157189,1,0,0:0:0:0:
256,192,157280,1,8,0:0:0:0:
256,192,157462,1,0,0:0:0:0:
256,192,157643,1,8,0:0:0:0:
256,192,157734,1,8,0:0:0:0:
256,192,157825,1,0,0:0:0:0:
256,192,158007,1,8,0:0:0:0:
256,192,158189,1,8,0:0:0:0:
256,192,158371,1,0,0:0:0:0:
256,192,158734,1,0,0:0:0:0:
256,192,158916,1,8,0:0:0:0:
256,192,159007,1,8,0:0:0:0:
256,192,159098,1,8,0:0:0:0:
256,192,159189,1,8,0:0:0:0:
256,192,159280,1,0,0:0:0:0:
256,192,159461,1,8,0:0:0:0:
256,192,159643,1,8,0:0:0:0:
256,192,159825,1,0,0:0:0:0:
256,192,160007,1,0,0:0:0:0:
256,192,160189,1,8,0:0:0:0:
256,192,160370,1,0,0:0:0:0:
256,192,160461,1,8,0:0:0:0:
256,192,160552,1,8,0:0:0:0:
256,192,160643,1,8,0:0:0:0:
256,192,160734,1,0,0:0:0:0:
256,192,160916,1,8,0:0:0:0:
256,192,161097,1,8,0:0:0:0:
256,192,161188,1,8,0:0:0:0:
256,192,161279,1,0,0:0:0:0:
256,192,161461,1,0,0:0:0:0:
256,192,161643,1,8,0:0:0:0:
256,192,161825,1,8,0:0:0:0:
256,192,161916,1,8,0:0:0:0:
256,192,162006,1,0,0:0:0:0:
256,192,162097,1,8,0:0:0:0:
256,192,162188,1,0,0:0:0:0:
256,192,162370,1,8,0:0:0:0:
256,192,162552,1,0,0:0:0:0:
256,192,162734,1,8,0:0:0:0:
256,192,162915,1,0,0:0:0:0:
256,192,163006,1,0,0:0:0:0:
256,192,163097,1,8,0:0:0:0:
256,192,163279,1,0,0:0:0:0:
256,192,163370,1,0,0:0:0:0:
256,192,163461,1,8,0:0:0:0:
256,192,163552,1,8,0:0:0:0:
256,192,163643,1,0,0:0:0:0:
256,192,163824,5,8,0:0:0:0:
256,192,164006,5,8,0:0:0:0:
256,96,164188,1,4,0:0:0:0:
256,192,164551,1,8,0:0:0:0:
256,192,164733,1,0,0:0:0:0:
256,192,164824,1,0,0:0:0:0:
256,192,164915,1,8,0:0:0:0:
256,192,165006,1,8,0:0:0:0:
256,192,165097,1,8,0:0:0:0:
256,192,165279,1,0,0:0:0:0:
256,192,165460,1,8,0:0:0:0:
256,192,165551,1,8,0:0:0:0:
256,192,165642,1,0,0:0:0:0:
256,192,165824,1,8,0:0:0:0:
256,192,166006,1,0,0:0:0:0:
256,192,166097,1,8,0:0:0:0:
256,192,166188,1,0,0:0:0:0:
256,192,166369,1,8,0:0:0:0:
256,192,166551,1,8,0:0:0:0:
256,192,166642,1,0,0:0:0:0:
256,192,166733,1,8,0:0:0:0:
256,192,166824,1,8,0:0:0:0:
256,192,166915,1,0,0:0:0:0:
256,192,167097,1,8,0:0:0:0:
256,192,167278,1,0,0:0:0:0:
256,192,167460,1,8,0:0:0:0:
256,192,167551,1,8,0:0:0:0:
256,192,167642,1,0,0:0:0:0:
256,192,167733,1,8,0:0:0:0:
256,192,167824,1,0,0:0:0:0:
256,192,168006,1,8,0:0:0:0:
256,192,168187,1,0,0:0:0:0:
256,192,168278,1,0,0:0:0:0:
256,192,168369,1,8,0:0:0:0:
256,192,168460,1,8,0:0:0:0:
256,192,168551,1,8,0:0:0:0:
256,192,168733,1,0,0:0:0:0:
256,192,168914,1,8,0:0:0:0:
256,192,169096,1,0,0:0:0:0:
256,192,169187,1,8,0:0:0:0:
256,192,169278,1,0,0:0:0:0:
256,192,169460,5,8,0:0:0:0:
256,192,169551,1,0,0:0:0:0:
256,192,169642,1,8,0:0:0:0:
256,192,169733,1,8,0:0:0:0:
256,192,169823,1,0,0:0:0:0:
256,192,170005,5,8,0:0:0:0:
256,192,170369,1,0,0:0:0:0:
256,192,170551,1,8,0:0:0:0:
256,192,170641,1,8,0:0:0:0:
256,192,170732,1,0,0:0:0:0:
256,192,170823,1,0,0:0:0:0:
256,192,170914,1,8,0:0:0:0:
256,192,171096,1,0,0:0:0:0:
256,192,171278,1,8,0:0:0:0:
256,192,171460,1,0,0:0:0:0:
256,192,171641,1,0,0:0:0:0:
256,192,171823,1,8,0:0:0:0:
256,192,172005,1,0,0:0:0:0:
256,192,172096,1,8,0:0:0:0:
256,192,172187,1,0,0:0:0:0:
256,192,172278,1,8,0:0:0:0:
256,192,172368,1,0,0:0:0:0:
256,192,172550,1,8,0:0:0:0:
256,192,172732,1,8,0:0:0:0:
256,192,172823,1,8,0:0:0:0:
256,192,172914,1,0,0:0:0:0:
256,192,173096,1,0,0:0:0:0:
256,192,173277,1,8,0:0:0:0:
256,192,173459,1,0,0:0:0:0:
256,192,173550,1,8,0:0:0:0:
256,192,173641,1,0,0:0:0:0:
256,192,173732,1,0,0:0:0:0:
256,192,173823,1,8,0:0:0:0:
256,192,174005,1,0,0:0:0:0:
256,192,174186,1,8,0:0:0:0:
256,192,174368,1,0,0:0:0:0:
256,192,174550,1,0,0:0:0:0:
256,192,174641,1,0,0:0:0:0:
256,192,174732,1,8,0:0:0:0:
256,192,174914,1,0,0:0:0:0:
256,192,175095,1,8,0:0:0:0:
256,192,175186,1,8,0:0:0:0:
256,192,175277,1,0,0:0:0:0:
256,192,175459,5,8,0:0:0:0:
256,192,175641,1,0,0:0:0:0:
256,96,175823,1,12,0:0:0:0:
256,192,176186,1,8,0:0:0:0:
256,192,176368,1,0,0:0:0:0:
256,192,176550,1,8,0:0:0:0:
256,192,176641,1,8,0:0:0:0:
256,192,176731,1,0,0:0:0:0:
256,192,176913,1,8,0:0:0:0:
256,192,177095,1,0,0:0:0:0:
256,192,177186,1,8,0:0:0:0:
256,192,177277,1,0,0:0:0:0:
256,192,177459,1,0,0:0:0:0:
256,192,177640,1,8,0:0:0:0:
256,192,177822,1,0,0:0:0:0:
256,192,177913,1,8,0:0:0:0:
256,192,178004,1,0,0:0:0:0:
256,192,178095,1,0,0:0:0:0:
256,192,178186,1,8,0:0:0:0:
256,192,178368,1,0,0:0:0:0:
256,192,178549,1,8,0:0:0:0:
256,192,178640,1,8,0:0:0:0:
256,192,178731,1,0,0:0:0:0:
256,192,178913,1,0,0:0:0:0:
256,192,179095,1,8,0:0:0:0:
256,192,179277,1,0,0:0:0:0:
256,192,179458,1,0,0:0:0:0:
256,192,179549,1,8,0:0:0:0:
256,192,179640,1,0,0:0:0:0:
256,192,179822,1,8,0:0:0:0:
256,192,180004,1,8,0:0:0:0:
256,192,180095,1,8,0:0:0:0:
256,192,180185,1,0,0:0:0:0:
256,192,180367,1,0,0:0:0:0:
256,192,180549,1,8,0:0:0:0:
256,192,180731,1,0,0:0:0:0:
256,192,180822,1,8,0:0:0:0:
256,192,180913,1,0,0:0:0:0:
256,192,181094,1,8,0:0:0:0:
256,192,181185,1,0,0:0:0:0:
256,192,181276,1,8,0:0:0:0:
256,192,181367,1,8,0:0:0:0:
256,192,181458,1,0,0:0:0:0:
256,192,181640,1,8,0:0:0:0:
256,192,182003,1,8,0:0:0:0:
256,192,182185,1,0,0:0:0:0:
256,192,182276,1,0,0:0:0:0:
256,192,182367,1,8,0:0:0:0:
256,192,182549,1,0,0:0:0:0:
256,192,182731,1,8,0:0:0:0:
256,192,182912,1,8,0:0:0:0:
256,192,183003,1,8,0:0:0:0:
256,192,183094,1,0,0:0:0:0:
256,192,183276,1,0,0:0:0:0:
256,192,183458,1,8,0:0:0:0:
256,192,183640,1,0,0:0:0:0:
256,192,183730,1,8,0:0:0:0:
256,192,183821,1,0,0:0:0:0:
256,192,183912,1,0,0:0:0:0:
256,192,184003,1,8,0:0:0:0:
256,192,184185,1,0,0:0:0:0:
256,192,184367,1,8,0:0:0:0:
256,192,184458,1,8,0:0:0:0:
256,192,184548,1,0,0:0:0:0:
256,192,184730,1,0,0:0:0:0:
256,192,184912,1,8,0:0:0:0:
256,192,185094,1,0,0:0:0:0:
256,192,185276,1,0,0:0:0:0:
256,192,185367,1,8,0:0:0:0:
256,192,185457,1,0,0:0:0:0:
256,192,185639,1,8,0:0:0:0:
256,192,185821,1,8,0:0:0:0:
256,192,185912,1,8,0:0:0:0:
256,192,186003,1,0,0:0:0:0:
256,192,186185,1,0,0:0:0:0:
256,192,186366,1,8,0:0:0:0:
256,192,186548,1,0,0:0:0:0:
256,192,186639,1,8,0:0:0:0:
256,192,186730,1,0,0:0:0:0:
256,192,186912,5,8,0:0:0:0:
256,192,187003,1,0,0:0:0:0:
256,192,187094,1,8,0:0:0:0:
256,192,187184,1,8,0:0:0:0:
256,192,187275,1,0,0:0:0:0:
256,96,187457,5,12,0:0:0:0:
256,192,187821,1,8,0:0:0:0:
256,192,188002,1,0,0:0:0:0:
256,192,188184,1,8,0:0:0:0:
256,192,188275,1,8,0:0:0:0:
256,192,188366,1,0,0:0:0:0:
256,192,188548,1,8,0:0:0:0:
256,192,188730,1,0,0:0:0:0:
256,192,188821,1,8,0:0:0:0:
256,192,188911,1,0,0:0:0:0:
256,192,189093,1,0,0:0:0:0:
256,192,189275,1,8,0:0:0:0:
256,192,189457,1,0,0:0:0:0:
256,192,189548,1,8,0:0:0:0:
256,192,189639,1,0,0:0:0:0:
256,192,189729,1,0,0:0:0:0:
256,192,189820,1,8,0:0:0:0:
256,192,190002,1,0,0:0:0:0:
256,192,190184,1,8,0:0:0:0:
256,192,190275,1,0,0:0:0:0:
256,192,190366,1,0,0:0:0:0:
256,192,190548,1,8,0:0:0:0:
256,192,190729,1,8,0:0:0:0:
256,192,190911,1,0,0:0:0:0:
256,192,191093,1,8,0:0:0:0:
256,192,191184,1,8,0:0:0:0:
256,192,191275,1,0,0:0:0:0:
256,192,191457,1,8,0:0:0:0:
256,192,191638,1,0,0:0:0:0:
256,192,191729,1,8,0:0:0:0:
256,192,191820,1,0,0:0:0:0:
256,192,192002,1,0,0:0:0:0:
256,192,192184,1,8,0:0:0:0:
256,192,192365,1,0,0:0:0:0:
256,192,192456,1,0,0:0:0:0:
256,192,192547,1,0,0:0:0:0:
256,192,192729,1,8,0:0:0:0:
256,192,192820,1,0,0:0:0:0:
256,192,192911,1,8,0:0:0:0:
256,192,193002,1,8,0:0:0:0:
256,192,193093,1,0,0:0:0:0:
256,192,193274,1,8,0:0:0:0:
256,192,193638,1,8,0:0:0:0:
256,192,193820,1,0,0:0:0:0:
256,192,193911,1,0,0:0:0:0:
256,192,194002,1,8,0:0:0:0:
256,192,194183,1,0,0:0:0:0:
256,192,194365,1,8,0:0:0:0:
256,192,194547,1,8,0:0:0:0:
256,192,194638,1,8,0:0:0:0:
256,192,194729,1,0,0:0:0:0:
256,192,194911,1,0,0:0:0:0:
256,192,195092,1,8,0:0:0:0:
256,192,195274,1,0,0:0:0:0:
256,192,195365,1,8,0:0:0:0:
256,192,195456,1,0,0:0:0:0:
256,192,195547,1,0,0:0:0:0:
256,192,195638,1,8,0:0:0:0:
256,192,195819,1,0,0:0:0:0:
256,192,196001,1,8,0:0:0:0:
256,192,196092,1,8,0:0:0:0:
256,192,196183,1,0,0:0:0:0:
256,192,196365,1,0,0:0:0:0:
256,192,196547,1,8,0:0:0:0:
256,192,196728,1,0,0:0:0:0:
256,192,196910,1,0,0:0:0:0:
256,192,197001,1,8,0:0:0:0:
256,192,197092,1,0,0:0:0:0:
256,192,197274,1,8,0:0:0:0:
256,192,197456,1,8,0:0:0:0:
256,192,197546,1,8,0:0:0:0:
256,192,197637,1,0,0:0:0:0:
256,192,197819,1,0,0:0:0:0:
256,192,198001,1,8,0:0:0:0:
256,192,198183,1,0,0:0:0:0:
256,192,198274,1,8,0:0:0:0:
256,192,198365,1,0,0:0:0:0:
256,192,198546,5,8,0:0:0:0:
256,192,198637,1,0,0:0:0:0:
256,192,198728,1,8,0:0:0:0:
256,192,198819,1,8,0:0:0:0:
256,192,198910,1,0,0:0:0:0:
256,96,199092,5,12,0:0:0:0:
256,192,199455,1,8,0:0:0:0:
256,192,199637,1,0,0:0:0:0:
256,192,199728,1,8,0:0:0:0:
256,192,199819,1,0,0:0:0:0:
256,192,199910,1,0,0:0:0:0:
256,192,200001,1,8,0:0:0:0:
256,192,200182,1,0,0:0:0:0:
256,192,200364,1,8,0:0:0:0:
256,192,200546,1,0,0:0:0:0:
256,192,200728,1,0,0:0:0:0:
256,192,200910,1,8,0:0:0:0:
256,192,201091,1,8,0:0:0:0:
256,192,201182,1,8,0:0:0:0:
256,192,201273,1,0,0:0:0:0:
256,192,201364,1,0,0:0:0:0:
256,192,201455,1,8,0:0:0:0:
256,192,201637,1,0,0:0:0:0:
256,192,201819,1,8,0:0:0:0:
256,192,201909,1,8,0:0:0:0:
256,192,202000,1,0,0:0:0:0:
256,192,202182,1,0,0:0:0:0:
256,192,202364,1,8,0:0:0:0:
256,192,202546,1,0,0:0:0:0:
256,192,202637,1,8,0:0:0:0:
256,192,202728,1,0,0:0:0:0:
256,192,202818,1,0,0:0:0:0:
256,192,202909,1,8,0:0:0:0:
256,192,203091,1,0,0:0:0:0:
256,192,203273,1,8,0:0:0:0:
256,192,203455,1,0,0:0:0:0:
256,192,203636,1,0,0:0:0:0:
256,192,203727,1,0,0:0:0:0:
256,192,203818,1,8,0:0:0:0:
256,192,204000,1,0,0:0:0:0:
256,192,204182,1,8,0:0:0:0:
256,192,204273,1,8,0:0:0:0:
256,192,204364,1,0,0:0:0:0:
256,192,204545,1,8,0:0:0:0:
256,192,204727,1,8,0:0:0:0:
256,192,204909,1,0,0:0:0:0:
256,192,205273,1,8,0:0:0:0:
256,192,205454,1,0,0:0:0:0:
256,192,205636,1,8,0:0:0:0:
256,192,205727,1,8,0:0:0:0:
256,192,205818,1,8,0:0:0:0:
256,192,205909,1,8,0:0:0:0:
256,192,206000,1,8,0:0:0:0:
256,192,206182,1,0,0:0:0:0:
256,192,206272,1,0,0:0:0:0:
256,192,206363,1,8,0:0:0:0:
256,192,206545,1,0,0:0:0:0:
256,192,206727,1,8,0:0:0:0:
256,192,206909,1,0,0:0:0:0:
256,192,207000,1,8,0:0:0:0:
256,192,207091,1,8,0:0:0:0:
256,192,207181,1,8,0:0:0:0:
256,192,207272,1,0,0:0:0:0:
256,192,207454,1,8,0:0:0:0:
256,192,207636,1,8,0:0:0:0:
256,192,207727,1,8,0:0:0:0:
256,192,207818,1,0,0:0:0:0:
256,192,207999,1,0,0:0:0:0:
256,192,208181,1,8,0:0:0:0:
256,192,208363,1,8,0:0:0:0:
256,192,208454,1,8,0:0:0:0:
256,192,208545,1,0,0:0:0:0:
256,192,208636,1,8,0:0:0:0:
256,192,208727,1,0,0:0:0:0:
256,192,208908,1,8,0:0:0:0:
256,192,209090,1,0,0:0:0:0:
256,192,209272,1,8,0:0:0:0:
256,192,209454,1,0,0:0:0:0:
256,192,209545,1,0,0:0:0:0:
256,192,209636,1,8,0:0:0:0:
256,192,209817,1,0,0:0:0:0:
256,192,209999,1,8,0:0:0:0:
256,192,210090,1,8,0:0:0:0:
256,192,210181,5,0,0:0:0:0:
256,192,210272,1,0,0:0:0:0:
256,192,210363,5,8,0:0:0:0:
256,192,210545,5,8,0:0:0:0:
256,96,210726,5,4,0:0:0:0:
256,192,211090,1,8,0:0:0:0:
256,192,211272,1,0,0:0:0:0:
256,192,211453,1,8,0:0:0:0:
256,192,211544,1,8,0:0:0:0:
256,192,211635,1,0,0:0:0:0:
256,192,211817,1,8,0:0:0:0:
256,192,211999,1,0,0:0:0:0:
256,192,212090,1,8,0:0:0:0:
256,192,212181,1,0,0:0:0:0:
256,192,212362,1,0,0:0:0:0:
256,192,212544,1,8,0:0:0:0:
256,192,212726,1,0,0:0:0:0:
256,192,212817,1,8,0:0:0:0:
256,192,212908,1,0,0:0:0:0:
256,192,212999,1,0,0:0:0:0:
256,192,213090,1,8,0:0:0:0:
256,192,213271,1,0,0:0:0:0:
256,192,213453,1,8,0:0:0:0:
256,192,213544,1,0,0:0:0:0:
256,192,213635,1,0,0:0:0:0:
256,192,213817,1,8,0:0:0:0:
256,192,213999,1,8,0:0:0:0:
256,192,214180,1,0,0:0:0:0:
256,192,214362,1,8,0:0:0:0:
256,192,214453,1,8,0:0:0:0:
256,192,214544,1,0,0:0:0:0:
256,192,214726,1,8,0:0:0:0:
256,192,214907,1,0,0:0:0:0:
256,192,214998,1,8,0:0:0:0:
256,192,215089,1,0,0:0:0:0:
256,192,215271,1,0,0:0:0:0:
256,192,215453,1,8,0:0:0:0:
256,192,215635,1,0,0:0:0:0:
256,192,215726,1,0,0:0:0:0:
256,192,215816,1,0,0:0:0:0:
256,192,215998,1,8,0:0:0:0:
256,192,216089,1,0,0:0:0:0:
256,192,216180,1,8,0:0:0:0:
256,192,216271,1,8,0:0:0:0:
256,192,216362,1,0,0:0:0:0:
256,192,216544,1,8,0:0:0:0:
256,192,216907,1,8,0:0:0:0:
256,192,217089,1,0,0:0:0:0:
256,192,217180,1,0,0:0:0:0:
256,192,217271,1,8,0:0:0:0:
256,192,217453,1,0,0:0:0:0:
256,192,217634,1,8,0:0:0:0:
256,192,217816,1,8,0:0:0:0:
256,192,217907,1,8,0:0:0:0:
256,192,217998,1,0,0:0:0:0:
256,192,218180,1,0,0:0:0:0:
256,192,218362,1,8,0:0:0:0:
256,192,218543,1,0,0:0:0:0:
256,192,218634,1,8,0:0:0:0:
256,192,218725,1,0,0:0:0:0:
256,192,218816,1,0,0:0:0:0:
256,192,218907,1,8,0:0:0:0:
256,192,219089,1,0,0:0:0:0:
256,192,219270,1,8,0:0:0:0:
256,192,219361,1,8,0:0:0:0:
256,192,219452,1,0,0:0:0:0:
256,192,219634,1,0,0:0:0:0:
256,192,219816,1,8,0:0:0:0:
256,192,219998,1,0,0:0:0:0:
256,192,220179,1,8,0:0:0:0:
256,192,220270,1,8,0:0:0:0:
256,192,220361,1,8,0:0:0:0:
256,192,220543,1,0,0:0:0:0:
256,192,220725,1,0,0:0:0:0:
256,192,220816,1,8,0:0:0:0:
256,192,220907,1,0,0:0:0:0:
256,192,221088,1,0,0:0:0:0:
256,192,221270,1,8,0:0:0:0:
256,192,221452,1,0,0:0:0:0:
256,192,221543,1,0,0:0:0:0:
256,192,221634,1,8,0:0:0:0:
256,192,221816,5,8,0:0:0:0:
256,192,221906,1,0,0:0:0:0:
256,192,221997,1,8,0:0:0:0:
256,192,222088,1,8,0:0:0:0:
256,192,222179,1,0,0:0:0:0:
256,96,222361,5,12,0:0:0:0:
256,192,222543,12,0,228178,0:0:0:0:
