osu file format v14

[General]
AudioFilename: audio.mp3
AudioLeadIn: 0
PreviewTime: 35435
Countdown: 0
SampleSet: Normal
StackLeniency: 0.7
Mode: 1
LetterboxInBreaks: 0
WidescreenStoryboard: 1

[Editor]
Bookmarks: 1325,12961,36234,59506,82779,106052,129325,152597,164234,175870,187506,199143,210779
DistanceSpacing: 0.1
BeatDivisor: 4
GridSize: 32
TimelineZoom: 0.8999996

[Metadata]
Title:Super Sonic Racing
TitleUnicode:Super Sonic Racing
Artist:TJ Davis
ArtistUnicode:TJ Davis
Creator:Hivie
Version:Kantan
Source:Sonic R
Tags:sega sound team richard jacques sonic the hedgehog video game soundtrack ost original english electronic
BeatmapID:3276863
BeatmapSetID:1599585

[Difficulty]
HPDrainRate:8
CircleSize:2
OverallDifficulty:3
ApproachRate:9
SliderMultiplier:1.4
SliderTickRate:1

[Events]
//Background and Video events
0,0,"bg.jpg",0,-140
//Break Periods
2,117850,122867
//Storyboard Layer 0 (Background)
//Storyboard Layer 1 (Fail)
//Storyboard Layer 2 (Pass)
//Storyboard Layer 3 (Foreground)
//Storyboard Layer 4 (Overlay)
//Storyboard Sound Samples

[TimingPoints]
1304,363.581275564308,4,1,0,60,1,0
1304,-125,4,1,0,60,0,0
1576,-125,4,1,0,60,0,0
9984,-125,4,1,0,60,0,0
10166,-123.076923076923,4,1,0,60,0,0
10257,-122.137404580153,4,1,0,60,0,0
10347,-121.212121212121,4,1,0,60,0,0
10438,-120.300751879699,4,1,0,60,0,0
10529,-119.402985074627,4,1,0,60,0,0
10620,-118.518518518519,4,1,0,60,0,0
10711,-117.647058823529,4,1,0,60,0,0
10802,-116.788321167883,4,1,0,60,0,0
10893,-115.942028985507,4,1,0,60,0,0
10984,-115.107913669065,4,1,0,60,0,0
11075,-114.285714285714,4,1,0,60,0,0
11166,-113.475177304965,4,1,0,60,0,0
11257,-112.676056338028,4,1,0,60,0,0
11347,-111.888111888112,4,1,0,60,0,0
11438,-111.111111111111,4,1,0,60,0,0
11529,-110.344827586207,4,1,0,60,0,0
11620,-109.58904109589,4,1,0,60,0,0
11711,-108.843537414966,4,1,0,60,0,0
11802,-108.108108108108,4,1,0,60,0,0
11893,-107.38255033557,4,1,0,60,0,0
11984,-106.666666666667,4,1,0,60,0,0
12075,-105.960264900662,4,1,0,60,0,0
12166,-105.263157894737,4,1,0,60,0,0
12257,-104.575163398693,4,1,0,60,0,0
12347,-103.896103896104,4,1,0,60,0,0
12438,-103.225806451613,4,1,0,60,0,0
12529,-102.564102564103,4,1,0,60,0,0
12620,-101.910828025478,4,1,0,60,0,0
12711,-101.26582278481,4,1,0,60,0,0
12893,-100,4,1,0,80,0,0
35438,-100,4,1,0,80,0,0
35529,-100,4,1,0,80,0,0
35620,-100,4,1,0,80,0,0
35802,-100,4,1,0,80,0,0
35984,-100,4,1,0,80,0,0
36207,-100,4,1,0,90,0,1
59477,-100,4,1,0,90,0,0
59849,-100,4,1,0,90,0,0
60031,-100,4,1,0,90,0,0
60122,-100,4,1,0,90,0,0
60213,-100,4,1,0,90,0,0
60304,-100,4,1,0,90,0,0
60394,-100,4,1,0,90,0,0
60576,-100,4,1,0,90,0,0
60758,-100,4,1,0,90,0,0
60940,-100,4,1,0,90,0,0
82031,-100,4,1,0,90,0,0
82213,-100,4,1,0,90,0,0
82304,-100,4,1,0,90,0,0
82394,-100,4,1,0,90,0,0
82485,-100,4,1,0,90,0,0
82576,-100,4,1,0,90,0,0
82746,-100,4,1,0,90,0,1
106015,-100,4,1,0,90,0,0
106213,-100,4,1,0,80,0,0
128531,-100,4,1,0,90,0,0
128713,-100,4,1,0,90,0,0
128804,-100,4,1,0,90,0,0
128894,-100,4,1,0,90,0,0
128985,-100,4,1,0,90,0,0
129076,-100,4,1,0,90,0,0
129284,-100,4,1,0,90,0,1
152553,-100,4,1,0,90,0,0
152940,-100,4,1,0,90,0,0
153122,-100,4,1,0,90,0,0
153213,-100,4,1,0,90,0,0
153304,-100,4,1,0,90,0,0
153394,-100,4,1,0,90,0,0
153485,-100,4,1,0,90,0,0
153667,-100,4,1,0,90,0,0
153849,-100,4,1,0,90,0,0
154031,-99.948226818508,4,1,0,90,0,0
222440,-100,4,1,0,90,0,0
222758,-111.111111111111,4,1,0,90,0,0
223804,-125,4,1,0,80,0,0
225258,-142.857142857143,4,1,0,70,0,0
226713,-166.666666666666,4,1,0,60,0,0
228167,-200,4,1,0,50,0,0

[HitObjects]
256,192,1304,5,4,0:0:0:0:
256,192,1667,1,8,0:0:0:0:
256,192,2758,1,0,0:0:0:0:
256,192,3121,1,8,0:0:0:0:
256,192,3485,1,0,0:0:0:0:
256,192,4212,1,0,0:0:0:0:
256,192,4576,1,8,0:0:0:0:
256,192,5666,1,0,0:0:0:0:
256,192,6030,1,8,0:0:0:0:
256,192,6394,1,0,0:0:0:0:
256,192,7121,1,4,0:0:0:0:
256,192,7848,1,8,0:0:0:0:
256,192,8575,1,0,0:0:0:0:
256,192,9666,1,8,0:0:0:0:
256,192,10029,1,0,0:0:0:0:
256,192,10757,1,8,0:0:0:0:
256,192,11484,1,0,0:0:0:0:
256,192,11847,1,8,0:0:0:0:
256,192,12211,1,0,0:0:0:0:
256,192,12575,1,0,0:0:0:0:
256,96,12938,1,12,0:0:0:0:
256,192,14029,1,8,0:0:0:0:
256,192,14392,1,0,0:0:0:0:
256,192,15120,1,0,0:0:0:0:
256,192,15483,1,0,0:0:0:0:
256,192,15847,1,8,0:0:0:0:
256,192,16574,1,8,0:0:0:0:
256,192,17301,1,0,0:0:0:0:
256,192,17665,1,8,0:0:0:0:
256,192,18392,1,8,0:0:0:0:
256,192,18755,1,0,0:0:0:0:
256,192,19846,1,8,0:0:0:0:
256,192,20210,1,0,0:0:0:0:
256,192,20937,1,8,0:0:0:0:
256,192,21300,1,0,0:0:0:0:
256,192,21664,1,0,0:0:0:0:
256,192,22391,1,8,0:0:0:0:
256,192,23118,1,0,0:0:0:0:
256,192,23482,1,8,0:0:0:0:
256,192,24209,1,8,0:0:0:0:
256,192,24573,1,4,0:0:0:0:
256,192,25663,1,0,0:0:0:0:
256,192,26027,1,8,0:0:0:0:
256,192,26754,1,0,0:0:0:0:
256,192,27118,1,8,0:0:0:0:
256,192,27481,1,0,0:0:0:0:
256,192,28209,1,8,0:0:0:0:
256,192,28936,1,0,0:0:0:0:
256,192,29299,1,8,0:0:0:0:
256,192,30026,1,8,0:0:0:0:
256,192,30390,1,0,0:0:0:0:
256,192,31481,1,8,0:0:0:0:
256,192,31844,1,0,0:0:0:0:
256,192,32571,1,0,0:0:0:0:
256,192,32935,5,0,0:0:0:0:
256,192,33299,1,8,0:0:0:0:
256,192,34026,1,0,0:0:0:0:
256,192,34389,1,8,0:0:0:0:
256,192,34753,5,8,0:0:0:0:
256,192,35480,1,0,0:0:0:0:
256,192,35844,1,0,0:0:0:0:
256,96,36207,5,12,0:0:0:0:
256,192,36934,1,0,0:0:0:0:
256,192,37480,1,8,0:0:0:0:
256,192,37843,1,8,0:0:0:0:
256,192,39116,1,0,0:0:0:0:
256,192,39480,1,8,0:0:0:0:
256,192,39843,1,0,0:0:0:0:
256,192,40207,1,0,0:0:0:0:
256,192,40570,1,8,0:0:0:0:
256,192,41297,1,0,0:0:0:0:
256,192,41661,1,8,0:0:0:0:
256,192,42025,1,0,0:0:0:0:
256,192,42752,1,8,0:0:0:0:
256,192,43297,1,0,0:0:0:0:
256,192,43661,1,0,0:0:0:0:
256,192,44933,1,8,0:0:0:0:
256,192,45660,1,8,0:0:0:0:
256,192,46024,1,0,0:0:0:0:
256,192,46388,1,8,0:0:0:0:
256,192,47115,1,0,0:0:0:0:
256,192,47478,1,0,0:0:0:0:
256,96,47842,5,12,0:0:0:0:
256,192,48569,1,0,0:0:0:0:
256,192,49114,1,8,0:0:0:0:
256,192,49478,1,8,0:0:0:0:
256,192,50751,1,0,0:0:0:0:
256,192,51114,1,8,0:0:0:0:
256,192,51478,1,0,0:0:0:0:
256,192,51841,1,0,0:0:0:0:
256,192,52205,1,8,0:0:0:0:
256,192,52932,1,0,0:0:0:0:
256,192,53296,1,8,0:0:0:0:
256,192,53659,1,0,0:0:0:0:
256,192,54386,1,8,0:0:0:0:
256,192,54932,1,0,0:0:0:0:
256,192,55295,1,0,0:0:0:0:
256,192,56568,1,8,0:0:0:0:
256,192,57295,1,8,0:0:0:0:
256,192,57659,1,0,0:0:0:0:
256,192,58022,1,8,0:0:0:0:
256,192,58749,1,0,0:0:0:0:
256,192,59113,1,0,0:0:0:0:
256,96,59477,5,12,0:0:0:0:
256,192,60567,1,8,0:0:0:0:
256,192,60931,1,0,0:0:0:0:
256,192,61658,1,8,0:0:0:0:
256,192,62385,1,0,0:0:0:0:
256,192,62749,1,0,0:0:0:0:
256,192,63112,1,8,0:0:0:0:
256,192,63839,1,8,0:0:0:0:
256,192,64203,1,0,0:0:0:0:
256,192,64567,1,8,0:0:0:0:
256,192,64930,1,0,0:0:0:0:
256,192,65294,1,8,0:0:0:0:
256,192,66385,1,8,0:0:0:0:
256,192,66748,1,0,0:0:0:0:
256,192,67475,1,8,0:0:0:0:
256,192,68202,1,0,0:0:0:0:
256,192,68930,1,8,0:0:0:0:
256,192,69293,1,8,0:0:0:0:
256,192,69657,1,0,0:0:0:0:
256,192,70748,5,0,0:0:0:0:
256,96,71111,1,12,0:0:0:0:
256,192,71838,1,8,0:0:0:0:
256,192,72202,1,8,0:0:0:0:
256,192,72565,1,0,0:0:0:0:
256,192,73293,1,0,0:0:0:0:
256,192,73656,1,8,0:0:0:0:
256,192,74020,1,0,0:0:0:0:
256,192,74747,1,8,0:0:0:0:
256,192,75110,1,0,0:0:0:0:
256,192,75474,1,0,0:0:0:0:
256,192,76201,1,8,0:0:0:0:
256,192,76928,1,0,0:0:0:0:
256,192,78019,1,8,0:0:0:0:
256,192,78383,1,0,0:0:0:0:
256,192,79110,1,8,0:0:0:0:
256,192,79837,1,8,0:0:0:0:
256,192,80201,1,0,0:0:0:0:
256,192,80928,1,0,0:0:0:0:
256,192,81291,1,8,0:0:0:0:
256,192,82019,1,0,0:0:0:0:
256,192,82382,1,0,0:0:0:0:
256,96,82746,5,12,0:0:0:0:
256,192,83473,1,0,0:0:0:0:
256,192,84018,1,8,0:0:0:0:
256,192,84382,1,8,0:0:0:0:
256,192,85654,1,0,0:0:0:0:
256,192,86018,1,8,0:0:0:0:
256,192,86382,1,0,0:0:0:0:
256,192,86745,1,8,0:0:0:0:
256,192,87109,1,8,0:0:0:0:
256,192,87836,1,0,0:0:0:0:
256,192,88199,1,8,0:0:0:0:
256,192,88563,1,0,0:0:0:0:
256,192,89290,1,8,0:0:0:0:
256,192,89836,1,0,0:0:0:0:
256,192,90199,1,0,0:0:0:0:
256,192,91472,1,8,0:0:0:0:
256,192,92199,1,0,0:0:0:0:
256,192,92562,1,8,0:0:0:0:
256,192,92926,1,8,0:0:0:0:
256,192,93653,1,0,0:0:0:0:
256,192,94017,1,0,0:0:0:0:
256,96,94380,5,12,0:0:0:0:
256,192,95107,1,0,0:0:0:0:
256,192,95653,1,8,0:0:0:0:
256,192,96016,1,8,0:0:0:0:
256,192,97289,1,0,0:0:0:0:
256,192,97653,1,8,0:0:0:0:
256,192,98016,1,0,0:0:0:0:
256,192,98380,1,0,0:0:0:0:
256,192,98743,1,8,0:0:0:0:
256,192,99470,1,0,0:0:0:0:
256,192,99834,1,8,0:0:0:0:
256,192,100198,1,0,0:0:0:0:
256,192,100925,1,8,0:0:0:0:
256,192,101470,1,0,0:0:0:0:
256,192,101834,1,0,0:0:0:0:
256,192,103106,1,8,0:0:0:0:
256,192,103833,1,8,0:0:0:0:
256,192,104197,1,0,0:0:0:0:
256,192,104561,1,8,0:0:0:0:
256,192,105288,1,0,0:0:0:0:
256,192,105651,5,0,0:0:0:0:
256,96,106015,5,12,0:0:0:0:
256,192,107106,5,8,0:0:0:0:
256,192,107833,1,8,0:0:0:0:
256,192,108560,1,8,0:0:0:0:
256,192,108924,1,0,0:0:0:0:
256,192,110014,1,8,0:0:0:0:
256,192,110741,1,8,0:0:0:0:
256,192,111469,1,8,0:0:0:0:
256,192,111832,1,0,0:0:0:0:
256,192,112923,1,8,0:0:0:0:
256,192,113650,1,8,0:0:0:0:
256,192,114377,1,8,0:0:0:0:
256,192,114741,1,0,0:0:0:0:
256,192,115832,1,8,0:0:0:0:
256,192,116559,1,8,0:0:0:0:
256,192,116922,1,0,0:0:0:0:
256,192,117650,1,12,0:0:0:0:
256,96,123467,5,12,0:0:0:0:
256,192,124194,1,0,0:0:0:0:
256,192,124739,1,8,0:0:0:0:
256,192,125648,1,0,0:0:0:0:
256,192,126012,1,8,0:0:0:0:
256,192,126375,1,0,0:0:0:0:
256,192,127103,1,0,0:0:0:0:
256,192,127648,1,8,0:0:0:0:
256,192,128557,1,0,0:0:0:0:
256,192,128921,1,0,0:0:0:0:
256,96,129284,5,12,0:0:0:0:
256,192,130011,1,0,0:0:0:0:
256,192,130557,1,8,0:0:0:0:
256,192,130920,1,8,0:0:0:0:
256,192,132193,1,0,0:0:0:0:
256,192,132556,1,8,0:0:0:0:
256,192,132920,1,0,0:0:0:0:
256,192,133284,1,8,0:0:0:0:
256,192,133647,1,8,0:0:0:0:
256,192,134374,1,0,0:0:0:0:
256,192,134738,1,8,0:0:0:0:
256,192,135101,1,0,0:0:0:0:
256,192,135829,1,8,0:0:0:0:
256,192,136374,1,0,0:0:0:0:
256,192,136738,1,0,0:0:0:0:
256,192,138010,1,8,0:0:0:0:
256,192,138737,1,0,0:0:0:0:
256,192,139101,1,8,0:0:0:0:
256,192,139464,1,8,0:0:0:0:
256,192,140192,1,0,0:0:0:0:
256,192,140555,1,0,0:0:0:0:
256,96,140919,5,12,0:0:0:0:
256,192,141646,1,0,0:0:0:0:
256,192,142191,1,8,0:0:0:0:
256,192,142555,1,8,0:0:0:0:
256,192,143827,1,0,0:0:0:0:
256,192,144191,1,8,0:0:0:0:
256,192,144555,1,0,0:0:0:0:
256,192,144918,1,0,0:0:0:0:
256,192,145282,1,8,0:0:0:0:
256,192,146009,1,0,0:0:0:0:
256,192,146372,1,8,0:0:0:0:
256,192,146736,1,0,0:0:0:0:
256,192,147463,1,8,0:0:0:0:
256,192,148009,1,0,0:0:0:0:
256,192,148372,1,0,0:0:0:0:
256,192,149645,1,8,0:0:0:0:
256,192,150372,1,8,0:0:0:0:
256,192,150735,1,0,0:0:0:0:
256,192,151099,1,8,0:0:0:0:
256,192,151826,1,0,0:0:0:0:
256,192,152190,5,0,0:0:0:0:
256,96,152553,5,12,0:0:0:0:
256,192,153644,1,8,0:0:0:0:
256,192,154008,1,0,0:0:0:0:
256,192,154735,1,8,0:0:0:0:
256,192,155462,1,0,0:0:0:0:
256,192,155826,1,0,0:0:0:0:
256,192,156189,1,8,0:0:0:0:
256,192,156916,1,8,0:0:0:0:
256,192,157280,1,0,0:0:0:0:
256,192,157643,1,8,0:0:0:0:
256,192,158007,1,8,0:0:0:0:
256,192,158371,1,0,0:0:0:0:
256,192,159461,1,8,0:0:0:0:
256,192,159825,1,0,0:0:0:0:
256,192,160552,1,8,0:0:0:0:
256,192,160916,1,8,0:0:0:0:
256,192,161279,1,0,0:0:0:0:
256,192,162006,1,8,0:0:0:0:
256,192,162370,1,8,0:0:0:0:
256,192,162734,1,0,0:0:0:0:
256,192,163824,5,0,0:0:0:0:
256,96,164188,1,12,0:0:0:0:
256,192,164915,1,0,0:0:0:0:
256,192,165460,1,8,0:0:0:0:
256,192,165824,1,8,0:0:0:0:
256,192,167097,5,0,0:0:0:0:
256,192,167460,1,8,0:0:0:0:
256,192,167824,1,0,0:0:0:0:
256,192,168187,1,8,0:0:0:0:
256,192,168551,1,8,0:0:0:0:
256,192,169278,1,0,0:0:0:0:
256,192,169642,5,0,0:0:0:0:
256,192,170005,5,8,0:0:0:0:
256,192,171096,1,8,0:0:0:0:
256,192,171460,1,0,0:0:0:0:
256,192,172187,1,8,0:0:0:0:
256,192,172914,1,0,0:0:0:0:
256,192,173277,1,0,0:0:0:0:
256,192,173641,1,8,0:0:0:0:
256,192,174368,1,8,0:0:0:0:
256,192,174732,1,0,0:0:0:0:
256,192,175095,1,8,0:0:0:0:
256,96,175823,5,4,0:0:0:0:
256,192,176550,1,0,0:0:0:0:
256,192,177095,1,8,0:0:0:0:
256,192,177459,1,0,0:0:0:0:
256,192,178731,1,8,0:0:0:0:
256,192,179458,1,0,0:0:0:0:
256,192,179822,1,0,0:0:0:0:
256,192,180185,1,8,0:0:0:0:
256,192,180913,1,0,0:0:0:0:
256,192,181640,1,8,0:0:0:0:
256,192,182367,1,0,0:0:0:0:
256,192,182912,1,8,0:0:0:0:
256,192,183276,1,8,0:0:0:0:
256,192,184548,5,0,0:0:0:0:
256,192,185276,1,8,0:0:0:0:
256,192,185639,1,0,0:0:0:0:
256,192,186003,1,8,0:0:0:0:
256,192,186730,1,0,0:0:0:0:
256,96,187457,5,12,0:0:0:0:
256,192,188184,1,8,0:0:0:0:
256,192,188730,1,0,0:0:0:0:
256,192,189093,1,0,0:0:0:0:
256,192,190366,1,8,0:0:0:0:
256,192,191093,1,0,0:0:0:0:
256,192,191457,1,0,0:0:0:0:
256,192,191820,1,8,0:0:0:0:
256,192,192547,1,0,0:0:0:0:
256,192,193274,1,8,0:0:0:0:
256,192,194002,1,0,0:0:0:0:
256,192,194547,1,8,0:0:0:0:
256,192,194911,1,0,0:0:0:0:
256,192,196183,5,0,0:0:0:0:
256,192,196910,1,8,0:0:0:0:
256,192,197274,1,0,0:0:0:0:
256,192,197637,1,8,0:0:0:0:
256,192,198365,1,0,0:0:0:0:
256,96,199092,5,12,0:0:0:0:
256,192,200182,1,8,0:0:0:0:
256,192,200546,1,0,0:0:0:0:
256,192,201273,1,8,0:0:0:0:
256,192,202000,1,0,0:0:0:0:
256,192,202364,1,0,0:0:0:0:
256,192,202728,1,8,0:0:0:0:
256,192,203455,1,8,0:0:0:0:
256,192,203818,1,0,0:0:0:0:
256,192,204182,1,8,0:0:0:0:
256,192,204545,1,8,0:0:0:0:
256,192,204909,1,0,0:0:0:0:
256,192,205636,1,8,0:0:0:0:
256,192,206363,1,8,0:0:0:0:
256,192,207454,1,8,0:0:0:0:
256,192,207818,1,0,0:0:0:0:
256,192,208545,1,8,0:0:0:0:
256,192,208908,1,0,0:0:0:0:
256,192,209272,1,8,0:0:0:0:
256,192,209999,1,0,0:0:0:0:
256,192,210363,5,0,0:0:0:0:
256,96,210726,5,12,0:0:0:0:
256,192,211453,1,8,0:0:0:0:
256,192,211999,1,0,0:0:0:0:
256,192,212362,1,0,0:0:0:0:
256,192,213635,1,8,0:0:0:0:
256,192,214362,1,0,0:0:0:0:
256,192,214726,1,0,0:0:0:0:
256,192,215089,1,8,0:0:0:0:
256,192,215816,1,0,0:0:0:0:
256,192,216544,1,8,0:0:0:0:
256,192,217271,1,0,0:0:0:0:
256,192,217816,1,8,0:0:0:0:
256,192,218180,1,0,0:0:0:0:
256,192,219452,5,0,0:0:0:0:
256,192,220179,1,8,0:0:0:0:
256,192,220543,1,0,0:0:0:0:
256,192,220907,1,8,0:0:0:0:
256,192,221634,1,0,0:0:0:0:
256,192,221997,1,0,0:0:0:0:
256,96,222361,5,12,0:0:0:0:
256,192,222543,12,0,228178,0:0:0:0:
