osu file format v14

[General]
AudioFilename: audio.mp3
AudioLeadIn: 0
PreviewTime: 35435
Countdown: 0
SampleSet: Normal
StackLeniency: 0.7
Mode: 1
LetterboxInBreaks: 0
WidescreenStoryboard: 0

[Editor]
Bookmarks: 1325,12961,36234,59506,82779,106052,129325,152597,164234,187506,199143,210779
DistanceSpacing: 0.1
BeatDivisor: 16
GridSize: 32
TimelineZoom: 4.299998

[Metadata]
Title:Super Sonic Racing
TitleUnicode:Super Sonic Racing
Artist:TJ Davis
ArtistUnicode:TJ Davis
Creator:Hivie
Version:Come on now, race!
Source:Sonic R
Tags:sega sound team richard jacques sonic the hedgehog video game soundtrack ost original english electronic
BeatmapID:3266949
BeatmapSetID:1599585

[Difficulty]
HPDrainRate:6
CircleSize:2
OverallDifficulty:8
ApproachRate:9
SliderMultiplier:2.8
SliderTickRate:1

[Events]
//Background and Video events
0,0,"bg.jpg",0,-140
//Break Periods
2,117850,122503
//Storyboard Layer 0 (Background)
//Storyboard Layer 1 (Fail)
//Storyboard Layer 2 (Pass)
//Storyboard Layer 3 (Foreground)
//Storyboard Layer 4 (Overlay)
//Storyboard Sound Samples

[TimingPoints]
1304,363.581275564308,4,1,0,60,1,0
1304,-76.9230769230769,4,1,0,60,0,0
1395,-166.666666666667,4,1,0,60,0,0
9985,-166.666666666667,4,1,0,60,0,0
10167,-163.265306122449,4,1,0,60,0,0
10258,-161.616161616162,4,1,0,60,0,0
10348,-160,4,1,0,60,0,0
10439,-158.415841584158,4,1,0,60,0,0
10530,-156.862745098039,4,1,0,60,0,0
10621,-155.339805825243,4,1,0,60,0,0
10712,-153.846153846154,4,1,0,60,0,0
10803,-152.380952380952,4,1,0,60,0,0
10894,-150.943396226415,4,1,0,60,0,0
10985,-149.532710280374,4,1,0,60,0,0
11076,-148.148148148148,4,1,0,60,0,0
11167,-146.788990825688,4,1,0,60,0,0
11258,-145.454545454545,4,1,0,60,0,0
11348,-144.144144144144,4,1,0,60,0,0
11439,-142.857142857143,4,1,0,60,0,0
11530,-141.592920353982,4,1,0,60,0,0
11621,-140.350877192982,4,1,0,60,0,0
11712,-139.130434782609,4,1,0,60,0,0
11803,-137.931034482759,4,1,0,60,0,0
11894,-136.752136752137,4,1,0,60,0,0
11985,-135.593220338983,4,1,0,60,0,0
12076,-134.453781512605,4,1,0,60,0,0
12167,-133.333333333333,4,1,0,60,0,0
12258,-132.231404958678,4,1,0,60,0,0
12348,-131.147540983607,4,1,0,60,0,0
12439,-130.081300813008,4,1,0,60,0,0
12530,-129.032258064516,4,1,0,60,0,0
12621,-128,4,1,0,60,0,0
12712,-126.984126984127,4,1,0,60,0,0
12803,-125.984251968504,4,1,0,60,0,0
12894,-125,4,1,0,80,0,0
35258,-125,4,1,0,80,0,0
35348,-122.699386503067,4,1,0,80,0,0
35439,-120.481927710843,4,1,0,80,0,0
35530,-118.343195266272,4,1,0,80,0,0
35621,-116.279069767442,4,1,0,80,0,0
35712,-114.285714285714,4,1,0,80,0,0
35826,-112.359550561798,4,1,0,80,0,0
35871,-111.42061281337,4,1,0,80,0,0
35917,-110.497237569061,4,1,0,80,0,0
35962,-109.89010989011,4,1,0,80,0,0
36008,-108.695652173913,4,1,0,80,0,0
36076,-106.951871657754,4,1,0,80,0,0
36207,-105.263157894737,4,1,0,90,0,1
59477,-105.263157894737,4,1,0,90,0,0
59644,-107.371366418746,4,1,0,90,0,0
59735,-108.457399560314,4,1,0,90,0,0
59826,-109.565747117873,4,1,0,90,0,0
60008,-111.851693602419,4,1,0,90,0,0
60099,-113.030750015542,4,1,0,90,0,0
60190,-114.234928700269,4,1,0,90,0,0
60281,-115.465174548704,4,1,0,90,0,0
60371,-116.722070742913,4,1,0,90,0,0
60462,-118.006771228533,4,1,0,90,0,0
60553,-119.319924160256,4,1,0,90,0,0
60644,-120.662776498752,4,1,0,90,0,0
60735,-122.036049449007,4,1,0,90,0,0
60917,-124.878711551406,4,1,0,90,0,0
81917,-122.699386503067,4,1,0,80,0,0
82008,-120.481927710843,4,1,0,80,0,0
82099,-118.343195266272,4,1,0,80,0,0
82190,-116.279069767442,4,1,0,80,0,0
82281,-114.285714285714,4,1,0,80,0,0
82372,-112.359550561798,4,1,0,80,0,0
82417,-111.42061281337,4,1,0,80,0,0
82463,-110.497237569061,4,1,0,80,0,0
82508,-109.89010989011,4,1,0,80,0,0
82554,-108.695652173913,4,1,0,80,0,0
82645,-106.951871657754,4,1,0,80,0,0
82746,-105.263157894737,4,1,0,90,0,1
106015,-105.263157894737,4,1,0,90,0,0
106213,-166.666666666667,4,1,0,80,0,0
117258,-156.25,4,1,0,80,0,0
117440,-147.058823529412,4,1,0,80,0,0
117622,-125,4,1,0,80,0,0
117849,-250,4,1,0,80,0,0
123076,-243.90243902439,4,1,0,80,0,0
123258,-250,4,1,0,80,0,0
123440,-166.666666666667,4,1,0,80,0,0
127985,-153.846153846154,4,1,0,80,0,0
128167,-142.857142857143,4,1,0,80,0,0
128463,-121.975763415809,4,1,0,80,0,0
128554,-119.094547970688,4,1,0,80,0,0
128645,-116.346171745565,4,1,0,80,0,0
128736,-113.721784203817,4,1,0,80,0,0
128827,-111.2131800964,4,1,0,80,0,0
128918,-108.812980953376,4,1,0,80,0,0
128963,-107.65120149506,4,1,0,80,0,0
129009,-106.51408169417,4,1,0,80,0,0
129054,-105.263157894737,4,1,0,80,0,0
129100,-104.310310656967,4,1,0,80,0,0
129191,-102.195987376752,4,1,0,80,0,0
129284,-100.165573693315,4,1,0,90,0,1
152553,-100,4,1,0,90,0,0
152735,-100.62893081761,4,1,0,90,0,0
152826,-100.946372239748,4,1,0,90,0,0
152917,-101.26582278481,4,1,0,90,0,0
153008,-101.587301587302,4,1,0,90,0,0
153099,-101.910828025478,4,1,0,90,0,0
153144,-102.073313136427,4,1,0,90,0,0
153190,-102.23642172524,4,1,0,90,0,0
153235,-102.400052428827,4,1,0,90,0,0
153281,-102.564102564103,4,1,0,90,0,0
153371,-102.893890675241,4,1,0,90,0,0
153462,-103.225806451613,4,1,0,90,0,0
153508,-103.392515209039,4,1,0,90,0,0
153553,-103.559870550162,4,1,0,90,0,0
153644,-103.896103896104,4,1,0,90,0,0
153735,-104.234527687296,4,1,0,90,0,0
153826,-104.575163398693,4,1,0,90,0,0
153917,-104.918032786885,4,1,0,90,0,0
154008,-105.263157894737,4,1,0,90,0,0
154189,-105.960264900662,4,1,0,90,0,0
154281,-106.312292358804,4,1,0,90,0,0
154371,-106.666666666667,4,1,0,90,0,0
154462,-107.023411371237,4,1,0,90,0,0
154553,-107.38255033557,4,1,0,90,0,0
154599,-107.562967361093,4,1,0,90,0,0
154644,-107.744107744108,4,1,0,90,0,0
154690,-107.925742771943,4,1,0,90,0,0
154735,-108.108108108108,4,1,0,90,0,0
154826,-108.474576271186,4,1,0,90,0,0
154917,-108.843537414966,4,1,0,90,0,0
154962,-109.028901381178,4,1,0,90,0,0
155008,-109.215017064846,4,1,0,90,0,0
155099,-109.58904109589,4,1,0,90,0,0
155190,-109.965635738832,4,1,0,90,0,0
155281,-110.344827586207,4,1,0,90,0,0
155371,-110.726643598616,4,1,0,90,0,0
155462,-111.111111111111,4,1,0,90,0,0
222440,-50,4,1,0,90,0,0
222531,-111.111111111111,4,1,0,90,0,0
223804,-125,4,1,0,80,0,0
225258,-142.857142857143,4,1,0,70,0,0
226713,-166.666666666666,4,1,0,60,0,0
228167,-200,4,1,0,50,0,0

[HitObjects]
256,192,1304,5,4,0:0:0:0:
256,192,1667,1,8,0:0:0:0:
256,192,1940,1,0,0:0:0:0:
256,192,2031,1,0,0:0:0:0:
256,192,2212,1,0,0:0:0:0:
256,192,2394,1,8,0:0:0:0:
256,192,2576,1,8,0:0:0:0:
256,192,2667,1,8,0:0:0:0:
256,192,2758,1,0,0:0:0:0:
256,192,3121,1,8,0:0:0:0:
256,192,3303,1,8,0:0:0:0:
256,192,3485,1,0,0:0:0:0:
256,192,3667,1,0,0:0:0:0:
256,192,3849,1,8,0:0:0:0:
256,192,4030,1,0,0:0:0:0:
256,192,4121,1,8,0:0:0:0:
256,192,4212,1,0,0:0:0:0:
256,192,4576,1,8,0:0:0:0:
256,192,4848,1,0,0:0:0:0:
256,192,4939,1,0,0:0:0:0:
256,192,5121,1,0,0:0:0:0:
256,192,5303,1,8,0:0:0:0:
256,192,5485,1,0,0:0:0:0:
256,192,5576,1,8,0:0:0:0:
256,192,5666,1,0,0:0:0:0:
256,192,6030,1,8,0:0:0:0:
256,192,6212,1,8,0:0:0:0:
256,192,6394,1,0,0:0:0:0:
256,192,6575,1,0,0:0:0:0:
256,192,6757,1,8,0:0:0:0:
256,192,6939,1,8,0:0:0:0:
256,192,7030,1,8,0:0:0:0:
256,192,7121,1,4,0:0:0:0:
256,192,7484,1,8,0:0:0:0:
256,192,7666,1,0,0:0:0:0:
256,192,7757,1,0,0:0:0:0:
256,192,7848,1,8,0:0:0:0:
256,192,8030,1,0,0:0:0:0:
256,192,8212,1,8,0:0:0:0:
256,192,8393,1,0,0:0:0:0:
256,192,8484,1,8,0:0:0:0:
256,192,8575,1,0,0:0:0:0:
256,192,8757,1,0,0:0:0:0:
256,192,8939,1,8,0:0:0:0:
256,192,9120,1,0,0:0:0:0:
256,192,9211,1,8,0:0:0:0:
256,192,9302,1,0,0:0:0:0:
256,192,9484,1,0,0:0:0:0:
256,192,9666,1,8,0:0:0:0:
256,192,9757,1,8,0:0:0:0:
256,192,9939,1,8,0:0:0:0:
256,192,10029,1,0,0:0:0:0:
256,192,10211,1,8,0:0:0:0:
256,192,10302,1,0,0:0:0:0:
256,192,10393,1,8,0:0:0:0:
256,192,10484,1,8,0:0:0:0:
256,192,10575,1,0,0:0:0:0:
256,192,10666,1,8,0:0:0:0:
256,192,10757,1,0,0:0:0:0:
256,192,10848,1,0,0:0:0:0:
256,192,10938,1,8,0:0:0:0:
256,192,11029,1,0,0:0:0:0:
256,192,11120,1,8,0:0:0:0:
256,192,11211,1,0,0:0:0:0:
256,192,11302,1,8,0:0:0:0:
256,192,11393,1,8,0:0:0:0:
256,192,11484,1,0,0:0:0:0:
256,192,11575,1,0,0:0:0:0:
256,192,11666,1,8,0:0:0:0:
256,192,11756,1,0,0:0:0:0:
256,192,11847,1,8,0:0:0:0:
256,192,11938,1,8,0:0:0:0:
256,192,12029,1,0,0:0:0:0:
256,192,12120,1,8,0:0:0:0:
256,192,12211,1,0,0:0:0:0:
256,192,12302,1,0,0:0:0:0:
256,192,12393,1,8,0:0:0:0:
256,192,12484,1,0,0:0:0:0:
256,192,12575,1,8,0:0:0:0:
256,192,12665,1,8,0:0:0:0:
256,192,12756,1,8,0:0:0:0:
256,192,12847,1,8,0:0:0:0:
256,96,12938,1,4,0:0:0:0:
256,192,13120,1,0,0:0:0:0:
256,192,13211,1,0,0:0:0:0:
256,192,13302,1,8,0:0:0:0:
256,192,13483,1,0,0:0:0:0:
256,192,13574,1,8,0:0:0:0:
256,192,13756,1,8,0:0:0:0:
256,192,13847,1,0,0:0:0:0:
256,192,14029,1,8,0:0:0:0:
256,192,14211,1,8,0:0:0:0:
256,192,14392,1,0,0:0:0:0:
256,192,14574,1,0,0:0:0:0:
256,192,14665,1,0,0:0:0:0:
256,192,14756,1,8,0:0:0:0:
256,192,14938,1,0,0:0:0:0:
256,192,15029,1,8,0:0:0:0:
256,192,15210,1,8,0:0:0:0:
256,192,15301,1,0,0:0:0:0:
256,192,15392,1,0,0:0:0:0:
256,192,15483,1,8,0:0:0:0:
256,192,15574,1,0,0:0:0:0:
256,192,15665,1,8,0:0:0:0:
256,192,15847,1,0,0:0:0:0:
256,192,16029,1,0,0:0:0:0:
256,192,16119,1,8,0:0:0:0:
256,192,16210,1,0,0:0:0:0:
256,192,16392,1,0,0:0:0:0:
256,192,16483,1,8,0:0:0:0:
256,192,16665,1,8,0:0:0:0:
256,192,16756,1,0,0:0:0:0:
256,192,16937,1,8,0:0:0:0:
256,192,17119,1,8,0:0:0:0:
256,192,17301,1,0,0:0:0:0:
256,192,17483,1,0,0:0:0:0:
256,192,17574,1,0,0:0:0:0:
256,192,17665,1,8,0:0:0:0:
256,192,17846,1,0,0:0:0:0:
256,192,17937,1,8,0:0:0:0:
256,192,18028,1,0,0:0:0:0:
256,192,18119,1,0,0:0:0:0:
256,192,18210,1,8,0:0:0:0:
256,192,18301,1,0,0:0:0:0:
256,192,18392,1,8,0:0:0:0:
256,192,18483,1,8,0:0:0:0:
256,192,18574,1,0,0:0:0:0:
256,192,18755,1,8,0:0:0:0:
256,192,18937,1,0,0:0:0:0:
256,192,19028,1,0,0:0:0:0:
256,192,19119,1,8,0:0:0:0:
256,192,19301,1,0,0:0:0:0:
256,192,19392,1,8,0:0:0:0:
256,192,19573,1,8,0:0:0:0:
256,192,19664,1,0,0:0:0:0:
256,192,19755,1,0,0:0:0:0:
256,192,19846,1,8,0:0:0:0:
256,192,20028,1,8,0:0:0:0:
256,192,20210,1,0,0:0:0:0:
256,192,20392,1,0,0:0:0:0:
256,192,20482,1,8,0:0:0:0:
256,192,20573,1,0,0:0:0:0:
256,192,20755,1,0,0:0:0:0:
256,192,20846,1,8,0:0:0:0:
256,192,21028,1,8,0:0:0:0:
256,192,21119,1,0,0:0:0:0:
256,192,21210,1,0,0:0:0:0:
256,192,21300,1,8,0:0:0:0:
256,192,21482,1,8,0:0:0:0:
256,192,21573,1,0,0:0:0:0:
256,192,21664,1,0,0:0:0:0:
256,192,21846,1,8,0:0:0:0:
256,192,21937,1,0,0:0:0:0:
256,192,22028,1,8,0:0:0:0:
256,192,22209,1,0,0:0:0:0:
256,192,22300,1,8,0:0:0:0:
256,192,22482,1,8,0:0:0:0:
256,192,22573,1,0,0:0:0:0:
256,192,22755,1,8,0:0:0:0:
256,192,22937,1,8,0:0:0:0:
256,192,23118,1,0,0:0:0:0:
256,192,23300,1,8,0:0:0:0:
256,192,23391,1,0,0:0:0:0:
256,192,23482,1,8,0:0:0:0:
256,192,23664,1,0,0:0:0:0:
256,192,23755,1,8,0:0:0:0:
256,192,23846,1,0,0:0:0:0:
256,192,23936,1,0,0:0:0:0:
256,192,24027,1,8,0:0:0:0:
256,192,24209,1,0,0:0:0:0:
256,192,24300,1,0,0:0:0:0:
256,192,24391,1,0,0:0:0:0:
256,192,24573,5,12,0:0:0:0:
256,192,24754,1,0,0:0:0:0:
256,192,24845,1,8,0:0:0:0:
256,192,24936,1,0,0:0:0:0:
256,192,25118,1,8,0:0:0:0:
256,192,25209,1,8,0:0:0:0:
256,192,25391,1,0,0:0:0:0:
256,192,25482,1,0,0:0:0:0:
256,192,25663,1,8,0:0:0:0:
256,192,25845,1,8,0:0:0:0:
256,192,26027,1,0,0:0:0:0:
256,192,26209,1,0,0:0:0:0:
256,192,26300,1,0,0:0:0:0:
256,192,26391,1,8,0:0:0:0:
256,192,26572,1,0,0:0:0:0:
256,192,26663,1,8,0:0:0:0:
256,192,26845,1,8,0:0:0:0:
256,192,26936,1,0,0:0:0:0:
256,192,27118,1,8,0:0:0:0:
256,192,27209,1,0,0:0:0:0:
256,192,27300,1,8,0:0:0:0:
256,192,27390,1,8,0:0:0:0:
256,192,27481,1,0,0:0:0:0:
256,192,27663,1,0,0:0:0:0:
256,192,27754,1,8,0:0:0:0:
256,192,27845,1,0,0:0:0:0:
256,192,28027,1,0,0:0:0:0:
256,192,28118,1,0,0:0:0:0:
256,192,28299,1,8,0:0:0:0:
256,192,28390,1,8,0:0:0:0:
256,192,28572,1,0,0:0:0:0:
256,192,28754,1,8,0:0:0:0:
256,192,28936,1,0,0:0:0:0:
256,192,29117,1,0,0:0:0:0:
256,192,29208,1,0,0:0:0:0:
256,192,29299,1,8,0:0:0:0:
256,192,29481,1,0,0:0:0:0:
256,192,29572,1,8,0:0:0:0:
256,192,29663,1,0,0:0:0:0:
256,192,29754,1,0,0:0:0:0:
256,192,29845,1,8,0:0:0:0:
256,192,29936,1,0,0:0:0:0:
256,192,30026,1,8,0:0:0:0:
256,192,30117,1,8,0:0:0:0:
256,192,30208,1,0,0:0:0:0:
256,192,30390,1,8,0:0:0:0:
256,192,30572,1,0,0:0:0:0:
256,192,30663,1,0,0:0:0:0:
256,192,30754,1,8,0:0:0:0:
256,192,30935,1,0,0:0:0:0:
256,192,31026,1,8,0:0:0:0:
256,192,31208,1,8,0:0:0:0:
256,192,31299,1,0,0:0:0:0:
256,192,31390,1,0,0:0:0:0:
256,192,31481,1,8,0:0:0:0:
256,192,31663,1,8,0:0:0:0:
256,192,31844,1,0,0:0:0:0:
256,192,32026,1,0,0:0:0:0:
256,192,32117,1,8,0:0:0:0:
256,192,32208,1,0,0:0:0:0:
256,192,32390,1,0,0:0:0:0:
256,192,32481,1,8,0:0:0:0:
256,192,32662,1,8,0:0:0:0:
256,192,32753,1,8,0:0:0:0:
256,192,32844,1,0,0:0:0:0:
256,192,32935,5,8,0:0:0:0:
256,192,33117,1,8,0:0:0:0:
256,192,33208,1,0,0:0:0:0:
256,192,33299,1,0,0:0:0:0:
256,192,33480,5,8,0:0:0:0:
256,192,33571,1,0,0:0:0:0:
256,192,33662,1,8,0:0:0:0:
256,192,33844,1,0,0:0:0:0:
256,192,33935,1,8,0:0:0:0:
256,192,34117,1,8,0:0:0:0:
256,192,34208,1,0,0:0:0:0:
256,192,34389,1,8,0:0:0:0:
256,192,34571,1,0,0:0:0:0:
256,192,34753,5,8,0:0:0:0:
256,192,34935,1,0,0:0:0:0:
256,192,35026,1,0,0:0:0:0:
256,192,35117,1,8,0:0:0:0:
256,192,35298,1,0,0:0:0:0:
256,192,35389,1,8,0:0:0:0:
256,192,35480,1,0,0:0:0:0:
256,192,35571,1,0,0:0:0:0:
256,192,35662,1,8,0:0:0:0:
256,192,35753,1,0,0:0:0:0:
256,192,35844,1,8,0:0:0:0:
256,192,35889,1,8,0:0:0:0:
256,192,35935,1,0,0:0:0:0:
256,192,35980,1,0,0:0:0:0:
256,192,36026,1,8,0:0:0:0:
256,192,36116,1,0,0:0:0:0:
256,96,36207,5,12,0:0:0:0:
256,192,36298,1,0,0:0:0:0:
256,192,36344,1,0,0:0:0:0:
256,192,36389,1,8,0:0:0:0:
256,192,36480,1,0,0:0:0:0:
256,192,36571,1,8,0:0:0:0:
256,192,36616,1,8,0:0:0:0:
256,192,36662,1,0,0:0:0:0:
256,192,36753,1,8,0:0:0:0:
256,192,36844,1,0,0:0:0:0:
256,192,36934,1,8,0:0:0:0:
256,192,36980,1,8,0:0:0:0:
256,192,37025,1,0,0:0:0:0:
256,192,37071,1,0,0:0:0:0:
256,192,37116,1,8,0:0:0:0:
256,192,37207,1,0,0:0:0:0:
256,192,37298,1,8,0:0:0:0:
256,192,37343,1,8,0:0:0:0:
256,192,37389,1,0,0:0:0:0:
256,192,37480,1,8,0:0:0:0:
256,192,37525,1,8,0:0:0:0:
256,192,37571,1,8,0:0:0:0:
256,192,37662,1,0,0:0:0:0:
256,192,37753,1,0,0:0:0:0:
256,192,37843,1,8,0:0:0:0:
256,192,37889,1,8,0:0:0:0:
256,192,37934,1,0,0:0:0:0:
256,192,38025,1,8,0:0:0:0:
256,192,38116,1,0,0:0:0:0:
256,192,38207,1,8,0:0:0:0:
256,192,38298,1,0,0:0:0:0:
256,192,38389,1,8,0:0:0:0:
256,192,38434,1,0,0:0:0:0:
256,192,38480,1,0,0:0:0:0:
256,192,38525,1,0,0:0:0:0:
256,192,38571,1,8,0:0:0:0:
256,192,38661,1,0,0:0:0:0:
256,192,38752,1,8,0:0:0:0:
256,192,38798,1,0,0:0:0:0:
256,192,38843,1,0,0:0:0:0:
256,192,38934,1,8,0:0:0:0:
256,192,39025,1,0,0:0:0:0:
256,192,39116,1,8,0:0:0:0:
256,192,39161,1,8,0:0:0:0:
256,192,39207,1,0,0:0:0:0:
256,192,39252,1,0,0:0:0:0:
256,192,39298,1,8,0:0:0:0:
256,192,39389,1,0,0:0:0:0:
256,192,39480,1,8,0:0:0:0:
256,192,39525,1,8,0:0:0:0:
256,192,39570,1,8,0:0:0:0:
256,192,39661,1,0,0:0:0:0:
256,192,39752,1,8,0:0:0:0:
256,192,39843,1,0,0:0:0:0:
256,192,39889,1,0,0:0:0:0:
256,192,39934,1,0,0:0:0:0:
256,192,40025,1,8,0:0:0:0:
256,192,40116,1,8,0:0:0:0:
256,192,40207,1,0,0:0:0:0:
256,192,40298,1,0,0:0:0:0:
256,192,40388,1,8,0:0:0:0:
256,192,40434,1,8,0:0:0:0:
256,192,40479,1,8,0:0:0:0:
256,192,40525,1,8,0:0:0:0:
256,192,40570,1,0,0:0:0:0:
256,192,40661,1,0,0:0:0:0:
256,192,40752,1,8,0:0:0:0:
256,192,40843,1,0,0:0:0:0:
256,192,40934,1,8,0:0:0:0:
256,192,40979,1,8,0:0:0:0:
256,192,41025,1,0,0:0:0:0:
256,192,41116,1,8,0:0:0:0:
256,192,41207,1,0,0:0:0:0:
256,192,41252,1,0,0:0:0:0:
256,192,41297,1,8,0:0:0:0:
256,192,41388,1,0,0:0:0:0:
256,192,41479,1,8,0:0:0:0:
256,192,41525,1,8,0:0:0:0:
256,192,41570,1,0,0:0:0:0:
256,192,41616,1,0,0:0:0:0:
256,192,41661,1,8,0:0:0:0:
256,192,41752,1,0,0:0:0:0:
256,192,41843,1,8,0:0:0:0:
256,192,41934,1,8,0:0:0:0:
256,192,42025,1,0,0:0:0:0:
256,192,42070,1,0,0:0:0:0:
256,192,42115,1,0,0:0:0:0:
256,192,42206,1,8,0:0:0:0:
256,192,42297,1,0,0:0:0:0:
256,192,42388,1,8,0:0:0:0:
256,192,42434,1,8,0:0:0:0:
256,192,42479,1,0,0:0:0:0:
256,192,42570,1,8,0:0:0:0:
256,192,42661,1,0,0:0:0:0:
256,192,42752,1,8,0:0:0:0:
256,192,42797,1,8,0:0:0:0:
256,192,42843,1,0,0:0:0:0:
256,192,42888,1,0,0:0:0:0:
256,192,42934,1,8,0:0:0:0:
256,192,43024,1,0,0:0:0:0:
256,192,43115,1,8,0:0:0:0:
256,192,43161,1,8,0:0:0:0:
256,192,43206,1,0,0:0:0:0:
256,192,43297,1,8,0:0:0:0:
256,192,43343,1,8,0:0:0:0:
256,192,43388,1,8,0:0:0:0:
256,192,43479,1,0,0:0:0:0:
256,192,43570,1,0,0:0:0:0:
256,192,43661,1,8,0:0:0:0:
256,192,43706,1,8,0:0:0:0:
256,192,43752,1,0,0:0:0:0:
256,192,43843,1,8,0:0:0:0:
256,192,43933,1,0,0:0:0:0:
256,192,44024,1,8,0:0:0:0:
256,192,44115,1,8,0:0:0:0:
256,192,44206,1,0,0:0:0:0:
256,192,44297,1,0,0:0:0:0:
256,192,44388,1,8,0:0:0:0:
256,192,44433,1,8,0:0:0:0:
256,192,44479,1,0,0:0:0:0:
256,192,44570,1,8,0:0:0:0:
256,192,44615,1,8,0:0:0:0:
256,192,44661,1,0,0:0:0:0:
256,192,44751,1,8,0:0:0:0:
256,192,44842,1,0,0:0:0:0:
256,192,44933,1,8,0:0:0:0:
256,192,44979,1,8,0:0:0:0:
256,192,45024,1,8,0:0:0:0:
256,192,45070,1,8,0:0:0:0:
256,192,45115,1,0,0:0:0:0:
256,192,45206,1,8,0:0:0:0:
256,192,45297,1,0,0:0:0:0:
256,192,45388,1,8,0:0:0:0:
256,192,45479,1,0,0:0:0:0:
256,192,45524,1,0,0:0:0:0:
256,192,45570,1,0,0:0:0:0:
256,192,45660,1,8,0:0:0:0:
256,192,45751,1,0,0:0:0:0:
256,192,45842,1,8,0:0:0:0:
256,192,45888,1,8,0:0:0:0:
256,192,45933,1,0,0:0:0:0:
256,192,46024,1,8,0:0:0:0:
256,192,46115,1,0,0:0:0:0:
256,192,46206,1,8,0:0:0:0:
256,192,46251,1,8,0:0:0:0:
256,192,46297,1,8,0:0:0:0:
256,192,46342,1,8,0:0:0:0:
256,192,46388,1,0,0:0:0:0:
288,192,46478,1,8,0:0:0:0:
288,192,46569,1,0,0:0:0:0:
288,192,46660,1,0,0:0:0:0:
288,192,46751,1,8,0:0:0:0:
288,192,46797,1,0,0:0:0:0:
288,192,46842,1,0,0:0:0:0:
256,192,46933,1,8,0:0:0:0:
256,192,47024,1,8,0:0:0:0:
256,192,47115,1,0,0:0:0:0:
256,192,47206,1,8,0:0:0:0:
256,192,47297,1,0,0:0:0:0:
256,192,47342,1,0,0:0:0:0:
256,192,47387,1,0,0:0:0:0:
256,192,47478,1,8,0:0:0:0:
256,192,47569,1,8,0:0:0:0:
256,192,47660,1,0,0:0:0:0:
256,96,47842,5,12,0:0:0:0:
256,192,47933,1,0,0:0:0:0:
256,192,47978,1,0,0:0:0:0:
256,192,48024,1,8,0:0:0:0:
256,192,48115,1,0,0:0:0:0:
256,192,48205,1,8,0:0:0:0:
256,192,48251,1,8,0:0:0:0:
256,192,48296,1,0,0:0:0:0:
256,192,48387,1,8,0:0:0:0:
256,192,48478,1,0,0:0:0:0:
256,192,48569,1,8,0:0:0:0:
256,192,48615,1,8,0:0:0:0:
256,192,48660,1,0,0:0:0:0:
256,192,48705,1,0,0:0:0:0:
256,192,48751,1,8,0:0:0:0:
256,192,48842,1,0,0:0:0:0:
256,192,48933,1,8,0:0:0:0:
256,192,48978,1,8,0:0:0:0:
256,192,49024,1,0,0:0:0:0:
256,192,49114,1,8,0:0:0:0:
256,192,49160,1,8,0:0:0:0:
256,192,49205,1,8,0:0:0:0:
256,192,49296,1,0,0:0:0:0:
256,192,49387,1,0,0:0:0:0:
256,192,49478,1,8,0:0:0:0:
256,192,49523,1,0,0:0:0:0:
256,192,49569,1,0,0:0:0:0:
256,192,49660,1,8,0:0:0:0:
256,192,49751,1,0,0:0:0:0:
256,192,49842,1,8,0:0:0:0:
256,192,49932,1,0,0:0:0:0:
256,192,50023,1,8,0:0:0:0:
256,192,50069,1,0,0:0:0:0:
256,192,50114,1,0,0:0:0:0:
256,192,50160,1,0,0:0:0:0:
256,192,50205,1,8,0:0:0:0:
256,192,50296,1,0,0:0:0:0:
256,192,50387,1,8,0:0:0:0:
256,192,50432,1,8,0:0:0:0:
256,192,50478,1,0,0:0:0:0:
256,192,50569,1,8,0:0:0:0:
256,192,50660,1,0,0:0:0:0:
256,192,50751,1,8,0:0:0:0:
256,192,50796,1,8,0:0:0:0:
256,192,50841,1,0,0:0:0:0:
256,192,50887,1,0,0:0:0:0:
256,192,50932,1,8,0:0:0:0:
256,192,51023,1,0,0:0:0:0:
256,192,51114,1,8,0:0:0:0:
256,192,51160,1,8,0:0:0:0:
256,192,51205,1,8,0:0:0:0:
256,192,51296,1,0,0:0:0:0:
256,192,51387,1,8,0:0:0:0:
256,192,51478,1,0,0:0:0:0:
256,192,51523,1,0,0:0:0:0:
256,192,51569,1,0,0:0:0:0:
256,192,51660,1,8,0:0:0:0:
256,192,51750,1,8,0:0:0:0:
256,192,51841,1,0,0:0:0:0:
256,192,51932,1,0,0:0:0:0:
256,192,52023,1,8,0:0:0:0:
256,192,52069,1,8,0:0:0:0:
256,192,52114,1,8,0:0:0:0:
256,192,52159,1,8,0:0:0:0:
256,192,52205,1,0,0:0:0:0:
256,192,52296,1,0,0:0:0:0:
256,192,52387,1,8,0:0:0:0:
256,192,52478,1,0,0:0:0:0:
256,192,52568,1,8,0:0:0:0:
256,192,52614,1,8,0:0:0:0:
256,192,52659,1,0,0:0:0:0:
256,192,52750,1,8,0:0:0:0:
256,192,52841,1,0,0:0:0:0:
256,192,52887,1,0,0:0:0:0:
256,192,52932,1,8,0:0:0:0:
256,192,53023,1,0,0:0:0:0:
256,192,53114,1,8,0:0:0:0:
256,192,53205,1,0,0:0:0:0:
256,192,53250,1,0,0:0:0:0:
256,192,53296,1,8,0:0:0:0:
256,192,53341,1,8,0:0:0:0:
256,192,53387,1,0,0:0:0:0:
256,192,53477,1,8,0:0:0:0:
256,192,53568,1,8,0:0:0:0:
256,192,53659,1,0,0:0:0:0:
256,192,53705,1,0,0:0:0:0:
256,192,53750,1,0,0:0:0:0:
256,192,53841,1,8,0:0:0:0:
256,192,53932,1,0,0:0:0:0:
256,192,54023,1,8,0:0:0:0:
256,192,54068,1,8,0:0:0:0:
256,192,54114,1,0,0:0:0:0:
256,192,54205,1,8,0:0:0:0:
256,192,54295,1,0,0:0:0:0:
256,192,54386,1,8,0:0:0:0:
256,192,54432,1,8,0:0:0:0:
256,192,54477,1,0,0:0:0:0:
256,192,54523,1,0,0:0:0:0:
256,192,54568,1,8,0:0:0:0:
256,192,54659,1,0,0:0:0:0:
256,192,54750,1,8,0:0:0:0:
256,192,54795,1,8,0:0:0:0:
256,192,54841,1,0,0:0:0:0:
256,192,54932,1,8,0:0:0:0:
256,192,54977,1,8,0:0:0:0:
256,192,55023,1,8,0:0:0:0:
256,192,55114,1,0,0:0:0:0:
256,192,55204,1,0,0:0:0:0:
256,192,55295,1,8,0:0:0:0:
256,192,55341,1,8,0:0:0:0:
256,192,55386,1,0,0:0:0:0:
256,192,55477,1,8,0:0:0:0:
256,192,55568,1,0,0:0:0:0:
256,192,55659,1,8,0:0:0:0:
256,192,55750,1,8,0:0:0:0:
256,192,55841,1,0,0:0:0:0:
256,192,55932,1,0,0:0:0:0:
256,192,56022,1,8,0:0:0:0:
256,192,56068,1,8,0:0:0:0:
256,192,56113,1,0,0:0:0:0:
256,192,56204,1,8,0:0:0:0:
256,192,56250,1,8,0:0:0:0:
256,192,56295,1,0,0:0:0:0:
256,192,56386,1,8,0:0:0:0:
256,192,56477,1,0,0:0:0:0:
256,192,56568,1,8,0:0:0:0:
256,192,56613,1,8,0:0:0:0:
256,192,56659,1,8,0:0:0:0:
256,192,56704,1,8,0:0:0:0:
256,192,56750,1,0,0:0:0:0:
256,192,56841,1,8,0:0:0:0:
256,192,56931,1,0,0:0:0:0:
256,192,57022,1,8,0:0:0:0:
256,192,57113,1,0,0:0:0:0:
256,192,57159,1,0,0:0:0:0:
256,192,57204,1,0,0:0:0:0:
256,192,57295,1,8,0:0:0:0:
256,192,57386,1,0,0:0:0:0:
256,192,57477,1,8,0:0:0:0:
256,192,57522,1,8,0:0:0:0:
256,192,57568,1,0,0:0:0:0:
256,192,57659,1,8,0:0:0:0:
256,192,57749,1,0,0:0:0:0:
256,192,57840,1,8,0:0:0:0:
256,192,57886,1,8,0:0:0:0:
256,192,57931,1,8,0:0:0:0:
256,192,57977,1,8,0:0:0:0:
256,192,58022,1,0,0:0:0:0:
288,192,58113,1,8,0:0:0:0:
288,192,58204,1,0,0:0:0:0:
288,192,58295,1,0,0:0:0:0:
288,192,58386,1,8,0:0:0:0:
288,192,58431,1,0,0:0:0:0:
288,192,58477,1,0,0:0:0:0:
256,192,58568,1,8,0:0:0:0:
256,192,58658,1,8,0:0:0:0:
256,192,58749,1,0,0:0:0:0:
256,192,58795,1,0,0:0:0:0:
256,192,58840,1,8,0:0:0:0:
256,192,58931,5,0,0:0:0:0:
256,192,59022,1,0,0:0:0:0:
256,192,59113,1,8,0:0:0:0:
256,192,59204,1,8,0:0:0:0:
256,192,59295,1,0,0:0:0:0:
256,192,59477,1,12,0:0:0:0:
256,192,59658,1,0,0:0:0:0:
256,192,59749,1,0,0:0:0:0:
256,192,59840,1,8,0:0:0:0:
256,192,60022,1,0,0:0:0:0:
256,192,60113,1,8,0:0:0:0:
256,192,60204,1,0,0:0:0:0:
256,192,60295,1,0,0:0:0:0:
256,192,60385,1,8,0:0:0:0:
256,192,60476,1,0,0:0:0:0:
256,192,60567,1,8,0:0:0:0:
256,192,60658,1,8,0:0:0:0:
256,192,60749,1,0,0:0:0:0:
256,192,60931,1,8,0:0:0:0:
256,192,61113,1,0,0:0:0:0:
256,192,61204,1,0,0:0:0:0:
256,192,61294,1,8,0:0:0:0:
256,192,61476,1,0,0:0:0:0:
256,192,61658,1,8,0:0:0:0:
256,192,61749,1,8,0:0:0:0:
256,192,61840,1,0,0:0:0:0:
256,192,61931,1,0,0:0:0:0:
256,192,62022,1,8,0:0:0:0:
256,192,62112,1,0,0:0:0:0:
256,192,62203,1,8,0:0:0:0:
256,192,62294,1,8,0:0:0:0:
256,192,62385,1,0,0:0:0:0:
256,192,62567,1,0,0:0:0:0:
256,192,62658,1,0,0:0:0:0:
256,192,62749,1,8,0:0:0:0:
256,192,62840,1,8,0:0:0:0:
256,192,62931,1,0,0:0:0:0:
256,192,63112,1,0,0:0:0:0:
256,192,63203,1,0,0:0:0:0:
256,192,63294,1,8,0:0:0:0:
256,192,63385,1,0,0:0:0:0:
256,192,63476,1,8,0:0:0:0:
256,192,63567,1,8,0:0:0:0:
256,192,63658,1,0,0:0:0:0:
256,192,63839,1,8,0:0:0:0:
256,192,64021,1,0,0:0:0:0:
256,192,64112,1,0,0:0:0:0:
256,192,64203,1,8,0:0:0:0:
256,192,64294,1,0,0:0:0:0:
256,192,64476,1,0,0:0:0:0:
256,192,64567,1,8,0:0:0:0:
256,192,64658,1,8,0:0:0:0:
256,192,64748,1,0,0:0:0:0:
256,192,64930,1,8,0:0:0:0:
256,192,65112,1,8,0:0:0:0:
256,192,65203,1,8,0:0:0:0:
256,192,65294,1,0,0:0:0:0:
256,192,65476,1,0,0:0:0:0:
256,192,65566,1,0,0:0:0:0:
256,192,65657,1,8,0:0:0:0:
256,192,65839,1,0,0:0:0:0:
256,192,65930,1,8,0:0:0:0:
256,192,66021,1,0,0:0:0:0:
256,192,66112,1,0,0:0:0:0:
256,192,66203,1,8,0:0:0:0:
256,192,66294,1,0,0:0:0:0:
256,192,66385,1,8,0:0:0:0:
256,192,66475,1,8,0:0:0:0:
256,192,66566,1,0,0:0:0:0:
256,192,66748,1,8,0:0:0:0:
256,192,66930,1,0,0:0:0:0:
256,192,67021,1,0,0:0:0:0:
256,192,67112,1,8,0:0:0:0:
256,192,67294,1,0,0:0:0:0:
256,192,67475,1,8,0:0:0:0:
256,192,67566,1,8,0:0:0:0:
256,192,67657,1,0,0:0:0:0:
256,192,67748,1,0,0:0:0:0:
256,192,67839,1,8,0:0:0:0:
256,192,67930,1,0,0:0:0:0:
256,192,68021,1,8,0:0:0:0:
256,192,68112,1,8,0:0:0:0:
256,192,68202,1,0,0:0:0:0:
256,192,68384,1,0,0:0:0:0:
256,192,68475,1,0,0:0:0:0:
256,192,68566,1,8,0:0:0:0:
256,192,68657,1,0,0:0:0:0:
256,192,68748,1,0,0:0:0:0:
256,192,68930,1,8,0:0:0:0:
256,192,69021,1,0,0:0:0:0:
256,192,69111,1,8,0:0:0:0:
256,192,69202,1,0,0:0:0:0:
256,192,69293,1,8,0:0:0:0:
256,192,69384,1,8,0:0:0:0:
256,192,69475,1,0,0:0:0:0:
256,192,69657,1,8,0:0:0:0:
256,192,69839,1,0,0:0:0:0:
256,192,69929,1,0,0:0:0:0:
256,192,70020,1,8,0:0:0:0:
256,192,70111,1,0,0:0:0:0:
256,192,70293,1,0,0:0:0:0:
256,192,70384,1,8,0:0:0:0:
256,192,70566,1,0,0:0:0:0:
256,192,70748,5,8,0:0:0:0:
256,192,70838,1,0,0:0:0:0:
256,192,70929,1,8,0:0:0:0:
256,192,71020,1,8,0:0:0:0:
256,96,71111,1,4,0:0:0:0:
256,192,71293,5,0,0:0:0:0:
256,192,71475,1,8,0:0:0:0:
256,192,71566,1,0,0:0:0:0:
256,192,71656,1,8,0:0:0:0:
256,192,71747,1,8,0:0:0:0:
256,192,71838,1,0,0:0:0:0:
256,192,71929,1,0,0:0:0:0:
256,192,72020,1,8,0:0:0:0:
256,192,72111,1,0,0:0:0:0:
256,192,72202,1,8,0:0:0:0:
256,192,72293,1,8,0:0:0:0:
256,192,72384,1,0,0:0:0:0:
256,192,72475,1,8,0:0:0:0:
256,192,72565,1,0,0:0:0:0:
256,192,72747,1,8,0:0:0:0:
256,192,72929,1,0,0:0:0:0:
256,192,73020,1,8,0:0:0:0:
256,192,73111,1,0,0:0:0:0:
256,192,73202,1,0,0:0:0:0:
256,192,73293,1,8,0:0:0:0:
256,192,73383,1,8,0:0:0:0:
256,192,73474,1,0,0:0:0:0:
256,192,73565,1,0,0:0:0:0:
256,192,73656,1,8,0:0:0:0:
256,192,73747,1,0,0:0:0:0:
256,192,73838,1,8,0:0:0:0:
256,192,73929,1,8,0:0:0:0:
256,192,74020,1,0,0:0:0:0:
256,192,74202,1,0,0:0:0:0:
256,192,74292,1,0,0:0:0:0:
256,192,74383,1,8,0:0:0:0:
256,192,74565,1,8,0:0:0:0:
256,192,74656,1,8,0:0:0:0:
256,192,74747,1,0,0:0:0:0:
256,192,74838,1,8,0:0:0:0:
256,192,74929,1,0,0:0:0:0:
256,192,75020,1,0,0:0:0:0:
256,192,75110,1,8,0:0:0:0:
256,192,75201,1,0,0:0:0:0:
256,192,75292,1,8,0:0:0:0:
256,192,75383,1,8,0:0:0:0:
256,192,75474,1,0,0:0:0:0:
256,192,75656,1,8,0:0:0:0:
256,192,75747,1,8,0:0:0:0:
256,192,75838,1,0,0:0:0:0:
256,192,75929,1,8,0:0:0:0:
256,192,76019,1,8,0:0:0:0:
256,192,76201,1,0,0:0:0:0:
256,192,76292,1,8,0:0:0:0:
256,192,76383,1,0,0:0:0:0:
256,192,76474,1,0,0:0:0:0:
256,192,76565,1,8,0:0:0:0:
256,192,76747,1,0,0:0:0:0:
256,192,76928,1,8,0:0:0:0:
256,192,77110,1,0,0:0:0:0:
256,192,77292,1,8,0:0:0:0:
256,192,77383,1,8,0:0:0:0:
256,192,77474,1,0,0:0:0:0:
256,192,77565,1,0,0:0:0:0:
256,192,77656,1,8,0:0:0:0:
256,192,77746,1,0,0:0:0:0:
256,192,77837,1,8,0:0:0:0:
256,192,77928,1,0,0:0:0:0:
256,192,78019,1,8,0:0:0:0:
256,192,78110,1,0,0:0:0:0:
256,192,78201,1,8,0:0:0:0:
256,192,78292,1,8,0:0:0:0:
256,192,78383,1,0,0:0:0:0:
256,192,78565,1,8,0:0:0:0:
256,192,78746,1,0,0:0:0:0:
256,192,78837,1,8,0:0:0:0:
256,192,78928,1,0,0:0:0:0:
256,192,79019,1,0,0:0:0:0:
256,192,79110,1,8,0:0:0:0:
256,192,79201,1,8,0:0:0:0:
256,192,79292,1,8,0:0:0:0:
256,192,79383,1,0,0:0:0:0:
256,192,79473,1,8,0:0:0:0:
256,192,79564,1,8,0:0:0:0:
256,192,79655,1,0,0:0:0:0:
256,192,79837,1,8,0:0:0:0:
256,192,79928,1,0,0:0:0:0:
256,192,80019,1,8,0:0:0:0:
256,192,80110,1,0,0:0:0:0:
256,192,80201,1,8,0:0:0:0:
256,192,80292,1,0,0:0:0:0:
256,192,80382,1,8,0:0:0:0:
256,192,80473,1,8,0:0:0:0:
256,192,80564,1,8,0:0:0:0:
256,192,80655,1,0,0:0:0:0:
256,192,80746,1,8,0:0:0:0:
256,192,80837,1,0,0:0:0:0:
256,192,80928,1,8,0:0:0:0:
256,192,81019,1,8,0:0:0:0:
256,192,81110,1,0,0:0:0:0:
256,192,81291,1,8,0:0:0:0:
256,192,81473,1,0,0:0:0:0:
256,192,81564,1,0,0:0:0:0:
256,192,81655,1,8,0:0:0:0:
256,192,81746,1,0,0:0:0:0:
256,192,81928,1,0,0:0:0:0:
256,192,82019,1,8,0:0:0:0:
256,192,82109,1,0,0:0:0:0:
256,192,82200,1,8,0:0:0:0:
256,192,82291,1,0,0:0:0:0:
256,192,82382,1,8,0:0:0:0:
256,192,82428,1,8,0:0:0:0:
256,192,82473,1,0,0:0:0:0:
256,192,82518,1,0,0:0:0:0:
256,192,82564,1,8,0:0:0:0:
256,192,82655,1,0,0:0:0:0:
256,96,82746,5,12,0:0:0:0:
256,192,82837,1,0,0:0:0:0:
256,192,82882,1,0,0:0:0:0:
256,192,82927,1,8,0:0:0:0:
256,192,83018,1,0,0:0:0:0:
256,192,83109,1,8,0:0:0:0:
256,192,83155,1,8,0:0:0:0:
256,192,83200,1,0,0:0:0:0:
256,192,83291,1,8,0:0:0:0:
256,192,83382,1,0,0:0:0:0:
256,192,83473,1,8,0:0:0:0:
256,192,83518,1,8,0:0:0:0:
256,192,83564,1,0,0:0:0:0:
256,192,83609,1,0,0:0:0:0:
256,192,83655,1,8,0:0:0:0:
256,192,83746,1,0,0:0:0:0:
256,192,83836,1,8,0:0:0:0:
256,192,83882,1,8,0:0:0:0:
256,192,83927,1,0,0:0:0:0:
256,192,84018,1,8,0:0:0:0:
256,192,84064,1,8,0:0:0:0:
256,192,84109,1,8,0:0:0:0:
256,192,84200,1,0,0:0:0:0:
256,192,84291,1,0,0:0:0:0:
256,192,84382,1,8,0:0:0:0:
256,192,84427,1,8,0:0:0:0:
256,192,84473,1,0,0:0:0:0:
256,192,84564,1,8,0:0:0:0:
256,192,84655,1,0,0:0:0:0:
256,192,84745,1,8,0:0:0:0:
256,192,84836,1,0,0:0:0:0:
256,192,84927,1,8,0:0:0:0:
256,192,84973,1,8,0:0:0:0:
256,192,85018,1,0,0:0:0:0:
256,192,85064,1,0,0:0:0:0:
256,192,85109,1,8,0:0:0:0:
256,192,85200,1,0,0:0:0:0:
256,192,85291,1,8,0:0:0:0:
256,192,85336,1,0,0:0:0:0:
256,192,85382,1,0,0:0:0:0:
256,192,85473,1,8,0:0:0:0:
256,192,85563,1,0,0:0:0:0:
256,192,85654,1,8,0:0:0:0:
256,192,85700,1,0,0:0:0:0:
256,192,85745,1,0,0:0:0:0:
256,192,85791,1,0,0:0:0:0:
256,192,85836,1,8,0:0:0:0:
256,192,85927,1,0,0:0:0:0:
256,192,86018,1,8,0:0:0:0:
256,192,86063,1,8,0:0:0:0:
256,192,86109,1,8,0:0:0:0:
256,192,86200,1,0,0:0:0:0:
256,192,86291,1,8,0:0:0:0:
256,192,86382,1,0,0:0:0:0:
256,192,86427,1,0,0:0:0:0:
256,192,86472,1,0,0:0:0:0:
256,192,86518,1,0,0:0:0:0:
256,192,86563,1,8,0:0:0:0:
256,192,86654,1,8,0:0:0:0:
256,192,86745,1,0,0:0:0:0:
256,192,86836,1,0,0:0:0:0:
256,192,86927,1,8,0:0:0:0:
256,192,86972,1,8,0:0:0:0:
256,192,87018,1,8,0:0:0:0:
256,192,87063,1,8,0:0:0:0:
256,192,87109,1,0,0:0:0:0:
256,192,87200,1,0,0:0:0:0:
256,192,87290,1,8,0:0:0:0:
256,192,87381,1,0,0:0:0:0:
256,192,87472,1,8,0:0:0:0:
256,192,87518,1,8,0:0:0:0:
256,192,87563,1,0,0:0:0:0:
256,192,87654,1,8,0:0:0:0:
256,192,87745,1,0,0:0:0:0:
256,192,87790,1,0,0:0:0:0:
256,192,87836,1,8,0:0:0:0:
256,192,87927,1,0,0:0:0:0:
256,192,88018,1,8,0:0:0:0:
256,192,88063,1,8,0:0:0:0:
256,192,88109,1,0,0:0:0:0:
256,192,88154,1,0,0:0:0:0:
256,192,88199,1,8,0:0:0:0:
256,192,88245,1,8,0:0:0:0:
256,192,88290,1,0,0:0:0:0:
256,192,88381,1,8,0:0:0:0:
256,192,88472,1,8,0:0:0:0:
256,192,88563,1,0,0:0:0:0:
256,192,88608,1,0,0:0:0:0:
256,192,88654,1,0,0:0:0:0:
256,192,88745,1,8,0:0:0:0:
256,192,88836,1,0,0:0:0:0:
256,192,88927,1,8,0:0:0:0:
256,192,88972,1,8,0:0:0:0:
256,192,89017,1,0,0:0:0:0:
256,192,89108,1,8,0:0:0:0:
256,192,89199,1,0,0:0:0:0:
256,192,89290,1,8,0:0:0:0:
256,192,89336,1,8,0:0:0:0:
256,192,89381,1,0,0:0:0:0:
256,192,89427,1,0,0:0:0:0:
256,192,89472,1,8,0:0:0:0:
256,192,89563,1,0,0:0:0:0:
256,192,89654,1,8,0:0:0:0:
256,192,89699,1,8,0:0:0:0:
256,192,89745,1,0,0:0:0:0:
256,192,89790,1,0,0:0:0:0:
256,192,89836,1,8,0:0:0:0:
256,192,89881,1,8,0:0:0:0:
256,192,89926,1,0,0:0:0:0:
256,192,90017,1,8,0:0:0:0:
256,192,90108,1,0,0:0:0:0:
256,192,90199,1,8,0:0:0:0:
256,192,90245,1,0,0:0:0:0:
256,192,90290,1,0,0:0:0:0:
256,192,90381,1,8,0:0:0:0:
256,192,90472,1,8,0:0:0:0:
256,192,90563,1,0,0:0:0:0:
256,192,90608,1,0,0:0:0:0:
256,192,90654,1,8,0:0:0:0:
256,192,90744,1,0,0:0:0:0:
256,192,90835,1,0,0:0:0:0:
256,192,90926,1,8,0:0:0:0:
256,192,90972,1,8,0:0:0:0:
256,192,91017,1,0,0:0:0:0:
256,192,91108,1,8,0:0:0:0:
256,192,91154,1,8,0:0:0:0:
256,192,91199,1,0,0:0:0:0:
256,192,91290,1,8,0:0:0:0:
256,192,91381,1,0,0:0:0:0:
256,192,91472,1,8,0:0:0:0:
256,192,91517,1,8,0:0:0:0:
256,192,91563,1,8,0:0:0:0:
256,192,91608,1,8,0:0:0:0:
256,192,91653,1,0,0:0:0:0:
256,192,91744,1,8,0:0:0:0:
256,192,91835,1,0,0:0:0:0:
256,192,91926,1,8,0:0:0:0:
256,192,92017,1,0,0:0:0:0:
256,192,92062,1,0,0:0:0:0:
256,192,92108,1,0,0:0:0:0:
256,192,92199,1,8,0:0:0:0:
256,192,92244,1,8,0:0:0:0:
256,192,92290,1,0,0:0:0:0:
256,192,92381,1,8,0:0:0:0:
256,192,92426,1,8,0:0:0:0:
256,192,92472,1,0,0:0:0:0:
256,192,92562,1,8,0:0:0:0:
256,192,92653,1,0,0:0:0:0:
256,192,92744,1,8,0:0:0:0:
256,192,92790,1,8,0:0:0:0:
256,192,92835,1,8,0:0:0:0:
256,192,92881,1,8,0:0:0:0:
256,192,92926,1,0,0:0:0:0:
288,192,93017,1,8,0:0:0:0:
288,192,93108,1,0,0:0:0:0:
288,192,93199,1,0,0:0:0:0:
288,192,93290,1,8,0:0:0:0:
288,192,93335,1,0,0:0:0:0:
288,192,93380,1,0,0:0:0:0:
256,192,93471,1,8,0:0:0:0:
256,192,93562,1,8,0:0:0:0:
256,192,93653,1,0,0:0:0:0:
256,192,93744,1,8,0:0:0:0:
256,192,93835,1,0,0:0:0:0:
256,192,93880,1,0,0:0:0:0:
256,192,93926,1,0,0:0:0:0:
256,192,94017,1,8,0:0:0:0:
256,192,94108,1,8,0:0:0:0:
256,192,94199,1,0,0:0:0:0:
256,96,94380,5,12,0:0:0:0:
256,192,94471,1,0,0:0:0:0:
256,192,94517,1,0,0:0:0:0:
256,192,94562,1,8,0:0:0:0:
256,192,94653,1,0,0:0:0:0:
256,192,94744,1,8,0:0:0:0:
256,192,94789,1,8,0:0:0:0:
256,192,94835,1,0,0:0:0:0:
256,192,94926,1,8,0:0:0:0:
256,192,95017,1,0,0:0:0:0:
256,192,95107,1,8,0:0:0:0:
256,192,95153,1,8,0:0:0:0:
256,192,95198,1,0,0:0:0:0:
256,192,95244,1,0,0:0:0:0:
256,192,95289,1,8,0:0:0:0:
256,192,95380,1,0,0:0:0:0:
256,192,95471,1,8,0:0:0:0:
256,192,95516,1,8,0:0:0:0:
256,192,95562,1,0,0:0:0:0:
256,192,95653,1,8,0:0:0:0:
256,192,95698,1,8,0:0:0:0:
256,192,95744,1,8,0:0:0:0:
256,192,95835,1,0,0:0:0:0:
256,192,95926,1,0,0:0:0:0:
256,192,96016,1,8,0:0:0:0:
256,192,96062,1,8,0:0:0:0:
256,192,96107,1,0,0:0:0:0:
256,192,96198,1,8,0:0:0:0:
256,192,96289,1,0,0:0:0:0:
256,192,96380,1,8,0:0:0:0:
256,192,96471,1,0,0:0:0:0:
256,192,96562,1,8,0:0:0:0:
256,192,96607,1,0,0:0:0:0:
256,192,96653,1,0,0:0:0:0:
256,192,96698,1,0,0:0:0:0:
256,192,96744,1,8,0:0:0:0:
256,192,96834,1,0,0:0:0:0:
256,192,96925,1,8,0:0:0:0:
256,192,96971,1,8,0:0:0:0:
256,192,97016,1,0,0:0:0:0:
256,192,97107,1,8,0:0:0:0:
256,192,97198,1,0,0:0:0:0:
256,192,97289,1,8,0:0:0:0:
256,192,97334,1,8,0:0:0:0:
256,192,97380,1,0,0:0:0:0:
256,192,97425,1,0,0:0:0:0:
256,192,97471,1,8,0:0:0:0:
256,192,97562,1,0,0:0:0:0:
256,192,97653,1,8,0:0:0:0:
256,192,97698,1,8,0:0:0:0:
256,192,97743,1,8,0:0:0:0:
256,192,97834,1,0,0:0:0:0:
256,192,97925,1,8,0:0:0:0:
256,192,98016,1,0,0:0:0:0:
256,192,98062,1,0,0:0:0:0:
256,192,98107,1,0,0:0:0:0:
256,192,98152,1,0,0:0:0:0:
256,192,98198,1,8,0:0:0:0:
256,192,98289,1,8,0:0:0:0:
256,192,98380,1,0,0:0:0:0:
256,192,98471,1,0,0:0:0:0:
256,192,98561,1,8,0:0:0:0:
256,192,98607,1,8,0:0:0:0:
256,192,98652,1,8,0:0:0:0:
256,192,98698,1,8,0:0:0:0:
256,192,98743,1,0,0:0:0:0:
256,192,98834,1,0,0:0:0:0:
256,192,98925,1,8,0:0:0:0:
256,192,99016,1,0,0:0:0:0:
256,192,99107,1,8,0:0:0:0:
256,192,99152,1,8,0:0:0:0:
256,192,99198,1,0,0:0:0:0:
256,192,99289,1,8,0:0:0:0:
256,192,99380,1,0,0:0:0:0:
256,192,99470,1,8,0:0:0:0:
256,192,99516,1,8,0:0:0:0:
256,192,99561,1,0,0:0:0:0:
256,192,99607,1,0,0:0:0:0:
256,192,99652,1,8,0:0:0:0:
256,192,99743,1,0,0:0:0:0:
256,192,99834,1,8,0:0:0:0:
256,192,99879,1,8,0:0:0:0:
256,192,99925,1,8,0:0:0:0:
256,192,99970,1,8,0:0:0:0:
256,192,100016,1,0,0:0:0:0:
256,192,100107,1,8,0:0:0:0:
256,192,100198,1,0,0:0:0:0:
256,192,100243,1,0,0:0:0:0:
256,192,100289,1,0,0:0:0:0:
256,192,100379,1,8,0:0:0:0:
256,192,100470,1,0,0:0:0:0:
256,192,100561,1,8,0:0:0:0:
256,192,100607,1,8,0:0:0:0:
256,192,100652,1,0,0:0:0:0:
256,192,100743,1,8,0:0:0:0:
256,192,100834,1,0,0:0:0:0:
256,192,100925,1,8,0:0:0:0:
256,192,100970,1,8,0:0:0:0:
256,192,101016,1,0,0:0:0:0:
256,192,101061,1,0,0:0:0:0:
256,192,101107,1,8,0:0:0:0:
256,192,101197,1,0,0:0:0:0:
256,192,101288,1,8,0:0:0:0:
256,192,101334,1,8,0:0:0:0:
256,192,101379,1,0,0:0:0:0:
256,192,101470,1,8,0:0:0:0:
256,192,101516,1,8,0:0:0:0:
256,192,101561,1,8,0:0:0:0:
256,192,101652,1,0,0:0:0:0:
256,192,101743,1,0,0:0:0:0:
256,192,101834,1,8,0:0:0:0:
256,192,101879,1,8,0:0:0:0:
256,192,101925,1,0,0:0:0:0:
256,192,102016,1,8,0:0:0:0:
256,192,102106,1,0,0:0:0:0:
256,192,102197,1,8,0:0:0:0:
256,192,102288,1,8,0:0:0:0:
256,192,102379,1,0,0:0:0:0:
256,192,102470,1,0,0:0:0:0:
256,192,102561,1,8,0:0:0:0:
256,192,102606,1,8,0:0:0:0:
256,192,102652,1,0,0:0:0:0:
256,192,102743,1,8,0:0:0:0:
256,192,102788,1,8,0:0:0:0:
256,192,102834,1,0,0:0:0:0:
256,192,102924,1,8,0:0:0:0:
256,192,103015,1,0,0:0:0:0:
256,192,103106,1,8,0:0:0:0:
256,192,103152,1,8,0:0:0:0:
256,192,103197,1,8,0:0:0:0:
256,192,103243,1,8,0:0:0:0:
256,192,103288,1,0,0:0:0:0:
256,192,103379,1,8,0:0:0:0:
256,192,103470,1,0,0:0:0:0:
256,192,103561,1,8,0:0:0:0:
256,192,103652,1,0,0:0:0:0:
256,192,103697,1,0,0:0:0:0:
256,192,103743,1,0,0:0:0:0:
256,192,103833,1,8,0:0:0:0:
256,192,103924,1,0,0:0:0:0:
256,192,103970,1,0,0:0:0:0:
256,192,104015,1,8,0:0:0:0:
256,192,104061,1,8,0:0:0:0:
256,192,104106,1,0,0:0:0:0:
256,192,104197,1,8,0:0:0:0:
256,192,104288,1,0,0:0:0:0:
256,192,104379,1,8,0:0:0:0:
256,192,104424,1,8,0:0:0:0:
256,192,104470,1,8,0:0:0:0:
256,192,104515,1,8,0:0:0:0:
256,192,104561,1,0,0:0:0:0:
256,192,104651,1,8,0:0:0:0:
256,192,104742,1,0,0:0:0:0:
256,192,104833,1,0,0:0:0:0:
256,192,104924,1,8,0:0:0:0:
256,192,104970,1,0,0:0:0:0:
259,185,105015,1,0,0:0:0:0:
256,192,105106,1,8,0:0:0:0:
256,192,105197,1,8,0:0:0:0:
256,192,105288,1,0,0:0:0:0:
256,192,105379,1,8,0:0:0:0:
256,192,105470,1,0,0:0:0:0:
256,192,105515,1,0,0:0:0:0:
256,192,105560,1,0,0:0:0:0:
256,192,105651,1,8,0:0:0:0:
256,192,105742,1,8,0:0:0:0:
256,192,105833,1,0,0:0:0:0:
256,192,106015,5,12,0:0:0:0:
256,192,106378,1,8,0:0:0:0:
256,192,107106,1,8,0:0:0:0:
256,192,107833,1,8,0:0:0:0:
256,192,108560,1,8,0:0:0:0:
256,192,108742,1,0,0:0:0:0:
256,192,108833,1,0,0:0:0:0:
256,192,108924,1,0,0:0:0:0:
256,192,109287,1,8,0:0:0:0:
256,192,110014,1,8,0:0:0:0:
256,192,110741,1,8,0:0:0:0:
256,192,111469,1,8,0:0:0:0:
256,192,111650,1,0,0:0:0:0:
256,192,111741,1,8,0:0:0:0:
256,192,111832,1,0,0:0:0:0:
256,192,112196,1,8,0:0:0:0:
256,192,112923,1,8,0:0:0:0:
256,192,113650,1,8,0:0:0:0:
256,192,114377,1,8,0:0:0:0:
256,192,114559,1,8,0:0:0:0:
256,192,114650,1,8,0:0:0:0:
256,192,114741,1,0,0:0:0:0:
256,192,115104,1,8,0:0:0:0:
256,192,115832,1,8,0:0:0:0:
256,192,116559,1,8,0:0:0:0:
256,192,116922,1,0,0:0:0:0:
256,192,117013,1,0,0:0:0:0:
256,192,117104,1,0,0:0:0:0:
256,192,117286,1,8,0:0:0:0:
256,192,117468,1,0,0:0:0:0:
256,192,117650,1,12,0:0:0:0:
256,192,123103,5,0,0:0:0:0:
256,192,123285,1,0,0:0:0:0:
256,96,123467,1,12,0:0:0:0:
256,192,123649,1,0,0:0:0:0:
256,192,123830,1,8,0:0:0:0:
256,192,124194,1,0,0:0:0:0:
256,192,124558,1,8,0:0:0:0:
256,192,124739,1,0,0:0:0:0:
256,192,125103,1,0,0:0:0:0:
256,192,125285,1,8,0:0:0:0:
256,192,125648,1,0,0:0:0:0:
256,192,126012,1,8,0:0:0:0:
256,192,126194,1,0,0:0:0:0:
256,192,126375,1,0,0:0:0:0:
256,192,126739,1,8,0:0:0:0:
256,192,127103,1,0,0:0:0:0:
256,192,127466,1,8,0:0:0:0:
256,192,127648,1,8,0:0:0:0:
256,192,128012,1,0,0:0:0:0:
256,192,128193,1,8,0:0:0:0:
256,192,128466,1,8,0:0:0:0:
256,192,128557,1,8,0:0:0:0:
256,192,128648,1,0,0:0:0:0:
256,192,128739,1,8,0:0:0:0:
256,192,128830,1,0,0:0:0:0:
256,192,128921,1,8,0:0:0:0:
256,192,128966,1,8,0:0:0:0:
256,192,129011,1,0,0:0:0:0:
256,192,129057,1,0,0:0:0:0:
256,192,129102,1,8,0:0:0:0:
256,192,129193,1,0,0:0:0:0:
256,96,129284,1,12,0:0:0:0:
256,192,129375,1,0,0:0:0:0:
256,192,129420,1,0,0:0:0:0:
256,192,129466,1,8,0:0:0:0:
256,192,129557,1,0,0:0:0:0:
256,192,129648,1,8,0:0:0:0:
256,192,129693,1,8,0:0:0:0:
256,192,129739,1,0,0:0:0:0:
256,192,129829,1,8,0:0:0:0:
256,192,129920,1,0,0:0:0:0:
256,192,130011,1,8,0:0:0:0:
256,192,130057,1,8,0:0:0:0:
256,192,130102,1,0,0:0:0:0:
256,192,130148,1,0,0:0:0:0:
256,192,130193,1,8,0:0:0:0:
256,192,130284,1,0,0:0:0:0:
256,192,130375,1,8,0:0:0:0:
256,192,130420,1,8,0:0:0:0:
256,192,130466,1,0,0:0:0:0:
256,192,130557,1,8,0:0:0:0:
256,192,130602,1,8,0:0:0:0:
256,192,130648,1,8,0:0:0:0:
256,192,130693,1,8,0:0:0:0:
256,192,130738,1,0,0:0:0:0:
256,192,130829,1,0,0:0:0:0:
256,192,130920,1,8,0:0:0:0:
256,192,130966,1,8,0:0:0:0:
256,192,131011,1,0,0:0:0:0:
256,192,131057,1,0,0:0:0:0:
256,192,131102,1,8,0:0:0:0:
256,192,131193,1,0,0:0:0:0:
256,192,131284,1,8,0:0:0:0:
256,192,131375,1,0,0:0:0:0:
256,192,131466,1,8,0:0:0:0:
256,192,131511,1,8,0:0:0:0:
256,192,131556,1,0,0:0:0:0:
256,192,131602,1,0,0:0:0:0:
256,192,131647,1,8,0:0:0:0:
256,192,131738,1,0,0:0:0:0:
256,192,131784,1,0,0:0:0:0:
256,192,131829,1,8,0:0:0:0:
256,192,131920,1,0,0:0:0:0:
256,192,132011,1,8,0:0:0:0:
256,192,132056,1,8,0:0:0:0:
256,192,132102,1,0,0:0:0:0:
256,192,132193,1,8,0:0:0:0:
256,192,132238,1,8,0:0:0:0:
256,192,132284,1,0,0:0:0:0:
256,192,132329,1,0,0:0:0:0:
256,192,132375,1,8,0:0:0:0:
256,192,132465,1,0,0:0:0:0:
256,192,132556,1,8,0:0:0:0:
256,192,132602,1,0,0:0:0:0:
256,192,132647,1,8,0:0:0:0:
256,192,132693,1,8,0:0:0:0:
256,192,132738,1,0,0:0:0:0:
256,192,132829,1,8,0:0:0:0:
256,192,132920,1,0,0:0:0:0:
256,192,132965,1,0,0:0:0:0:
256,192,133011,1,0,0:0:0:0:
256,192,133056,1,0,0:0:0:0:
256,192,133102,1,8,0:0:0:0:
256,192,133193,1,8,0:0:0:0:
256,192,133284,1,0,0:0:0:0:
256,192,133374,1,0,0:0:0:0:
256,192,133465,1,8,0:0:0:0:
256,192,133511,1,8,0:0:0:0:
256,192,133556,1,8,0:0:0:0:
256,192,133602,1,8,0:0:0:0:
256,192,133647,1,0,0:0:0:0:
256,192,133693,1,0,0:0:0:0:
256,192,133738,1,0,0:0:0:0:
256,192,133783,1,0,0:0:0:0:
256,192,133829,1,8,0:0:0:0:
256,192,133920,1,0,0:0:0:0:
256,192,134011,1,8,0:0:0:0:
256,192,134056,1,8,0:0:0:0:
256,192,134102,1,0,0:0:0:0:
256,192,134147,1,0,0:0:0:0:
256,192,134192,1,8,0:0:0:0:
256,192,134283,1,0,0:0:0:0:
256,192,134374,1,8,0:0:0:0:
256,192,134465,1,0,0:0:0:0:
256,192,134556,1,8,0:0:0:0:
256,192,134601,1,8,0:0:0:0:
256,192,134647,1,0,0:0:0:0:
256,192,134692,1,0,0:0:0:0:
256,192,134738,1,8,0:0:0:0:
256,192,134829,1,0,0:0:0:0:
256,192,134874,1,0,0:0:0:0:
256,192,134920,1,0,0:0:0:0:
256,192,135011,1,8,0:0:0:0:
256,192,135101,1,0,0:0:0:0:
256,192,135147,1,0,0:0:0:0:
256,192,135192,1,0,0:0:0:0:
256,192,135238,1,0,0:0:0:0:
256,192,135283,1,8,0:0:0:0:
256,192,135374,1,0,0:0:0:0:
256,192,135465,1,8,0:0:0:0:
256,192,135510,1,8,0:0:0:0:
256,192,135556,1,0,0:0:0:0:
256,192,135647,1,8,0:0:0:0:
256,192,135738,1,0,0:0:0:0:
256,192,135783,1,0,0:0:0:0:
256,192,135829,1,8,0:0:0:0:
256,192,135874,1,8,0:0:0:0:
256,192,135919,1,0,0:0:0:0:
256,192,136010,1,8,0:0:0:0:
256,192,136101,1,0,0:0:0:0:
256,192,136147,1,0,0:0:0:0:
256,192,136192,1,8,0:0:0:0:
256,192,136283,1,0,0:0:0:0:
256,192,136374,1,8,0:0:0:0:
256,192,136419,1,8,0:0:0:0:
256,192,136465,1,8,0:0:0:0:
256,192,136510,1,8,0:0:0:0:
256,192,136556,1,0,0:0:0:0:
256,192,136647,1,0,0:0:0:0:
256,192,136738,1,8,0:0:0:0:
256,192,136783,1,8,0:0:0:0:
256,192,136828,1,0,0:0:0:0:
256,192,136874,1,0,0:0:0:0:
256,192,136919,1,8,0:0:0:0:
256,192,137010,1,0,0:0:0:0:
256,192,137101,1,8,0:0:0:0:
256,192,137147,1,0,0:0:0:0:
256,192,137192,1,0,0:0:0:0:
256,192,137283,1,8,0:0:0:0:
256,192,137374,1,0,0:0:0:0:
256,192,137465,1,8,0:0:0:0:
256,192,137510,1,8,0:0:0:0:
256,192,137556,1,0,0:0:0:0:
256,192,137646,1,8,0:0:0:0:
256,192,137692,1,8,0:0:0:0:
256,192,137737,1,0,0:0:0:0:
256,192,137828,1,8,0:0:0:0:
256,192,137919,1,0,0:0:0:0:
256,192,137965,1,0,0:0:0:0:
256,192,138010,1,8,0:0:0:0:
256,192,138056,1,8,0:0:0:0:
256,192,138101,1,8,0:0:0:0:
256,192,138146,1,8,0:0:0:0:
256,192,138192,1,0,0:0:0:0:
256,192,138283,1,8,0:0:0:0:
256,192,138374,1,0,0:0:0:0:
256,192,138465,1,8,0:0:0:0:
256,192,138555,1,0,0:0:0:0:
256,192,138601,1,0,0:0:0:0:
256,192,138646,1,8,0:0:0:0:
256,192,138737,1,0,0:0:0:0:
256,192,138783,1,0,0:0:0:0:
256,192,138828,1,0,0:0:0:0:
256,192,138919,1,8,0:0:0:0:
256,192,138964,1,8,0:0:0:0:
256,192,139010,1,0,0:0:0:0:
256,192,139055,1,0,0:0:0:0:
256,192,139101,1,8,0:0:0:0:
256,192,139192,1,0,0:0:0:0:
256,192,139283,1,8,0:0:0:0:
256,192,139328,1,8,0:0:0:0:
256,192,139373,1,8,0:0:0:0:
256,192,139419,1,8,0:0:0:0:
256,192,139464,1,0,0:0:0:0:
288,192,139510,1,0,0:0:0:0:
288,192,139555,1,0,0:0:0:0:
288,192,139601,1,0,0:0:0:0:
256,192,139646,1,8,0:0:0:0:
288,192,139737,1,0,0:0:0:0:
288,192,139828,1,8,0:0:0:0:
256,192,139873,1,0,0:0:0:0:
288,192,139919,1,8,0:0:0:0:
256,192,139964,1,8,0:0:0:0:
256,192,140010,1,0,0:0:0:0:
256,192,140101,1,8,0:0:0:0:
256,192,140192,1,0,0:0:0:0:
256,192,140282,1,8,0:0:0:0:
256,192,140373,1,0,0:0:0:0:
256,192,140419,1,0,0:0:0:0:
256,192,140464,1,8,0:0:0:0:
256,192,140510,1,8,0:0:0:0:
256,192,140555,1,0,0:0:0:0:
256,192,140646,1,8,0:0:0:0:
256,192,140737,1,0,0:0:0:0:
256,192,140919,1,12,0:0:0:0:
256,192,141010,1,0,0:0:0:0:
256,192,141055,1,0,0:0:0:0:
256,192,141101,1,8,0:0:0:0:
256,192,141191,1,0,0:0:0:0:
256,192,141282,1,8,0:0:0:0:
256,192,141328,1,8,0:0:0:0:
256,192,141373,1,0,0:0:0:0:
256,192,141464,1,8,0:0:0:0:
256,192,141555,1,0,0:0:0:0:
256,192,141646,1,8,0:0:0:0:
256,192,141691,1,8,0:0:0:0:
256,192,141737,1,0,0:0:0:0:
256,192,141782,5,0,0:0:0:0:
256,192,141828,1,8,0:0:0:0:
256,192,141919,1,0,0:0:0:0:
256,192,142009,1,8,0:0:0:0:
256,192,142055,1,8,0:0:0:0:
256,192,142100,1,0,0:0:0:0:
256,192,142191,1,8,0:0:0:0:
256,192,142237,1,8,0:0:0:0:
256,192,142282,1,8,0:0:0:0:
256,192,142328,1,8,0:0:0:0:
256,192,142373,1,0,0:0:0:0:
256,192,142464,1,0,0:0:0:0:
256,192,142555,1,8,0:0:0:0:
256,192,142600,1,0,0:0:0:0:
256,192,142646,1,0,0:0:0:0:
256,192,142691,1,0,0:0:0:0:
256,192,142737,1,8,0:0:0:0:
256,192,142828,1,8,0:0:0:0:
256,192,142918,1,0,0:0:0:0:
256,192,143009,1,0,0:0:0:0:
256,192,143100,1,8,0:0:0:0:
256,192,143146,1,8,0:0:0:0:
256,192,143191,1,0,0:0:0:0:
256,192,143282,1,8,0:0:0:0:
256,192,143373,1,0,0:0:0:0:
256,192,143464,1,8,0:0:0:0:
256,192,143509,1,8,0:0:0:0:
256,192,143555,1,0,0:0:0:0:
288,192,143600,1,0,0:0:0:0:
256,192,143646,1,8,0:0:0:0:
256,192,143736,1,0,0:0:0:0:
256,192,143827,1,8,0:0:0:0:
256,192,143873,1,8,0:0:0:0:
256,192,143918,1,8,0:0:0:0:
256,192,143964,1,8,0:0:0:0:
256,192,144009,1,0,0:0:0:0:
256,192,144100,1,0,0:0:0:0:
256,192,144191,1,8,0:0:0:0:
256,192,144236,1,0,0:0:0:0:
256,192,144282,1,8,0:0:0:0:
256,192,144327,1,8,0:0:0:0:
256,192,144373,1,0,0:0:0:0:
256,192,144464,1,8,0:0:0:0:
256,192,144555,1,0,0:0:0:0:
256,192,144600,1,0,0:0:0:0:
256,192,144645,1,0,0:0:0:0:
256,192,144691,1,0,0:0:0:0:
256,192,144736,1,8,0:0:0:0:
256,192,144827,1,0,0:0:0:0:
256,192,144918,1,8,0:0:0:0:
256,192,144964,1,8,0:0:0:0:
256,192,145009,1,0,0:0:0:0:
256,192,145100,1,8,0:0:0:0:
256,192,145145,1,8,0:0:0:0:
256,192,145191,1,8,0:0:0:0:
256,192,145236,1,8,0:0:0:0:
256,192,145282,1,0,0:0:0:0:
256,192,145327,1,0,0:0:0:0:
256,192,145373,1,0,0:0:0:0:
256,192,145418,1,0,0:0:0:0:
256,192,145463,1,8,0:0:0:0:
256,192,145554,1,0,0:0:0:0:
256,192,145645,1,8,0:0:0:0:
256,192,145691,1,8,0:0:0:0:
256,192,145736,1,0,0:0:0:0:
256,192,145827,1,8,0:0:0:0:
256,192,145918,1,0,0:0:0:0:
256,192,146009,1,8,0:0:0:0:
256,192,146054,1,8,0:0:0:0:
256,192,146100,1,0,0:0:0:0:
256,192,146145,1,0,0:0:0:0:
256,192,146191,1,8,0:0:0:0:
256,192,146236,1,8,0:0:0:0:
256,192,146282,1,0,0:0:0:0:
256,192,146372,1,8,0:0:0:0:
256,192,146463,1,0,0:0:0:0:
256,192,146509,1,0,0:0:0:0:
256,192,146554,1,8,0:0:0:0:
256,192,146600,1,8,0:0:0:0:
256,192,146645,1,0,0:0:0:0:
256,192,146736,1,8,0:0:0:0:
256,192,146827,1,0,0:0:0:0:
256,192,146872,1,0,0:0:0:0:
256,192,146918,1,8,0:0:0:0:
256,192,147009,1,0,0:0:0:0:
256,192,147100,1,8,0:0:0:0:
256,192,147145,1,8,0:0:0:0:
256,192,147190,1,0,0:0:0:0:
256,192,147281,1,8,0:0:0:0:
256,192,147372,1,0,0:0:0:0:
256,192,147418,1,0,0:0:0:0:
256,192,147463,1,8,0:0:0:0:
256,192,147509,1,8,0:0:0:0:
256,192,147554,1,0,0:0:0:0:
256,192,147600,1,0,0:0:0:0:
256,192,147645,1,8,0:0:0:0:
256,192,147736,1,0,0:0:0:0:
256,192,147827,1,8,0:0:0:0:
256,192,147872,1,8,0:0:0:0:
256,192,147918,1,0,0:0:0:0:
256,192,148009,1,8,0:0:0:0:
256,192,148054,1,8,0:0:0:0:
256,192,148099,1,8,0:0:0:0:
256,192,148145,1,8,0:0:0:0:
256,192,148190,1,0,0:0:0:0:
256,192,148281,1,0,0:0:0:0:
256,192,148372,1,8,0:0:0:0:
256,192,148418,1,0,0:0:0:0:
256,192,148463,1,0,0:0:0:0:
256,192,148508,1,0,0:0:0:0:
256,192,148554,1,8,0:0:0:0:
256,192,148645,1,8,0:0:0:0:
256,192,148736,1,0,0:0:0:0:
256,192,148781,1,0,0:0:0:0:
256,192,148827,1,8,0:0:0:0:
256,192,148917,1,0,0:0:0:0:
256,192,149008,1,0,0:0:0:0:
256,192,149099,1,8,0:0:0:0:
256,192,149145,1,8,0:0:0:0:
256,192,149190,1,0,0:0:0:0:
256,192,149281,1,8,0:0:0:0:
256,192,149327,1,8,0:0:0:0:
256,192,149372,1,0,0:0:0:0:
256,192,149417,1,0,0:0:0:0:
256,192,149463,1,8,0:0:0:0:
256,192,149554,1,0,0:0:0:0:
256,192,149645,1,8,0:0:0:0:
256,192,149690,1,8,0:0:0:0:
256,192,149736,1,8,0:0:0:0:
256,192,149781,1,8,0:0:0:0:
256,192,149826,1,0,0:0:0:0:
256,192,149917,1,8,0:0:0:0:
256,192,150008,1,0,0:0:0:0:
256,192,150099,1,0,0:0:0:0:
256,192,150190,1,8,0:0:0:0:
256,192,150235,1,8,0:0:0:0:
256,192,150281,1,8,0:0:0:0:
256,192,150372,1,0,0:0:0:0:
256,192,150417,1,0,0:0:0:0:
256,192,150463,1,0,0:0:0:0:
256,192,150554,1,8,0:0:0:0:
256,192,150599,1,8,0:0:0:0:
256,192,150645,1,0,0:0:0:0:
256,192,150735,1,8,0:0:0:0:
256,192,150826,1,0,0:0:0:0:
256,192,150917,1,8,0:0:0:0:
256,192,150963,1,8,0:0:0:0:
256,192,151008,1,8,0:0:0:0:
256,192,151054,1,8,0:0:0:0:
256,192,151099,1,0,0:0:0:0:
288,192,151144,1,0,0:0:0:0:
288,192,151190,1,0,0:0:0:0:
256,192,151235,1,0,0:0:0:0:
288,192,151281,1,8,0:0:0:0:
288,192,151372,1,0,0:0:0:0:
288,192,151463,1,8,0:0:0:0:
288,192,151508,1,8,0:0:0:0:
288,192,151553,1,0,0:0:0:0:
256,192,151599,1,0,0:0:0:0:
256,192,151644,1,8,0:0:0:0:
256,192,151690,1,0,0:0:0:0:
256,192,151735,1,8,0:0:0:0:
256,192,151826,1,0,0:0:0:0:
256,192,151917,1,8,0:0:0:0:
256,192,152008,1,0,0:0:0:0:
256,192,152053,1,0,0:0:0:0:
256,192,152099,1,0,0:0:0:0:
254,193,152144,1,0,0:0:0:0:
256,192,152190,1,8,0:0:0:0:
256,192,152281,1,8,0:0:0:0:
256,192,152372,1,0,0:0:0:0:
256,192,152553,1,12,0:0:0:0:
256,192,152735,1,0,0:0:0:0:
256,192,152826,1,0,0:0:0:0:
256,192,152917,1,8,0:0:0:0:
256,192,153008,1,0,0:0:0:0:
256,192,153099,1,8,0:0:0:0:
256,192,153144,1,0,0:0:0:0:
256,192,153190,1,0,0:0:0:0:
256,192,153235,1,0,0:0:0:0:
256,192,153280,1,8,0:0:0:0:
256,192,153371,1,0,0:0:0:0:
256,192,153462,1,8,0:0:0:0:
256,192,153508,1,8,0:0:0:0:
256,192,153553,1,0,0:0:0:0:
256,192,153644,1,8,0:0:0:0:
256,192,153735,1,0,0:0:0:0:
256,192,153826,1,8,0:0:0:0:
256,192,153917,1,8,0:0:0:0:
256,192,154008,1,0,0:0:0:0:
256,192,154189,1,8,0:0:0:0:
256,192,154280,1,0,0:0:0:0:
256,192,154371,1,0,0:0:0:0:
256,192,154462,1,0,0:0:0:0:
256,192,154553,1,8,0:0:0:0:
256,192,154598,1,8,0:0:0:0:
256,192,154644,1,0,0:0:0:0:
256,192,154689,1,0,0:0:0:0:
256,192,154735,1,8,0:0:0:0:
256,192,154826,1,0,0:0:0:0:
256,192,154917,1,8,0:0:0:0:
256,192,154962,1,8,0:0:0:0:
256,192,155007,1,0,0:0:0:0:
256,192,155098,1,8,0:0:0:0:
256,192,155189,1,0,0:0:0:0:
256,192,155280,1,8,0:0:0:0:
256,192,155371,1,8,0:0:0:0:
256,192,155462,1,0,0:0:0:0:
256,192,155644,1,0,0:0:0:0:
256,192,155735,1,0,0:0:0:0:
256,192,155826,1,8,0:0:0:0:
256,192,155916,1,0,0:0:0:0:
256,192,156007,1,8,0:0:0:0:
256,192,156053,5,0,0:0:0:0:
256,192,156098,1,0,0:0:0:0:
256,192,156144,1,0,0:0:0:0:
256,192,156189,1,8,0:0:0:0:
256,192,156280,1,0,0:0:0:0:
256,192,156371,1,8,0:0:0:0:
256,192,156416,1,8,0:0:0:0:
256,192,156462,1,0,0:0:0:0:
256,192,156553,1,8,0:0:0:0:
256,192,156644,1,0,0:0:0:0:
256,192,156734,1,8,0:0:0:0:
256,192,156825,1,8,0:0:0:0:
256,192,156916,1,0,0:0:0:0:
256,192,157098,1,8,0:0:0:0:
256,192,157189,1,0,0:0:0:0:
256,192,157280,1,8,0:0:0:0:
256,192,157371,1,8,0:0:0:0:
256,192,157462,1,0,0:0:0:0:
256,192,157553,1,8,0:0:0:0:
256,192,157643,1,0,0:0:0:0:
256,192,157734,1,0,0:0:0:0:
256,192,157825,1,8,0:0:0:0:
256,192,157916,1,0,0:0:0:0:
256,192,158007,1,8,0:0:0:0:
256,192,158098,1,8,0:0:0:0:
256,192,158189,1,0,0:0:0:0:
256,192,158280,1,8,0:0:0:0:
256,192,158371,1,0,0:0:0:0:
256,192,158552,1,8,0:0:0:0:
256,192,158643,1,8,0:0:0:0:
256,192,158734,1,0,0:0:0:0:
256,192,158825,1,0,0:0:0:0:
256,192,158916,1,8,0:0:0:0:
256,192,158961,1,8,0:0:0:0:
256,192,159007,1,8,0:0:0:0:
256,192,159052,1,8,0:0:0:0:
256,192,159098,1,0,0:0:0:0:
256,192,159189,1,0,0:0:0:0:
256,192,159280,1,8,0:0:0:0:
256,192,159325,1,8,0:0:0:0:
256,192,159370,1,0,0:0:0:0:
256,192,159416,1,0,0:0:0:0:
256,192,159461,1,8,0:0:0:0:
256,192,159552,1,0,0:0:0:0:
256,192,159643,1,8,0:0:0:0:
256,192,159734,1,8,0:0:0:0:
256,192,159825,1,0,0:0:0:0:
256,192,159916,1,0,0:0:0:0:
256,192,160007,1,8,0:0:0:0:
256,192,160098,1,0,0:0:0:0:
256,192,160189,1,0,0:0:0:0:
256,192,160279,1,0,0:0:0:0:
256,192,160370,1,8,0:0:0:0:
256,192,160416,1,8,0:0:0:0:
256,192,160461,1,8,0:0:0:0:
256,192,160507,1,8,0:0:0:0:
256,192,160552,1,0,0:0:0:0:
256,192,160643,1,0,0:0:0:0:
256,192,160734,1,8,0:0:0:0:
256,192,160779,1,8,0:0:0:0:
256,192,160825,1,0,0:0:0:0:
256,192,160870,1,0,0:0:0:0:
256,192,160916,1,8,0:0:0:0:
256,192,161007,1,0,0:0:0:0:
256,192,161097,1,8,0:0:0:0:
256,192,161188,1,8,0:0:0:0:
256,192,161279,1,0,0:0:0:0:
256,192,161370,1,0,0:0:0:0:
256,192,161461,1,8,0:0:0:0:
256,192,161552,1,0,0:0:0:0:
256,192,161643,1,8,0:0:0:0:
256,192,161734,1,0,0:0:0:0:
256,192,161825,1,8,0:0:0:0:
256,192,161870,1,8,0:0:0:0:
256,192,161916,1,8,0:0:0:0:
256,192,161961,1,8,0:0:0:0:
256,192,162006,1,0,0:0:0:0:
256,192,162097,1,0,0:0:0:0:
256,192,162188,1,8,0:0:0:0:
256,192,162234,1,8,0:0:0:0:
256,192,162279,1,0,0:0:0:0:
256,192,162325,1,0,0:0:0:0:
256,192,162370,1,8,0:0:0:0:
256,192,162461,1,0,0:0:0:0:
256,192,162552,1,8,0:0:0:0:
256,192,162643,1,8,0:0:0:0:
256,192,162734,1,0,0:0:0:0:
256,192,162824,1,0,0:0:0:0:
256,192,162915,1,8,0:0:0:0:
256,192,163006,1,0,0:0:0:0:
256,192,163097,1,8,0:0:0:0:
256,192,163279,1,0,0:0:0:0:
256,192,163370,1,8,0:0:0:0:
256,192,163461,1,0,0:0:0:0:
256,192,163643,1,8,0:0:0:0:
256,192,163733,1,0,0:0:0:0:
256,192,163824,1,8,0:0:0:0:
256,192,163915,1,8,0:0:0:0:
256,192,164006,1,0,0:0:0:0:
256,96,164188,1,12,0:0:0:0:
256,192,164279,1,0,0:0:0:0:
256,192,164324,1,0,0:0:0:0:
256,192,164370,1,8,0:0:0:0:
256,192,164461,1,0,0:0:0:0:
256,192,164551,1,8,0:0:0:0:
256,192,164597,1,8,0:0:0:0:
256,192,164642,1,0,0:0:0:0:
256,192,164733,1,8,0:0:0:0:
256,192,164824,1,0,0:0:0:0:
256,192,164915,1,8,0:0:0:0:
256,192,164961,1,8,0:0:0:0:
256,192,165006,1,8,0:0:0:0:
256,192,165051,1,8,0:0:0:0:
256,192,165097,1,0,0:0:0:0:
256,192,165188,1,0,0:0:0:0:
256,192,165279,1,8,0:0:0:0:
256,192,165324,1,8,0:0:0:0:
256,192,165370,1,0,0:0:0:0:
256,192,165460,1,8,0:0:0:0:
256,192,165506,1,8,0:0:0:0:
256,192,165551,1,0,0:0:0:0:
256,192,165597,1,0,0:0:0:0:
256,192,165642,1,8,0:0:0:0:
256,192,165733,1,0,0:0:0:0:
256,192,165824,1,8,0:0:0:0:
256,192,165869,1,8,0:0:0:0:
256,192,165915,1,8,0:0:0:0:
256,192,165960,1,8,0:0:0:0:
256,192,166006,1,0,0:0:0:0:
256,192,166051,1,0,0:0:0:0:
256,192,166097,1,0,0:0:0:0:
256,192,166142,1,0,0:0:0:0:
256,192,166188,1,8,0:0:0:0:
256,192,166279,1,0,0:0:0:0:
256,192,166369,1,8,0:0:0:0:
256,192,166460,1,0,0:0:0:0:
256,192,166506,1,0,0:0:0:0:
256,192,166551,1,8,0:0:0:0:
256,192,166642,1,0,0:0:0:0:
256,192,166733,1,8,0:0:0:0:
256,192,166778,1,8,0:0:0:0:
256,192,166824,1,0,0:0:0:0:
256,192,166915,1,8,0:0:0:0:
256,192,167006,1,0,0:0:0:0:
256,192,167097,1,8,0:0:0:0:
256,192,167142,1,8,0:0:0:0:
256,192,167187,1,8,0:0:0:0:
256,192,167278,1,0,0:0:0:0:
256,192,167369,1,0,0:0:0:0:
256,192,167460,1,8,0:0:0:0:
256,192,167506,1,8,0:0:0:0:
256,192,167551,1,8,0:0:0:0:
256,192,167642,1,0,0:0:0:0:
256,192,167733,1,8,0:0:0:0:
256,192,167824,1,0,0:0:0:0:
256,192,167869,1,0,0:0:0:0:
256,192,167915,1,0,0:0:0:0:
256,192,168006,1,8,0:0:0:0:
256,192,168096,1,8,0:0:0:0:
256,192,168187,1,0,0:0:0:0:
256,192,168278,1,0,0:0:0:0:
256,192,168369,1,8,0:0:0:0:
256,192,168415,1,8,0:0:0:0:
256,192,168460,1,8,0:0:0:0:
256,192,168505,1,8,0:0:0:0:
256,192,168551,1,0,0:0:0:0:
256,192,168642,1,0,0:0:0:0:
256,192,168733,1,8,0:0:0:0:
256,192,168824,1,0,0:0:0:0:
256,192,168914,1,8,0:0:0:0:
256,192,168960,1,8,0:0:0:0:
256,192,169005,1,0,0:0:0:0:
256,192,169096,1,8,0:0:0:0:
256,192,169187,1,0,0:0:0:0:
256,192,169233,1,0,0:0:0:0:
256,192,169278,1,8,0:0:0:0:
256,192,169369,1,0,0:0:0:0:
256,192,169460,1,8,0:0:0:0:
256,192,169505,1,8,0:0:0:0:
256,192,169551,1,0,0:0:0:0:
256,192,169596,1,0,0:0:0:0:
256,192,169642,1,8,0:0:0:0:
256,192,169733,1,0,0:0:0:0:
256,192,169823,1,8,0:0:0:0:
256,192,170005,5,8,0:0:0:0:
256,192,170187,1,0,0:0:0:0:
256,192,170278,1,0,0:0:0:0:
256,192,170369,1,8,0:0:0:0:
256,192,170460,1,0,0:0:0:0:
256,192,170551,1,8,0:0:0:0:
256,192,170596,1,0,0:0:0:0:
256,192,170641,1,0,0:0:0:0:
256,192,170687,1,0,0:0:0:0:
256,192,170732,1,8,0:0:0:0:
256,192,170823,1,0,0:0:0:0:
256,192,170914,1,8,0:0:0:0:
256,192,170960,1,8,0:0:0:0:
256,192,171005,1,0,0:0:0:0:
256,192,171096,1,8,0:0:0:0:
256,192,171187,1,0,0:0:0:0:
256,192,171278,1,8,0:0:0:0:
256,192,171369,1,8,0:0:0:0:
256,192,171460,1,0,0:0:0:0:
256,192,171641,1,8,0:0:0:0:
256,192,171732,1,0,0:0:0:0:
256,192,171823,1,0,0:0:0:0:
256,192,171914,1,0,0:0:0:0:
256,192,172005,1,8,0:0:0:0:
256,192,172050,1,8,0:0:0:0:
256,192,172096,1,0,0:0:0:0:
256,192,172141,1,0,0:0:0:0:
256,192,172187,1,8,0:0:0:0:
256,192,172278,1,0,0:0:0:0:
256,192,172368,1,8,0:0:0:0:
256,192,172414,1,8,0:0:0:0:
256,192,172459,1,0,0:0:0:0:
256,192,172550,1,8,0:0:0:0:
256,192,172641,1,0,0:0:0:0:
256,192,172732,1,8,0:0:0:0:
256,192,172823,1,8,0:0:0:0:
256,192,172914,1,0,0:0:0:0:
256,192,173096,1,0,0:0:0:0:
256,192,173187,1,0,0:0:0:0:
256,192,173277,1,8,0:0:0:0:
256,192,173368,1,0,0:0:0:0:
256,192,173459,1,8,0:0:0:0:
256,192,173505,1,0,0:0:0:0:
256,192,173550,1,0,0:0:0:0:
256,192,173596,1,0,0:0:0:0:
256,192,173641,1,8,0:0:0:0:
256,192,173732,1,0,0:0:0:0:
256,192,173823,1,8,0:0:0:0:
256,192,173868,1,8,0:0:0:0:
256,192,173914,1,0,0:0:0:0:
256,192,174005,1,8,0:0:0:0:
256,192,174096,1,0,0:0:0:0:
256,192,174186,1,8,0:0:0:0:
256,192,174277,1,8,0:0:0:0:
256,192,174368,1,0,0:0:0:0:
256,192,174550,1,8,0:0:0:0:
256,192,174641,1,0,0:0:0:0:
256,192,174732,1,8,0:0:0:0:
256,192,174823,1,8,0:0:0:0:
256,192,174914,1,0,0:0:0:0:
256,192,175004,1,8,0:0:0:0:
256,192,175095,1,0,0:0:0:0:
256,192,175141,1,0,0:0:0:0:
256,192,175186,1,0,0:0:0:0:
256,192,175232,1,0,0:0:0:0:
256,192,175277,1,8,0:0:0:0:
256,192,175368,1,0,0:0:0:0:
256,192,175459,1,8,0:0:0:0:
256,192,175550,1,8,0:0:0:0:
256,192,175641,1,0,0:0:0:0:
256,96,175823,1,12,0:0:0:0:
256,192,176004,1,0,0:0:0:0:
256,192,176095,1,0,0:0:0:0:
256,192,176186,1,8,0:0:0:0:
256,192,176368,1,0,0:0:0:0:
256,192,176550,1,8,0:0:0:0:
256,192,176641,1,8,0:0:0:0:
256,192,176731,1,0,0:0:0:0:
256,192,176822,1,0,0:0:0:0:
256,192,176913,1,8,0:0:0:0:
256,192,177095,1,0,0:0:0:0:
256,192,177186,1,8,0:0:0:0:
256,192,177277,1,0,0:0:0:0:
256,192,177459,1,0,0:0:0:0:
256,192,177640,1,8,0:0:0:0:
256,192,177822,1,0,0:0:0:0:
256,192,177913,1,8,0:0:0:0:
256,192,178004,1,0,0:0:0:0:
256,192,178095,1,0,0:0:0:0:
256,192,178186,1,8,0:0:0:0:
256,192,178277,1,0,0:0:0:0:
256,192,178368,1,8,0:0:0:0:
256,192,178549,1,8,0:0:0:0:
256,192,178640,1,8,0:0:0:0:
256,192,178731,1,0,0:0:0:0:
256,192,178913,1,0,0:0:0:0:
256,192,179004,1,0,0:0:0:0:
256,192,179095,1,8,0:0:0:0:
256,192,179277,1,0,0:0:0:0:
256,192,179367,1,0,0:0:0:0:
256,192,179458,1,0,0:0:0:0:
256,192,179549,1,8,0:0:0:0:
256,192,179640,1,0,0:0:0:0:
256,192,179822,1,8,0:0:0:0:
256,192,180004,1,8,0:0:0:0:
256,192,180095,1,8,0:0:0:0:
256,192,180185,1,0,0:0:0:0:
256,192,180367,1,0,0:0:0:0:
256,192,180458,1,0,0:0:0:0:
256,192,180549,1,8,0:0:0:0:
256,192,180731,1,0,0:0:0:0:
256,192,180822,1,8,0:0:0:0:
256,192,180913,1,0,0:0:0:0:
256,192,181004,1,0,0:0:0:0:
256,192,181094,1,8,0:0:0:0:
256,192,181185,1,0,0:0:0:0:
256,192,181276,1,8,0:0:0:0:
256,192,181367,1,8,0:0:0:0:
256,192,181458,1,0,0:0:0:0:
256,192,181640,1,8,0:0:0:0:
256,192,181822,1,0,0:0:0:0:
256,192,181912,1,0,0:0:0:0:
256,192,182003,1,8,0:0:0:0:
256,192,182185,1,0,0:0:0:0:
256,192,182367,1,8,0:0:0:0:
256,192,182458,1,8,0:0:0:0:
256,192,182549,1,0,0:0:0:0:
256,192,182640,1,0,0:0:0:0:
256,192,182731,1,8,0:0:0:0:
256,192,182912,1,0,0:0:0:0:
256,192,183003,1,8,0:0:0:0:
256,192,183094,1,0,0:0:0:0:
256,192,183276,1,0,0:0:0:0:
256,192,183458,1,8,0:0:0:0:
256,192,183640,1,8,0:0:0:0:
256,192,183730,1,8,0:0:0:0:
256,192,183821,1,0,0:0:0:0:
256,192,183912,1,8,0:0:0:0:
256,192,184003,1,0,0:0:0:0:
256,192,184094,1,0,0:0:0:0:
256,192,184185,1,8,0:0:0:0:
256,192,184367,1,8,0:0:0:0:
256,192,184458,1,8,0:0:0:0:
256,192,184548,1,0,0:0:0:0:
256,192,184730,1,0,0:0:0:0:
256,192,184821,1,0,0:0:0:0:
256,192,184912,1,8,0:0:0:0:
256,192,185094,1,0,0:0:0:0:
256,192,185185,1,0,0:0:0:0:
256,192,185276,1,0,0:0:0:0:
256,192,185367,1,8,0:0:0:0:
256,192,185457,1,0,0:0:0:0:
256,192,185639,1,8,0:0:0:0:
256,192,185821,1,8,0:0:0:0:
256,192,185912,1,8,0:0:0:0:
256,192,186003,1,0,0:0:0:0:
256,192,186185,1,0,0:0:0:0:
256,192,186366,1,8,0:0:0:0:
256,192,186548,1,0,0:0:0:0:
256,192,186639,1,8,0:0:0:0:
256,192,186730,1,0,0:0:0:0:
256,192,186821,1,0,0:0:0:0:
256,192,186912,1,8,0:0:0:0:
256,192,187003,1,0,0:0:0:0:
256,192,187094,1,8,0:0:0:0:
256,192,187184,1,8,0:0:0:0:
256,192,187275,1,0,0:0:0:0:
256,96,187457,5,12,0:0:0:0:
256,192,187639,1,0,0:0:0:0:
256,192,187730,1,0,0:0:0:0:
256,192,187821,1,8,0:0:0:0:
256,192,188002,1,0,0:0:0:0:
256,192,188184,1,8,0:0:0:0:
256,192,188275,1,8,0:0:0:0:
256,192,188366,1,0,0:0:0:0:
256,192,188457,1,0,0:0:0:0:
256,192,188548,1,8,0:0:0:0:
256,192,188730,1,0,0:0:0:0:
256,192,188821,1,8,0:0:0:0:
256,192,188911,1,0,0:0:0:0:
256,192,189093,1,0,0:0:0:0:
256,192,189275,1,8,0:0:0:0:
256,192,189457,1,0,0:0:0:0:
256,192,189548,1,8,0:0:0:0:
256,192,189639,1,0,0:0:0:0:
256,192,189729,1,0,0:0:0:0:
256,192,189820,1,8,0:0:0:0:
256,192,189911,1,0,0:0:0:0:
256,192,190002,1,8,0:0:0:0:
256,192,190184,1,8,0:0:0:0:
256,192,190275,1,8,0:0:0:0:
256,192,190366,1,0,0:0:0:0:
256,192,190548,1,0,0:0:0:0:
256,192,190638,1,0,0:0:0:0:
256,192,190729,1,8,0:0:0:0:
256,192,190911,1,0,0:0:0:0:
256,192,191002,1,0,0:0:0:0:
256,192,191093,1,0,0:0:0:0:
256,192,191184,1,8,0:0:0:0:
256,192,191275,1,0,0:0:0:0:
256,192,191457,1,8,0:0:0:0:
256,192,191638,1,8,0:0:0:0:
256,192,191729,1,8,0:0:0:0:
256,192,191820,1,0,0:0:0:0:
256,192,192002,1,0,0:0:0:0:
256,192,192093,1,0,0:0:0:0:
256,192,192184,1,8,0:0:0:0:
256,192,192365,1,0,0:0:0:0:
256,192,192456,1,8,0:0:0:0:
256,192,192547,1,0,0:0:0:0:
256,192,192638,1,0,0:0:0:0:
256,192,192729,1,8,0:0:0:0:
256,192,192820,1,0,0:0:0:0:
256,192,192911,1,8,0:0:0:0:
256,192,193002,1,8,0:0:0:0:
256,192,193093,1,0,0:0:0:0:
256,192,193274,1,8,0:0:0:0:
256,192,193456,1,0,0:0:0:0:
256,192,193547,1,0,0:0:0:0:
256,192,193638,1,8,0:0:0:0:
256,192,193820,1,0,0:0:0:0:
256,192,194002,1,8,0:0:0:0:
256,192,194092,1,0,0:0:0:0:
256,192,194183,1,0,0:0:0:0:
256,192,194274,1,0,0:0:0:0:
256,192,194365,1,8,0:0:0:0:
256,192,194547,1,8,0:0:0:0:
256,192,194638,1,8,0:0:0:0:
256,192,194729,1,0,0:0:0:0:
256,192,194911,1,0,0:0:0:0:
256,192,195092,1,8,0:0:0:0:
256,192,195274,1,0,0:0:0:0:
256,192,195365,1,8,0:0:0:0:
256,192,195456,1,0,0:0:0:0:
256,192,195547,1,8,0:0:0:0:
256,192,195638,1,0,0:0:0:0:
256,192,195729,1,0,0:0:0:0:
256,192,195819,1,8,0:0:0:0:
256,192,196001,1,8,0:0:0:0:
256,192,196092,1,8,0:0:0:0:
256,192,196183,1,0,0:0:0:0:
256,192,196365,1,0,0:0:0:0:
256,192,196456,1,0,0:0:0:0:
256,192,196547,1,8,0:0:0:0:
256,192,196728,1,0,0:0:0:0:
256,192,196819,1,0,0:0:0:0:
256,192,196910,1,0,0:0:0:0:
256,192,197001,1,8,0:0:0:0:
256,192,197092,1,0,0:0:0:0:
256,192,197274,1,8,0:0:0:0:
256,192,197456,1,8,0:0:0:0:
256,192,197546,1,8,0:0:0:0:
256,192,197637,1,0,0:0:0:0:
256,192,197819,1,0,0:0:0:0:
256,192,198001,1,8,0:0:0:0:
256,192,198183,1,0,0:0:0:0:
256,192,198274,1,8,0:0:0:0:
256,192,198365,1,0,0:0:0:0:
256,192,198455,1,0,0:0:0:0:
256,192,198546,1,8,0:0:0:0:
256,192,198637,1,0,0:0:0:0:
256,192,198728,1,8,0:0:0:0:
256,192,198819,1,8,0:0:0:0:
256,192,198910,1,0,0:0:0:0:
256,96,199092,5,12,0:0:0:0:
256,192,199274,1,0,0:0:0:0:
256,192,199364,1,0,0:0:0:0:
256,192,199455,1,8,0:0:0:0:
256,192,199546,1,0,0:0:0:0:
256,192,199637,1,8,0:0:0:0:
256,192,199683,1,0,0:0:0:0:
256,192,199728,1,0,0:0:0:0:
256,192,199773,1,0,0:0:0:0:
256,192,199819,1,8,0:0:0:0:
256,192,199910,1,0,0:0:0:0:
256,192,200001,1,8,0:0:0:0:
256,192,200046,1,8,0:0:0:0:
256,192,200092,1,0,0:0:0:0:
256,192,200182,1,8,0:0:0:0:
256,192,200273,1,0,0:0:0:0:
256,192,200364,1,8,0:0:0:0:
256,192,200455,1,8,0:0:0:0:
256,192,200546,1,0,0:0:0:0:
256,192,200728,1,8,0:0:0:0:
256,192,200819,1,0,0:0:0:0:
256,192,200910,1,0,0:0:0:0:
256,192,201001,1,0,0:0:0:0:
256,192,201091,1,8,0:0:0:0:
256,192,201137,1,8,0:0:0:0:
256,192,201182,1,8,0:0:0:0:
256,192,201228,1,8,0:0:0:0:
256,192,201273,1,0,0:0:0:0:
256,192,201364,1,0,0:0:0:0:
256,192,201455,1,8,0:0:0:0:
256,192,201500,1,8,0:0:0:0:
256,192,201546,1,0,0:0:0:0:
256,192,201637,1,8,0:0:0:0:
256,192,201728,1,0,0:0:0:0:
256,192,201819,1,8,0:0:0:0:
256,192,201909,1,8,0:0:0:0:
256,192,202000,1,0,0:0:0:0:
256,192,202182,1,0,0:0:0:0:
256,192,202273,1,0,0:0:0:0:
256,192,202364,1,8,0:0:0:0:
256,192,202455,1,0,0:0:0:0:
256,192,202546,1,8,0:0:0:0:
256,192,202591,5,8,0:0:0:0:
256,192,202637,1,0,0:0:0:0:
256,192,202682,1,0,0:0:0:0:
256,192,202728,1,8,0:0:0:0:
256,192,202818,1,0,0:0:0:0:
256,192,202909,1,8,0:0:0:0:
256,192,202955,1,8,0:0:0:0:
256,192,203000,1,0,0:0:0:0:
256,192,203091,1,8,0:0:0:0:
256,192,203182,1,0,0:0:0:0:
256,192,203273,1,8,0:0:0:0:
256,192,203364,1,8,0:0:0:0:
256,192,203455,1,0,0:0:0:0:
256,192,203636,1,8,0:0:0:0:
256,192,203727,1,0,0:0:0:0:
256,192,203818,1,8,0:0:0:0:
256,192,203909,1,8,0:0:0:0:
256,192,204000,1,0,0:0:0:0:
256,192,204091,1,8,0:0:0:0:
256,192,204182,1,0,0:0:0:0:
256,192,204273,1,0,0:0:0:0:
256,192,204364,1,8,0:0:0:0:
256,192,204455,1,0,0:0:0:0:
256,192,204545,1,8,0:0:0:0:
256,192,204636,1,8,0:0:0:0:
256,192,204727,1,0,0:0:0:0:
256,192,204818,1,8,0:0:0:0:
256,192,204909,1,0,0:0:0:0:
256,192,205091,1,8,0:0:0:0:
256,192,205182,1,8,0:0:0:0:
256,192,205273,1,0,0:0:0:0:
256,192,205363,1,0,0:0:0:0:
256,192,205454,1,8,0:0:0:0:
256,192,205545,1,0,0:0:0:0:
256,192,205636,1,8,0:0:0:0:
256,192,205682,1,8,0:0:0:0:
256,192,205727,1,8,0:0:0:0:
256,192,205773,1,8,0:0:0:0:
256,192,205818,1,0,0:0:0:0:
256,192,205909,1,0,0:0:0:0:
256,192,206000,1,8,0:0:0:0:
256,192,206091,1,0,0:0:0:0:
256,192,206136,1,0,0:0:0:0:
256,192,206182,1,8,0:0:0:0:
256,192,206272,1,8,0:0:0:0:
256,192,206363,1,0,0:0:0:0:
256,192,206454,1,8,0:0:0:0:
256,192,206500,1,8,0:0:0:0:
256,192,206545,1,0,0:0:0:0:
256,192,206636,1,8,0:0:0:0:
256,192,206727,1,0,0:0:0:0:
256,192,206818,1,0,0:0:0:0:
256,192,206909,1,8,0:0:0:0:
256,192,206954,1,8,0:0:0:0:
256,192,207000,1,8,0:0:0:0:
256,192,207045,1,8,0:0:0:0:
256,192,207091,1,0,0:0:0:0:
256,192,207181,1,0,0:0:0:0:
256,192,207272,1,8,0:0:0:0:
256,192,207318,1,8,0:0:0:0:
256,192,207363,1,0,0:0:0:0:
256,192,207409,1,0,0:0:0:0:
256,192,207454,1,8,0:0:0:0:
256,192,207545,1,0,0:0:0:0:
256,192,207636,1,8,0:0:0:0:
256,192,207727,1,8,0:0:0:0:
256,192,207818,1,0,0:0:0:0:
256,192,207909,1,0,0:0:0:0:
256,192,207999,1,8,0:0:0:0:
256,192,208090,1,0,0:0:0:0:
256,192,208181,1,8,0:0:0:0:
256,192,208272,1,8,0:0:0:0:
256,192,208363,1,8,0:0:0:0:
256,192,208454,1,8,0:0:0:0:
256,192,208545,1,0,0:0:0:0:
256,192,208636,1,0,0:0:0:0:
256,192,208727,1,0,0:0:0:0:
256,192,208818,1,0,0:0:0:0:
256,192,208908,1,8,0:0:0:0:
256,192,208999,1,0,0:0:0:0:
256,192,209090,1,8,0:0:0:0:
256,192,209181,1,8,0:0:0:0:
256,192,209272,1,8,0:0:0:0:
256,192,209363,1,0,0:0:0:0:
256,192,209454,1,8,0:0:0:0:
256,192,209545,1,8,0:0:0:0:
256,192,209636,1,0,0:0:0:0:
256,192,209817,1,0,0:0:0:0:
256,192,209908,1,8,0:0:0:0:
256,192,209999,1,0,0:0:0:0:
256,192,210090,1,0,0:0:0:0:
256,192,210181,1,8,0:0:0:0:
256,192,210272,1,0,0:0:0:0:
256,192,210363,1,8,0:0:0:0:
256,192,210454,1,8,0:0:0:0:
256,192,210545,1,0,0:0:0:0:
256,96,210726,5,12,0:0:0:0:
256,192,210908,1,0,0:0:0:0:
256,192,210999,1,0,0:0:0:0:
256,192,211090,1,8,0:0:0:0:
256,192,211272,1,0,0:0:0:0:
256,192,211453,1,8,0:0:0:0:
256,192,211544,1,8,0:0:0:0:
256,192,211635,1,0,0:0:0:0:
256,192,211726,1,0,0:0:0:0:
256,192,211817,1,8,0:0:0:0:
256,192,211999,1,0,0:0:0:0:
256,192,212090,1,8,0:0:0:0:
256,192,212181,1,0,0:0:0:0:
256,192,212362,1,0,0:0:0:0:
256,192,212544,1,8,0:0:0:0:
256,192,212726,1,0,0:0:0:0:
256,192,212817,1,8,0:0:0:0:
256,192,212908,1,0,0:0:0:0:
256,192,212999,1,0,0:0:0:0:
256,192,213090,1,8,0:0:0:0:
256,192,213180,1,0,0:0:0:0:
256,192,213271,1,8,0:0:0:0:
256,192,213453,1,8,0:0:0:0:
256,192,213544,1,8,0:0:0:0:
256,192,213635,1,0,0:0:0:0:
256,192,213817,1,0,0:0:0:0:
256,192,213908,1,0,0:0:0:0:
256,192,213999,1,8,0:0:0:0:
256,192,214180,1,0,0:0:0:0:
256,192,214271,1,8,0:0:0:0:
256,192,214362,1,0,0:0:0:0:
256,192,214453,1,0,0:0:0:0:
256,192,214544,1,0,0:0:0:0:
256,192,214726,1,8,0:0:0:0:
256,192,214907,1,8,0:0:0:0:
256,192,214998,1,8,0:0:0:0:
256,192,215089,1,0,0:0:0:0:
256,192,215271,1,0,0:0:0:0:
256,192,215362,1,0,0:0:0:0:
256,192,215453,1,8,0:0:0:0:
256,192,215635,1,0,0:0:0:0:
256,192,215726,1,8,0:0:0:0:
256,192,215816,1,0,0:0:0:0:
256,192,215907,1,0,0:0:0:0:
256,192,215998,1,8,0:0:0:0:
256,192,216089,1,0,0:0:0:0:
256,192,216180,1,8,0:0:0:0:
256,192,216271,1,8,0:0:0:0:
256,192,216362,1,0,0:0:0:0:
256,192,216544,1,8,0:0:0:0:
256,192,216725,1,0,0:0:0:0:
256,192,216816,1,0,0:0:0:0:
256,192,216907,1,8,0:0:0:0:
256,192,217089,1,0,0:0:0:0:
256,192,217271,1,8,0:0:0:0:
256,192,217362,1,8,0:0:0:0:
256,192,217453,1,8,0:0:0:0:
256,192,217543,1,8,0:0:0:0:
256,192,217634,1,0,0:0:0:0:
256,192,217725,1,8,0:0:0:0:
256,192,217816,1,8,0:0:0:0:
256,192,217907,1,8,0:0:0:0:
256,192,217998,1,0,0:0:0:0:
256,192,218180,1,0,0:0:0:0:
256,192,218362,1,8,0:0:0:0:
256,192,218543,1,0,0:0:0:0:
256,192,218634,1,8,0:0:0:0:
256,192,218725,1,0,0:0:0:0:
256,192,218816,1,8,0:0:0:0:
256,192,218907,1,0,0:0:0:0:
256,192,218998,1,0,0:0:0:0:
256,192,219089,1,8,0:0:0:0:
256,192,219270,1,8,0:0:0:0:
256,192,219361,1,8,0:0:0:0:
256,192,219452,1,0,0:0:0:0:
256,192,219634,1,0,0:0:0:0:
256,192,219725,1,0,0:0:0:0:
256,192,219816,1,8,0:0:0:0:
256,192,219998,1,0,0:0:0:0:
256,192,220089,1,0,0:0:0:0:
256,192,220179,1,8,0:0:0:0:
256,192,220270,1,0,0:0:0:0:
256,192,220361,1,0,0:0:0:0:
256,192,220543,1,8,0:0:0:0:
256,192,220725,1,8,0:0:0:0:
256,192,220816,1,8,0:0:0:0:
256,192,220907,1,0,0:0:0:0:
256,192,221088,1,0,0:0:0:0:
256,192,221270,1,8,0:0:0:0:
256,192,221452,1,0,0:0:0:0:
256,192,221543,1,8,0:0:0:0:
256,192,221634,1,0,0:0:0:0:
256,192,221725,1,0,0:0:0:0:
256,192,221816,1,8,0:0:0:0:
256,192,221906,1,0,0:0:0:0:
256,192,221997,1,8,0:0:0:0:
256,192,222088,1,8,0:0:0:0:
256,192,222179,1,0,0:0:0:0:
256,96,222361,5,12,0:0:0:0:
256,192,222452,12,0,228178,0:0:0:0:
