osu file format v14

[General]
AudioFilename: audio.mp3
AudioLeadIn: 0
PreviewTime: 35559
Countdown: 0
SampleSet: Normal
StackLeniency: 0.7
Mode: 1
LetterboxInBreaks: 0
WidescreenStoryboard: 0

[Editor]
DistanceSpacing: 0.5
BeatDivisor: 4
GridSize: 4
TimelineZoom: 6.799996

[Metadata]
Title:Super Sonic Racing
TitleUnicode:Super Sonic Racing
Artist:TJ Davis
ArtistUnicode:TJ Davis
Creator:Foxeru
Version:HiroK's All-Stars
Source:Sonic R
Tags:ssr hirok coryn sega sound team richard jacques sonic the hedgehog video game soundtrack ost original english electronic
BeatmapID:2725557
BeatmapSetID:1315188

[Difficulty]
HPDrainRate:4
CircleSize:5
OverallDifficulty:6
ApproachRate:5
SliderMultiplier:1.4
SliderTickRate:1

[Events]
//Background and Video events
0,0,"bg.jpg",0,-130
//Break Periods
2,117941,121996
//Storyboard Layer 0 (Background)
//Storyboard Layer 1 (Fail)
//Storyboard Layer 2 (Pass)
//Storyboard Layer 3 (Foreground)
//Storyboard Layer 4 (Overlay)
//Storyboard Sound Samples

[TimingPoints]
655,181.818181818182,4,1,0,30,1,0
655,-111.111111111111,4,1,0,30,0,0
1378,181.818181818182,4,1,0,30,1,0
1378,-111.111111111111,4,1,0,30,0,0
1468,-125,4,1,0,30,0,0
12968,-111.111111111111,4,1,0,40,0,0
36150,-108.108108108108,4,1,0,40,0,0
36241,-105.263157894737,4,1,0,50,0,0
36287,-105.263157894737,4,1,0,50,0,1
59287,-111.111111111111,4,1,0,50,0,1
59468,-117.647058823529,4,1,0,50,0,1
59559,-117.647058823529,4,1,0,50,0,0
59650,-117.647058823529,4,1,0,40,0,0
82787,-105.263157894737,4,1,0,50,0,0
82832,-105.263157894737,4,1,0,50,0,1
106105,-111.111111111111,4,1,0,50,0,0
106196,-117.647058823529,4,1,0,40,0,0
106378,-125,4,1,0,40,0,0
106559,-142.857142857143,4,1,0,40,0,0
129332,-100,4,1,0,50,0,0
129378,-100,4,1,0,50,0,1
152650,-100,4,1,0,50,0,0
152741,-105.263157894737,4,1,0,50,0,0
176014,-105.263157894737,4,1,0,45,0,0
178923,-105.263157894737,4,1,0,40,0,0
181650,-105.263157894737,4,1,0,35,0,0
184741,-105.263157894737,4,1,0,30,0,0

[HitObjects]
256,192,655,5,0,0:0:0:0:
256,192,700,1,0,0:0:0:0:
256,192,745,1,0,0:0:0:0:
256,192,791,1,0,0:0:0:0:
256,192,836,1,8,0:0:0:0:
256,192,882,1,8,0:0:0:0:
256,192,927,1,8,0:0:0:0:
256,192,973,1,8,0:0:0:0:
256,192,1018,1,0,0:0:0:0:
256,192,1064,1,0,0:0:0:0:
256,192,1109,1,0,0:0:0:0:
256,192,1155,1,0,0:0:0:0:
256,192,1200,1,8,0:0:0:0:
256,192,1245,1,8,0:0:0:0:
256,192,1291,1,8,0:0:0:0:
256,192,1378,1,4,0:0:0:0:
256,192,1741,1,8,0:0:0:0:
256,192,1923,1,0,0:0:0:0:
256,192,2014,1,0,0:0:0:0:
256,192,2105,1,0,0:0:0:0:
256,192,2287,1,0,0:0:0:0:
256,192,2468,1,8,0:0:0:0:
256,192,2650,1,0,0:0:0:0:
256,192,2741,1,8,0:0:0:0:
256,192,2832,1,0,0:0:0:0:
256,192,3014,1,0,0:0:0:0:
256,192,3196,1,8,0:0:0:0:
256,192,3378,1,8,0:0:0:0:
256,192,3468,1,8,0:0:0:0:
256,192,3559,1,0,0:0:0:0:
256,192,3741,1,0,0:0:0:0:
256,192,3923,1,8,0:0:0:0:
256,192,4014,1,8,0:0:0:0:
256,192,4196,1,8,0:0:0:0:
256,192,4287,1,0,0:0:0:0:
256,192,4468,1,0,0:0:0:0:
256,192,4650,1,8,0:0:0:0:
256,192,4832,1,0,0:0:0:0:
256,192,4923,1,0,0:0:0:0:
256,192,5014,1,0,0:0:0:0:
256,192,5196,1,0,0:0:0:0:
256,192,5378,1,8,0:0:0:0:
256,192,5559,1,0,0:0:0:0:
256,192,5650,1,8,0:0:0:0:
256,192,5741,1,0,0:0:0:0:
256,192,5923,1,0,0:0:0:0:
256,192,6105,1,8,0:0:0:0:
256,192,6287,1,8,0:0:0:0:
256,192,6378,1,8,0:0:0:0:
256,192,6468,1,0,0:0:0:0:
256,192,6650,1,0,0:0:0:0:
256,192,6832,1,8,0:0:0:0:
256,192,7014,1,0,0:0:0:0:
256,192,7105,1,8,0:0:0:0:
256,192,7196,1,4,0:0:0:0:
256,192,7559,1,8,0:0:0:0:
256,192,7741,1,0,0:0:0:0:
256,192,7832,1,0,0:0:0:0:
256,192,7923,1,0,0:0:0:0:
256,192,8014,1,8,0:0:0:0:
256,192,8105,1,0,0:0:0:0:
256,192,8287,1,8,0:0:0:0:
256,192,8468,1,0,0:0:0:0:
256,192,8559,1,8,0:0:0:0:
256,192,8650,1,0,0:0:0:0:
256,192,8832,1,0,0:0:0:0:
256,192,9014,1,8,0:0:0:0:
256,192,9105,1,0,0:0:0:0:
256,192,9196,1,8,0:0:0:0:
256,192,9287,1,8,0:0:0:0:
256,192,9378,1,0,0:0:0:0:
256,192,9559,1,0,0:0:0:0:
256,192,9741,1,8,0:0:0:0:
256,192,9832,1,8,0:0:0:0:
256,192,10014,1,8,0:0:0:0:
256,192,10105,1,0,0:0:0:0:
256,192,10196,1,0,0:0:0:0:
256,192,10287,1,8,0:0:0:0:
256,192,10378,1,0,0:0:0:0:
256,192,10468,1,8,0:0:0:0:
256,192,10559,1,8,0:0:0:0:
256,192,10650,1,0,0:0:0:0:
256,192,10741,1,8,0:0:0:0:
256,192,10832,1,0,0:0:0:0:
256,192,10923,1,0,0:0:0:0:
256,192,11014,1,8,0:0:0:0:
256,192,11105,1,0,0:0:0:0:
256,192,11196,1,8,0:0:0:0:
256,192,11287,1,8,0:0:0:0:
256,192,11378,1,0,0:0:0:0:
256,192,11468,1,8,0:0:0:0:
256,192,11559,1,0,0:0:0:0:
256,192,11650,1,0,0:0:0:0:
256,192,11741,1,8,0:0:0:0:
256,192,11832,1,0,0:0:0:0:
256,192,11923,1,8,0:0:0:0:
256,192,12014,1,8,0:0:0:0:
256,192,12105,1,0,0:0:0:0:
256,192,12196,1,8,0:0:0:0:
256,192,12287,1,0,0:0:0:0:
256,192,12378,1,0,0:0:0:0:
256,192,12468,1,8,0:0:0:0:
256,192,12559,1,0,0:0:0:0:
256,192,12650,1,8,0:0:0:0:
256,192,12741,1,8,0:0:0:0:
256,192,12832,1,8,0:0:0:0:
256,192,12923,1,8,0:0:0:0:
256,192,13014,1,4,0:0:0:0:
256,192,13196,1,0,0:0:0:0:
256,192,13287,1,0,0:0:0:0:
256,192,13378,1,8,0:0:0:0:
256,192,13468,1,0,0:0:0:0:
256,192,13559,1,8,0:0:0:0:
256,192,13650,1,8,0:0:0:0:
256,192,13741,1,0,0:0:0:0:
256,192,13832,1,0,0:0:0:0:
256,192,13923,1,8,0:0:0:0:
256,192,14014,1,8,0:0:0:0:
256,192,14105,1,8,0:0:0:0:
256,192,14196,1,0,0:0:0:0:
256,192,14287,1,8,0:0:0:0:
256,192,14378,1,8,0:0:0:0:
256,192,14468,1,0,0:0:0:0:
256,192,14559,1,0,0:0:0:0:
256,192,14650,1,8,0:0:0:0:
256,192,14741,1,0,0:0:0:0:
256,192,14832,1,8,0:0:0:0:
256,192,14923,1,8,0:0:0:0:
256,192,15014,1,0,0:0:0:0:
256,192,15105,1,8,0:0:0:0:
256,192,15196,1,0,0:0:0:0:
256,192,15287,1,0,0:0:0:0:
256,192,15378,1,8,0:0:0:0:
256,192,15468,1,8,0:0:0:0:
256,192,15559,1,0,0:0:0:0:
256,192,15650,1,0,0:0:0:0:
256,192,15741,1,0,0:0:0:0:
256,192,15832,1,0,0:0:0:0:
256,192,15923,1,8,0:0:0:0:
256,192,16014,1,8,0:0:0:0:
256,192,16105,1,0,0:0:0:0:
256,192,16196,1,0,0:0:0:0:
256,192,16287,1,8,0:0:0:0:
256,192,16378,1,0,0:0:0:0:
256,192,16468,1,8,0:0:0:0:
256,192,16559,1,8,0:0:0:0:
256,192,16650,1,0,0:0:0:0:
256,192,16741,1,0,0:0:0:0:
256,192,16832,1,8,0:0:0:0:
256,192,16923,1,8,0:0:0:0:
256,192,17014,1,8,0:0:0:0:
256,192,17105,1,0,0:0:0:0:
256,192,17196,1,8,0:0:0:0:
256,192,17287,1,8,0:0:0:0:
256,192,17378,1,0,0:0:0:0:
256,192,17468,1,0,0:0:0:0:
256,192,17559,1,8,0:0:0:0:
256,192,17650,1,0,0:0:0:0:
256,192,17741,1,8,0:0:0:0:
256,192,17832,1,8,0:0:0:0:
256,192,17923,1,0,0:0:0:0:
256,192,18014,1,8,0:0:0:0:
256,192,18105,1,0,0:0:0:0:
256,192,18196,1,0,0:0:0:0:
256,192,18287,1,8,0:0:0:0:
256,192,18378,1,8,0:0:0:0:
256,192,18468,1,0,0:0:0:0:
256,192,18559,1,0,0:0:0:0:
256,192,18650,1,8,0:0:0:0:
256,192,18741,1,0,0:0:0:0:
256,192,18832,1,8,0:0:0:0:
256,192,18923,1,8,0:0:0:0:
256,192,19014,1,0,0:0:0:0:
256,192,19105,1,0,0:0:0:0:
256,192,19196,1,0,0:0:0:0:
256,192,19287,1,0,0:0:0:0:
256,192,19378,1,8,0:0:0:0:
256,192,19468,1,8,0:0:0:0:
256,192,19559,1,8,0:0:0:0:
256,192,19650,1,8,0:0:0:0:
256,192,19741,1,0,0:0:0:0:
256,192,19832,1,0,0:0:0:0:
256,192,19923,1,8,0:0:0:0:
256,192,20014,1,0,0:0:0:0:
256,192,20105,1,8,0:0:0:0:
256,192,20196,1,8,0:0:0:0:
256,192,20287,1,0,0:0:0:0:
256,192,20378,1,0,0:0:0:0:
256,192,20468,1,8,0:0:0:0:
256,192,20559,1,0,0:0:0:0:
256,192,20650,1,8,0:0:0:0:
256,192,20741,1,0,0:0:0:0:
256,192,20832,1,0,0:0:0:0:
256,192,20923,1,8,0:0:0:0:
256,192,21014,1,0,0:0:0:0:
256,192,21105,1,0,0:0:0:0:
256,192,21196,1,8,0:0:0:0:
256,192,21287,1,0,0:0:0:0:
256,192,21378,1,8,0:0:0:0:
256,192,21468,1,8,0:0:0:0:
256,192,21559,1,0,0:0:0:0:
256,192,21650,1,0,0:0:0:0:
256,192,21741,1,8,0:0:0:0:
256,192,21832,1,8,0:0:0:0:
256,192,21923,1,8,0:0:0:0:
256,192,22014,1,0,0:0:0:0:
256,192,22105,1,0,0:0:0:0:
256,192,22196,1,0,0:0:0:0:
256,192,22287,1,8,0:0:0:0:
256,192,22378,1,8,0:0:0:0:
256,192,22468,1,0,0:0:0:0:
256,192,22559,1,0,0:0:0:0:
256,192,22650,1,8,0:0:0:0:
256,192,22741,1,0,0:0:0:0:
256,192,22832,1,0,0:0:0:0:
256,192,22923,1,0,0:0:0:0:
256,192,23014,1,8,0:0:0:0:
256,192,23105,1,8,0:0:0:0:
256,192,23196,1,0,0:0:0:0:
256,192,23287,1,0,0:0:0:0:
256,192,23378,1,8,0:0:0:0:
256,192,23468,1,0,0:0:0:0:
256,192,23559,1,8,0:0:0:0:
256,192,23650,1,8,0:0:0:0:
256,192,23741,1,0,0:0:0:0:
256,192,23832,1,8,0:0:0:0:
256,192,23923,1,0,0:0:0:0:
256,192,24014,1,0,0:0:0:0:
256,192,24105,1,8,0:0:0:0:
256,192,24196,1,0,0:0:0:0:
256,192,24287,1,8,0:0:0:0:
256,192,24468,1,0,0:0:0:0:
256,192,24650,1,12,0:0:0:0:
256,192,24832,1,0,0:0:0:0:
256,192,24923,1,0,0:0:0:0:
256,192,25014,1,8,0:0:0:0:
256,192,25105,1,0,0:0:0:0:
256,192,25196,1,8,0:0:0:0:
256,192,25287,1,8,0:0:0:0:
256,192,25378,1,0,0:0:0:0:
256,192,25468,1,0,0:0:0:0:
256,192,25559,1,8,0:0:0:0:
256,192,25650,1,8,0:0:0:0:
256,192,25741,1,8,0:0:0:0:
256,192,25832,1,0,0:0:0:0:
256,192,25923,1,8,0:0:0:0:
256,192,26014,1,8,0:0:0:0:
256,192,26105,1,0,0:0:0:0:
256,192,26196,1,0,0:0:0:0:
256,192,26287,1,8,0:0:0:0:
256,192,26378,1,0,0:0:0:0:
256,192,26468,1,8,0:0:0:0:
256,192,26559,1,8,0:0:0:0:
256,192,26650,1,0,0:0:0:0:
256,192,26741,1,8,0:0:0:0:
256,192,26832,1,0,0:0:0:0:
256,192,26923,1,0,0:0:0:0:
256,192,27014,1,8,0:0:0:0:
256,192,27105,1,8,0:0:0:0:
256,192,27196,1,0,0:0:0:0:
256,192,27287,1,0,0:0:0:0:
256,192,27378,1,0,0:0:0:0:
256,192,27468,1,0,0:0:0:0:
256,192,27559,1,8,0:0:0:0:
256,192,27650,1,8,0:0:0:0:
256,192,27741,1,0,0:0:0:0:
256,192,27832,1,0,0:0:0:0:
256,192,27923,1,8,0:0:0:0:
256,192,28014,1,0,0:0:0:0:
256,192,28105,1,8,0:0:0:0:
256,192,28196,1,8,0:0:0:0:
256,192,28287,1,0,0:0:0:0:
256,192,28378,1,0,0:0:0:0:
256,192,28468,1,8,0:0:0:0:
256,192,28559,1,8,0:0:0:0:
256,192,28650,1,8,0:0:0:0:
256,192,28741,1,0,0:0:0:0:
256,192,28832,1,8,0:0:0:0:
256,192,28923,1,8,0:0:0:0:
256,192,29014,1,0,0:0:0:0:
256,192,29105,1,0,0:0:0:0:
256,192,29196,1,8,0:0:0:0:
256,192,29287,1,0,0:0:0:0:
256,192,29378,1,8,0:0:0:0:
256,192,29468,1,8,0:0:0:0:
256,192,29559,1,0,0:0:0:0:
256,192,29650,1,8,0:0:0:0:
256,192,29741,1,0,0:0:0:0:
256,192,29832,1,0,0:0:0:0:
256,192,29923,1,8,0:0:0:0:
256,192,30014,1,8,0:0:0:0:
256,192,30105,1,0,0:0:0:0:
256,192,30196,1,0,0:0:0:0:
256,192,30287,1,8,0:0:0:0:
256,192,30378,1,0,0:0:0:0:
256,192,30468,1,8,0:0:0:0:
256,192,30559,1,8,0:0:0:0:
256,192,30650,1,0,0:0:0:0:
256,192,30741,1,0,0:0:0:0:
256,192,30832,1,0,0:0:0:0:
256,192,30923,1,0,0:0:0:0:
256,192,31014,1,8,0:0:0:0:
256,192,31105,1,8,0:0:0:0:
256,192,31196,1,8,0:0:0:0:
256,192,31287,1,8,0:0:0:0:
256,192,31378,1,0,0:0:0:0:
256,192,31468,1,0,0:0:0:0:
256,192,31559,1,8,0:0:0:0:
256,192,31650,1,0,0:0:0:0:
256,192,31741,1,8,0:0:0:0:
256,192,31832,1,8,0:0:0:0:
256,192,31923,1,0,0:0:0:0:
256,192,32014,1,0,0:0:0:0:
256,192,32105,1,8,0:0:0:0:
256,192,32196,1,0,0:0:0:0:
256,192,32287,1,8,0:0:0:0:
256,192,32378,1,0,0:0:0:0:
256,192,32468,1,0,0:0:0:0:
256,192,32559,1,8,0:0:0:0:
256,192,32650,1,0,0:0:0:0:
256,192,32741,1,0,0:0:0:0:
256,192,32832,1,8,0:0:0:0:
256,192,32923,1,0,0:0:0:0:
256,192,33014,1,8,0:0:0:0:
256,192,33105,1,8,0:0:0:0:
256,192,33196,1,0,0:0:0:0:
256,192,33287,1,8,0:0:0:0:
256,192,33378,1,0,0:0:0:0:
256,192,33468,1,0,0:0:0:0:
256,192,33559,1,8,0:0:0:0:
256,192,33650,1,8,0:0:0:0:
256,192,33741,1,8,0:0:0:0:
256,192,33832,1,0,0:0:0:0:
256,192,33923,1,8,0:0:0:0:
256,192,34014,1,8,0:0:0:0:
256,192,34105,1,0,0:0:0:0:
256,192,34196,1,8,0:0:0:0:
256,192,34287,1,0,0:0:0:0:
256,192,34378,1,0,0:0:0:0:
256,192,34468,1,8,0:0:0:0:
256,192,34559,1,8,0:0:0:0:
256,192,34650,1,0,0:0:0:0:
256,192,34741,1,0,0:0:0:0:
256,192,34832,1,8,0:0:0:0:
256,192,35014,1,0,0:0:0:0:
256,192,35196,1,8,0:0:0:0:
256,192,35378,1,0,0:0:0:0:
256,192,35468,1,8,0:0:0:0:
256,192,35559,1,0,0:0:0:0:
256,192,35650,1,0,0:0:0:0:
256,192,35741,1,8,0:0:0:0:
256,192,35832,1,0,0:0:0:0:
256,192,35878,1,0,0:0:0:0:
256,192,35923,1,8,0:0:0:0:
256,192,35968,1,8,0:0:0:0:
256,192,36014,1,0,0:0:0:0:
256,192,36105,1,8,0:0:0:0:
256,192,36196,1,0,0:0:0:0:
256,192,36287,5,12,0:0:0:0:
256,192,36378,1,0,0:0:0:0:
256,192,36423,1,0,0:0:0:0:
256,192,36468,1,8,0:0:0:0:
256,192,36559,1,0,0:0:0:0:
256,192,36650,1,8,0:0:0:0:
256,192,36696,1,8,0:0:0:0:
256,192,36741,1,0,0:0:0:0:
256,192,36832,1,8,0:0:0:0:
256,192,36923,1,0,0:0:0:0:
256,192,36968,1,0,0:0:0:0:
256,192,37014,1,8,0:0:0:0:
256,192,37059,1,8,0:0:0:0:
256,192,37105,1,0,0:0:0:0:
256,192,37196,1,8,0:0:0:0:
256,192,37287,1,0,0:0:0:0:
256,192,37332,1,0,0:0:0:0:
256,192,37378,1,8,0:0:0:0:
256,192,37468,1,0,0:0:0:0:
256,192,37559,1,8,0:0:0:0:
256,192,37605,1,8,0:0:0:0:
256,192,37650,1,8,0:0:0:0:
256,192,37696,1,8,0:0:0:0:
256,192,37741,1,0,0:0:0:0:
256,192,37832,1,0,0:0:0:0:
256,192,37923,1,8,0:0:0:0:
256,192,37968,1,8,0:0:0:0:
256,192,38014,1,8,0:0:0:0:
256,192,38059,1,8,0:0:0:0:
256,192,38105,1,0,0:0:0:0:
256,192,38196,1,0,0:0:0:0:
256,192,38287,1,8,0:0:0:0:
256,192,38332,1,8,0:0:0:0:
256,192,38378,1,0,0:0:0:0:
256,192,38468,1,8,0:0:0:0:
256,192,38559,1,0,0:0:0:0:
256,192,38605,1,0,0:0:0:0:
256,192,38650,1,8,0:0:0:0:
256,192,38741,1,0,0:0:0:0:
256,192,38787,1,0,0:0:0:0:
256,192,38832,1,8,0:0:0:0:
256,192,38923,1,0,0:0:0:0:
256,192,39014,1,8,0:0:0:0:
256,192,39105,1,0,0:0:0:0:
256,192,39196,1,8,0:0:0:0:
256,192,39241,1,8,0:0:0:0:
256,192,39287,1,0,0:0:0:0:
256,192,39332,1,0,0:0:0:0:
256,192,39378,1,8,0:0:0:0:
256,192,39468,1,0,0:0:0:0:
256,192,39559,1,8,0:0:0:0:
256,192,39605,1,0,0:0:0:0:
256,192,39650,1,8,0:0:0:0:
256,192,39696,1,8,0:0:0:0:
256,192,39741,1,0,0:0:0:0:
256,192,39832,1,8,0:0:0:0:
256,192,39923,1,0,0:0:0:0:
256,192,39968,1,0,0:0:0:0:
256,192,40014,1,0,0:0:0:0:
256,192,40105,1,8,0:0:0:0:
256,192,40196,1,8,0:0:0:0:
256,192,40287,1,0,0:0:0:0:
256,192,40378,1,0,0:0:0:0:
256,192,40468,1,8,0:0:0:0:
256,192,40514,1,8,0:0:0:0:
256,192,40559,1,8,0:0:0:0:
256,192,40605,1,8,0:0:0:0:
256,192,40650,1,0,0:0:0:0:
256,192,40696,1,0,0:0:0:0:
256,192,40741,1,0,0:0:0:0:
256,192,40832,1,8,0:0:0:0:
256,192,40923,1,0,0:0:0:0:
256,192,41014,1,8,0:0:0:0:
256,192,41059,1,8,0:0:0:0:
256,192,41105,1,0,0:0:0:0:
256,192,41196,1,8,0:0:0:0:
256,192,41287,1,0,0:0:0:0:
256,192,41332,1,0,0:0:0:0:
256,192,41378,1,8,0:0:0:0:
256,192,41468,1,0,0:0:0:0:
256,192,41559,1,8,0:0:0:0:
256,192,41605,1,8,0:0:0:0:
256,192,41650,1,0,0:0:0:0:
256,192,41696,1,0,0:0:0:0:
256,192,41741,1,8,0:0:0:0:
256,192,41832,1,0,0:0:0:0:
256,192,41923,1,8,0:0:0:0:
256,192,42014,1,8,0:0:0:0:
256,192,42105,1,0,0:0:0:0:
256,192,42196,1,0,0:0:0:0:
256,192,42241,1,0,0:0:0:0:
256,192,42287,1,8,0:0:0:0:
256,192,42378,1,0,0:0:0:0:
256,192,42468,1,8,0:0:0:0:
256,192,42514,1,8,0:0:0:0:
256,192,42559,1,0,0:0:0:0:
256,192,42650,1,8,0:0:0:0:
256,192,42741,1,0,0:0:0:0:
256,192,42787,1,0,0:0:0:0:
256,192,42832,1,8,0:0:0:0:
256,192,42878,1,8,0:0:0:0:
256,192,42923,1,0,0:0:0:0:
256,192,43014,1,8,0:0:0:0:
256,192,43105,1,0,0:0:0:0:
256,192,43150,1,0,0:0:0:0:
256,192,43196,1,8,0:0:0:0:
256,192,43287,1,0,0:0:0:0:
256,192,43378,1,8,0:0:0:0:
256,192,43423,1,8,0:0:0:0:
256,192,43468,1,8,0:0:0:0:
256,192,43514,1,8,0:0:0:0:
256,192,43559,1,0,0:0:0:0:
256,192,43650,1,0,0:0:0:0:
256,192,43741,1,8,0:0:0:0:
256,192,43787,1,8,0:0:0:0:
256,192,43832,1,8,0:0:0:0:
256,192,43878,1,8,0:0:0:0:
256,192,43923,1,0,0:0:0:0:
256,192,44014,1,8,0:0:0:0:
256,192,44105,1,0,0:0:0:0:
256,192,44150,1,0,0:0:0:0:
256,192,44196,1,8,0:0:0:0:
256,192,44287,1,0,0:0:0:0:
256,192,44378,1,0,0:0:0:0:
256,192,44468,1,8,0:0:0:0:
256,192,44514,1,8,0:0:0:0:
256,192,44559,1,0,0:0:0:0:
256,192,44650,1,8,0:0:0:0:
256,192,44696,1,8,0:0:0:0:
256,192,44741,1,0,0:0:0:0:
256,192,44832,1,8,0:0:0:0:
256,192,44923,1,0,0:0:0:0:
256,192,45014,1,8,0:0:0:0:
256,192,45059,1,8,0:0:0:0:
256,192,45105,1,8,0:0:0:0:
256,192,45150,1,8,0:0:0:0:
256,192,45196,1,0,0:0:0:0:
256,192,45287,1,8,0:0:0:0:
256,192,45378,1,0,0:0:0:0:
256,192,45468,1,8,0:0:0:0:
256,192,45559,1,0,0:0:0:0:
256,192,45605,1,0,0:0:0:0:
256,192,45650,1,8,0:0:0:0:
256,192,45741,1,0,0:0:0:0:
256,192,45787,1,0,0:0:0:0:
256,192,45832,1,0,0:0:0:0:
256,192,45923,1,8,0:0:0:0:
256,192,45968,1,8,0:0:0:0:
256,192,46014,1,0,0:0:0:0:
256,192,46105,1,8,0:0:0:0:
256,192,46196,1,0,0:0:0:0:
256,192,46287,1,8,0:0:0:0:
256,192,46332,1,8,0:0:0:0:
256,192,46378,1,8,0:0:0:0:
256,192,46423,1,8,0:0:0:0:
256,192,46468,1,0,0:0:0:0:
288,192,46514,1,0,0:0:0:0:
288,192,46559,1,8,0:0:0:0:
288,192,46650,1,0,0:0:0:0:
288,192,46741,1,0,0:0:0:0:
288,192,46832,1,8,0:0:0:0:
288,192,46878,1,0,0:0:0:0:
288,192,46923,1,0,0:0:0:0:
256,192,47014,1,8,0:0:0:0:
256,192,47105,1,8,0:0:0:0:
256,192,47196,1,0,0:0:0:0:
256,192,47287,1,8,0:0:0:0:
256,192,47378,1,0,0:0:0:0:
256,192,47423,1,0,0:0:0:0:
256,192,47468,1,0,0:0:0:0:
256,192,47559,1,8,0:0:0:0:
256,192,47741,1,0,0:0:0:0:
256,192,47923,1,12,0:0:0:0:
256,192,48014,1,0,0:0:0:0:
256,192,48059,1,0,0:0:0:0:
256,192,48105,1,8,0:0:0:0:
256,192,48196,1,0,0:0:0:0:
256,192,48287,1,8,0:0:0:0:
256,192,48332,1,8,0:0:0:0:
256,192,48378,1,0,0:0:0:0:
256,192,48468,1,8,0:0:0:0:
256,192,48559,1,0,0:0:0:0:
256,192,48605,1,0,0:0:0:0:
256,192,48650,1,8,0:0:0:0:
256,192,48696,1,8,0:0:0:0:
256,192,48741,1,0,0:0:0:0:
256,192,48832,1,8,0:0:0:0:
256,192,48923,1,0,0:0:0:0:
256,192,48968,1,0,0:0:0:0:
256,192,49014,1,8,0:0:0:0:
256,192,49105,1,0,0:0:0:0:
256,192,49196,1,8,0:0:0:0:
256,192,49241,1,8,0:0:0:0:
256,192,49287,1,8,0:0:0:0:
256,192,49332,1,8,0:0:0:0:
256,192,49378,1,0,0:0:0:0:
256,192,49468,1,0,0:0:0:0:
256,192,49559,1,8,0:0:0:0:
256,192,49605,1,8,0:0:0:0:
256,192,49650,1,8,0:0:0:0:
256,192,49696,1,8,0:0:0:0:
256,192,49741,1,0,0:0:0:0:
256,192,49832,1,0,0:0:0:0:
256,192,49923,1,8,0:0:0:0:
256,192,49968,1,8,0:0:0:0:
256,192,50014,1,0,0:0:0:0:
256,192,50105,1,8,0:0:0:0:
256,192,50196,1,0,0:0:0:0:
256,192,50241,1,0,0:0:0:0:
256,192,50287,1,8,0:0:0:0:
256,192,50378,1,0,0:0:0:0:
256,192,50423,1,0,0:0:0:0:
256,192,50468,1,8,0:0:0:0:
256,192,50559,1,0,0:0:0:0:
256,192,50650,1,8,0:0:0:0:
256,192,50741,1,0,0:0:0:0:
256,192,50832,1,8,0:0:0:0:
256,192,50878,1,8,0:0:0:0:
256,192,50923,1,0,0:0:0:0:
256,192,50968,1,0,0:0:0:0:
256,192,51014,1,8,0:0:0:0:
256,192,51105,1,0,0:0:0:0:
256,192,51196,1,8,0:0:0:0:
256,192,51241,1,0,0:0:0:0:
256,192,51287,1,8,0:0:0:0:
256,192,51332,1,8,0:0:0:0:
256,192,51378,1,0,0:0:0:0:
256,192,51468,1,8,0:0:0:0:
256,192,51559,1,0,0:0:0:0:
256,192,51605,1,0,0:0:0:0:
256,192,51650,1,0,0:0:0:0:
256,192,51741,1,8,0:0:0:0:
256,192,51832,1,8,0:0:0:0:
256,192,51923,1,0,0:0:0:0:
256,192,52014,1,0,0:0:0:0:
256,192,52105,1,8,0:0:0:0:
256,192,52150,1,8,0:0:0:0:
256,192,52196,1,8,0:0:0:0:
256,192,52241,1,8,0:0:0:0:
256,192,52287,1,0,0:0:0:0:
256,192,52332,1,0,0:0:0:0:
256,192,52378,1,0,0:0:0:0:
256,192,52468,1,8,0:0:0:0:
256,192,52559,1,0,0:0:0:0:
256,192,52650,1,8,0:0:0:0:
256,192,52696,1,8,0:0:0:0:
256,192,52741,1,0,0:0:0:0:
256,192,52832,1,8,0:0:0:0:
256,192,52923,1,0,0:0:0:0:
256,192,53014,1,8,0:0:0:0:
256,192,53105,1,0,0:0:0:0:
256,192,53150,1,0,0:0:0:0:
256,192,53196,1,8,0:0:0:0:
256,192,53287,1,0,0:0:0:0:
256,192,53332,1,0,0:0:0:0:
256,192,53378,1,8,0:0:0:0:
256,192,53423,1,8,0:0:0:0:
256,192,53468,1,0,0:0:0:0:
256,192,53559,1,8,0:0:0:0:
256,192,53650,1,0,0:0:0:0:
256,192,53741,1,8,0:0:0:0:
256,192,53832,1,0,0:0:0:0:
256,192,53878,1,0,0:0:0:0:
256,192,53923,1,8,0:0:0:0:
256,192,54014,1,0,0:0:0:0:
256,192,54105,1,8,0:0:0:0:
256,192,54150,1,8,0:0:0:0:
256,192,54196,1,0,0:0:0:0:
256,192,54287,1,8,0:0:0:0:
256,192,54378,1,0,0:0:0:0:
256,192,54423,1,0,0:0:0:0:
256,192,54468,1,8,0:0:0:0:
256,192,54514,1,8,0:0:0:0:
256,192,54559,1,0,0:0:0:0:
256,192,54650,1,8,0:0:0:0:
256,192,54741,1,0,0:0:0:0:
256,192,54787,1,0,0:0:0:0:
256,192,54832,1,8,0:0:0:0:
256,192,54923,1,0,0:0:0:0:
256,192,55014,1,8,0:0:0:0:
256,192,55059,1,8,0:0:0:0:
256,192,55105,1,8,0:0:0:0:
256,192,55150,1,8,0:0:0:0:
256,192,55196,1,0,0:0:0:0:
256,192,55287,1,0,0:0:0:0:
256,192,55378,1,8,0:0:0:0:
256,192,55423,1,8,0:0:0:0:
256,192,55468,1,8,0:0:0:0:
256,192,55514,1,8,0:0:0:0:
256,192,55559,1,0,0:0:0:0:
256,192,55650,1,8,0:0:0:0:
256,192,55741,1,0,0:0:0:0:
256,192,55787,1,0,0:0:0:0:
256,192,55832,1,8,0:0:0:0:
256,192,55923,1,0,0:0:0:0:
256,192,56014,1,0,0:0:0:0:
256,192,56105,1,8,0:0:0:0:
256,192,56150,1,8,0:0:0:0:
256,192,56196,1,0,0:0:0:0:
256,192,56287,1,8,0:0:0:0:
256,192,56332,1,8,0:0:0:0:
256,192,56378,1,0,0:0:0:0:
256,192,56468,1,8,0:0:0:0:
256,192,56559,1,0,0:0:0:0:
256,192,56650,1,8,0:0:0:0:
256,192,56696,1,8,0:0:0:0:
256,192,56741,1,8,0:0:0:0:
256,192,56787,1,8,0:0:0:0:
256,192,56832,1,0,0:0:0:0:
256,192,56923,1,8,0:0:0:0:
256,192,57014,1,0,0:0:0:0:
256,192,57105,1,0,0:0:0:0:
256,192,57196,1,8,0:0:0:0:
256,192,57241,1,8,0:0:0:0:
256,192,57287,1,8,0:0:0:0:
256,192,57378,1,0,0:0:0:0:
256,192,57423,1,8,0:0:0:0:
256,192,57468,1,0,0:0:0:0:
256,192,57559,1,8,0:0:0:0:
256,192,57605,1,8,0:0:0:0:
256,192,57650,1,0,0:0:0:0:
256,192,57741,1,8,0:0:0:0:
256,192,57832,1,0,0:0:0:0:
256,192,57923,1,8,0:0:0:0:
256,192,57968,1,8,0:0:0:0:
256,192,58014,1,8,0:0:0:0:
256,192,58059,1,8,0:0:0:0:
256,192,58105,1,0,0:0:0:0:
288,192,58150,1,0,0:0:0:0:
288,192,58196,1,8,0:0:0:0:
288,192,58287,1,0,0:0:0:0:
288,192,58378,1,0,0:0:0:0:
288,192,58468,1,8,0:0:0:0:
288,192,58514,1,0,0:0:0:0:
288,192,58559,1,0,0:0:0:0:
256,192,58650,1,8,0:0:0:0:
256,192,58741,1,8,0:0:0:0:
256,192,58832,1,0,0:0:0:0:
256,192,58923,1,8,0:0:0:0:
256,192,59014,1,0,0:0:0:0:
256,192,59059,1,0,0:0:0:0:
256,192,59105,1,0,0:0:0:0:
256,192,59196,1,8,0:0:0:0:
256,192,59378,1,0,0:0:0:0:
256,192,59559,1,12,0:0:0:0:
256,192,59741,1,0,0:0:0:0:
256,192,59832,1,0,0:0:0:0:
256,192,59923,1,8,0:0:0:0:
256,192,60105,1,0,0:0:0:0:
256,192,60196,1,8,0:0:0:0:
256,192,60287,1,0,0:0:0:0:
256,192,60378,1,0,0:0:0:0:
256,192,60468,1,8,0:0:0:0:
256,192,60559,1,0,0:0:0:0:
256,192,60650,1,8,0:0:0:0:
256,192,60832,1,8,0:0:0:0:
256,192,60923,1,8,0:0:0:0:
256,192,61014,1,0,0:0:0:0:
256,192,61196,1,0,0:0:0:0:
256,192,61287,1,0,0:0:0:0:
256,192,61378,1,8,0:0:0:0:
256,192,61559,1,0,0:0:0:0:
256,192,61741,1,8,0:0:0:0:
256,192,61832,1,8,0:0:0:0:
256,192,61923,1,0,0:0:0:0:
256,192,62014,1,0,0:0:0:0:
256,192,62105,1,8,0:0:0:0:
256,192,62196,1,0,0:0:0:0:
256,192,62287,1,8,0:0:0:0:
256,192,62378,1,8,0:0:0:0:
256,192,62468,1,0,0:0:0:0:
256,192,62650,1,0,0:0:0:0:
256,192,62741,1,0,0:0:0:0:
256,192,62832,1,8,0:0:0:0:
256,192,63014,1,0,0:0:0:0:
256,192,63105,1,8,0:0:0:0:
256,192,63196,1,0,0:0:0:0:
256,192,63287,1,0,0:0:0:0:
256,192,63378,1,8,0:0:0:0:
256,192,63468,1,0,0:0:0:0:
256,192,63559,1,8,0:0:0:0:
256,192,63741,1,8,0:0:0:0:
256,192,63832,1,8,0:0:0:0:
256,192,63923,1,0,0:0:0:0:
256,192,64105,1,0,0:0:0:0:
256,192,64196,1,0,0:0:0:0:
256,192,64287,1,8,0:0:0:0:
256,192,64378,1,0,0:0:0:0:
256,192,64559,1,0,0:0:0:0:
256,192,64650,1,8,0:0:0:0:
256,192,64741,1,8,0:0:0:0:
256,192,64832,1,0,0:0:0:0:
256,192,65014,1,8,0:0:0:0:
256,192,65196,1,8,0:0:0:0:
256,192,65378,1,0,0:0:0:0:
256,192,65559,1,0,0:0:0:0:
256,192,65650,1,0,0:0:0:0:
256,192,65741,1,8,0:0:0:0:
256,192,65923,1,0,0:0:0:0:
256,192,66014,1,8,0:0:0:0:
256,192,66105,1,0,0:0:0:0:
256,192,66196,1,0,0:0:0:0:
256,192,66287,1,8,0:0:0:0:
256,192,66378,1,0,0:0:0:0:
256,192,66468,1,8,0:0:0:0:
256,192,66650,1,8,0:0:0:0:
256,192,66741,1,8,0:0:0:0:
256,192,66832,1,0,0:0:0:0:
256,192,67014,1,0,0:0:0:0:
256,192,67105,1,0,0:0:0:0:
256,192,67196,1,8,0:0:0:0:
256,192,67378,1,0,0:0:0:0:
256,192,67559,1,8,0:0:0:0:
256,192,67650,1,8,0:0:0:0:
256,192,67741,1,0,0:0:0:0:
256,192,67832,1,0,0:0:0:0:
256,192,67923,1,8,0:0:0:0:
256,192,68014,1,0,0:0:0:0:
256,192,68105,1,8,0:0:0:0:
256,192,68196,1,8,0:0:0:0:
256,192,68287,1,0,0:0:0:0:
256,192,68468,1,0,0:0:0:0:
256,192,68559,1,0,0:0:0:0:
256,192,68650,1,8,0:0:0:0:
256,192,68832,1,0,0:0:0:0:
256,192,68923,1,8,0:0:0:0:
256,192,69014,1,0,0:0:0:0:
256,192,69105,1,0,0:0:0:0:
256,192,69196,1,8,0:0:0:0:
256,192,69287,1,0,0:0:0:0:
256,192,69378,1,8,0:0:0:0:
256,192,69559,1,8,0:0:0:0:
256,192,69650,1,8,0:0:0:0:
256,192,69741,1,0,0:0:0:0:
256,192,69923,1,0,0:0:0:0:
256,192,70014,1,0,0:0:0:0:
256,192,70105,1,8,0:0:0:0:
256,192,70287,1,0,0:0:0:0:
256,192,70378,1,8,0:0:0:0:
256,192,70559,1,8,0:0:0:0:
256,192,70650,1,0,0:0:0:0:
256,192,70832,1,8,0:0:0:0:
256,192,71014,1,0,0:0:0:0:
256,192,71196,1,12,0:0:0:0:
256,192,71378,1,0,0:0:0:0:
256,192,71468,1,0,0:0:0:0:
256,192,71559,1,8,0:0:0:0:
256,192,71650,1,0,0:0:0:0:
256,192,71741,1,8,0:0:0:0:
256,192,71832,1,8,0:0:0:0:
256,192,71923,1,0,0:0:0:0:
256,192,71968,1,0,0:0:0:0:
256,192,72014,1,0,0:0:0:0:
256,192,72105,1,8,0:0:0:0:
256,192,72196,1,0,0:0:0:0:
256,192,72287,1,8,0:0:0:0:
256,192,72332,1,8,0:0:0:0:
256,192,72378,1,8,0:0:0:0:
256,192,72468,1,0,0:0:0:0:
256,192,72559,1,8,0:0:0:0:
256,192,72650,1,0,0:0:0:0:
256,192,72832,1,8,0:0:0:0:
256,192,72923,1,0,0:0:0:0:
256,192,73014,1,8,0:0:0:0:
256,192,73105,1,8,0:0:0:0:
256,192,73196,1,0,0:0:0:0:
256,192,73287,1,8,0:0:0:0:
256,192,73378,1,0,0:0:0:0:
256,192,73423,1,0,0:0:0:0:
256,192,73468,1,8,0:0:0:0:
256,192,73559,1,0,0:0:0:0:
256,192,73650,1,0,0:0:0:0:
256,192,73741,1,8,0:0:0:0:
256,192,73787,1,8,0:0:0:0:
256,192,73832,1,0,0:0:0:0:
256,192,73923,1,8,0:0:0:0:
256,192,74014,1,8,0:0:0:0:
256,192,74105,1,0,0:0:0:0:
256,192,74287,1,0,0:0:0:0:
256,192,74378,1,0,0:0:0:0:
256,192,74468,1,8,0:0:0:0:
256,192,74559,1,0,0:0:0:0:
256,192,74650,1,8,0:0:0:0:
256,192,74741,1,8,0:0:0:0:
256,192,74832,1,0,0:0:0:0:
256,192,74878,1,8,0:0:0:0:
256,192,74923,1,8,0:0:0:0:
256,192,75014,1,0,0:0:0:0:
256,192,75105,1,0,0:0:0:0:
256,192,75196,1,8,0:0:0:0:
256,192,75241,1,0,0:0:0:0:
256,192,75287,1,0,0:0:0:0:
256,192,75378,1,8,0:0:0:0:
256,192,75468,1,8,0:0:0:0:
256,192,75559,1,0,0:0:0:0:
256,192,75741,1,8,0:0:0:0:
256,192,75832,1,0,0:0:0:0:
256,192,75923,1,8,0:0:0:0:
256,192,76014,1,8,0:0:0:0:
256,192,76105,1,0,0:0:0:0:
256,192,76287,1,8,0:0:0:0:
256,192,76378,1,8,0:0:0:0:
256,192,76468,1,0,0:0:0:0:
256,192,76559,1,0,0:0:0:0:
256,192,76650,1,8,0:0:0:0:
256,192,76832,1,0,0:0:0:0:
256,192,77014,1,0,0:0:0:0:
256,192,77196,1,0,0:0:0:0:
256,192,77287,1,0,0:0:0:0:
256,192,77378,1,8,0:0:0:0:
256,192,77468,1,8,0:0:0:0:
256,192,77559,1,0,0:0:0:0:
256,192,77605,1,0,0:0:0:0:
256,192,77650,1,0,0:0:0:0:
256,192,77741,1,8,0:0:0:0:
256,192,77832,1,0,0:0:0:0:
256,192,77923,1,8,0:0:0:0:
256,192,77968,1,8,0:0:0:0:
256,192,78014,1,0,0:0:0:0:
256,192,78059,1,0,0:0:0:0:
256,192,78105,1,8,0:0:0:0:
256,192,78196,1,0,0:0:0:0:
256,192,78287,1,8,0:0:0:0:
256,192,78378,1,8,0:0:0:0:
256,192,78468,1,0,0:0:0:0:
256,192,78650,1,8,0:0:0:0:
256,192,78741,1,0,0:0:0:0:
256,192,78832,1,8,0:0:0:0:
256,192,78923,1,8,0:0:0:0:
256,192,79014,1,0,0:0:0:0:
256,192,79105,1,0,0:0:0:0:
256,192,79196,1,8,0:0:0:0:
256,192,79287,1,8,0:0:0:0:
256,192,79378,1,8,0:0:0:0:
256,192,79468,1,0,0:0:0:0:
256,192,79559,1,8,0:0:0:0:
256,192,79650,1,8,0:0:0:0:
256,192,79741,1,0,0:0:0:0:
256,192,79832,1,0,0:0:0:0:
256,192,79923,1,8,0:0:0:0:
256,192,80014,1,0,0:0:0:0:
256,192,80059,1,0,0:0:0:0:
256,192,80105,1,8,0:0:0:0:
256,192,80196,1,0,0:0:0:0:
256,192,80287,1,8,0:0:0:0:
256,192,80378,1,0,0:0:0:0:
256,192,80423,1,0,0:0:0:0:
256,192,80468,1,8,0:0:0:0:
256,192,80559,1,0,0:0:0:0:
256,192,80650,1,8,0:0:0:0:
256,192,80696,1,8,0:0:0:0:
256,192,80741,1,0,0:0:0:0:
256,192,80787,1,0,0:0:0:0:
256,192,80832,1,8,0:0:0:0:
256,192,80878,1,8,0:0:0:0:
256,192,80923,1,0,0:0:0:0:
256,192,80968,1,0,0:0:0:0:
256,192,81014,1,8,0:0:0:0:
256,192,81059,1,8,0:0:0:0:
256,192,81105,1,8,0:0:0:0:
256,192,81150,1,8,0:0:0:0:
256,192,81196,1,0,0:0:0:0:
256,192,81378,1,8,0:0:0:0:
256,192,81559,1,0,0:0:0:0:
256,192,81650,1,0,0:0:0:0:
256,192,81741,1,8,0:0:0:0:
256,192,81832,1,0,0:0:0:0:
256,192,82014,1,0,0:0:0:0:
256,192,82105,1,8,0:0:0:0:
256,192,82196,1,8,0:0:0:0:
256,192,82287,1,0,0:0:0:0:
256,192,82378,1,0,0:0:0:0:
256,192,82468,1,8,0:0:0:0:
256,192,82514,1,8,0:0:0:0:
256,192,82559,1,8,0:0:0:0:
256,192,82605,1,8,0:0:0:0:
256,192,82650,1,0,0:0:0:0:
256,192,82741,1,0,0:0:0:0:
256,192,82832,5,12,0:0:0:0:
256,192,82923,1,0,0:0:0:0:
256,192,82968,1,0,0:0:0:0:
256,192,83014,1,8,0:0:0:0:
256,192,83105,1,0,0:0:0:0:
256,192,83196,1,8,0:0:0:0:
256,192,83241,1,8,0:0:0:0:
256,192,83287,1,0,0:0:0:0:
256,192,83378,1,8,0:0:0:0:
256,192,83468,1,0,0:0:0:0:
256,192,83514,1,0,0:0:0:0:
256,192,83559,1,8,0:0:0:0:
256,192,83605,1,8,0:0:0:0:
256,192,83650,1,0,0:0:0:0:
256,192,83741,1,8,0:0:0:0:
256,192,83832,1,0,0:0:0:0:
256,192,83878,1,0,0:0:0:0:
256,192,83923,1,8,0:0:0:0:
256,192,84014,1,0,0:0:0:0:
256,192,84105,1,8,0:0:0:0:
256,192,84150,1,8,0:0:0:0:
256,192,84196,1,8,0:0:0:0:
256,192,84241,1,8,0:0:0:0:
256,192,84287,1,0,0:0:0:0:
256,192,84378,1,0,0:0:0:0:
256,192,84468,1,8,0:0:0:0:
256,192,84514,1,8,0:0:0:0:
256,192,84559,1,8,0:0:0:0:
256,192,84605,1,8,0:0:0:0:
256,192,84650,1,0,0:0:0:0:
256,192,84741,1,0,0:0:0:0:
256,192,84832,1,8,0:0:0:0:
256,192,84878,1,8,0:0:0:0:
256,192,84923,1,0,0:0:0:0:
256,192,85014,1,8,0:0:0:0:
256,192,85105,1,0,0:0:0:0:
256,192,85150,1,0,0:0:0:0:
256,192,85196,1,8,0:0:0:0:
256,192,85287,1,0,0:0:0:0:
256,192,85332,1,0,0:0:0:0:
256,192,85378,1,8,0:0:0:0:
256,192,85468,1,0,0:0:0:0:
256,192,85559,1,8,0:0:0:0:
256,192,85650,1,0,0:0:0:0:
256,192,85741,1,8,0:0:0:0:
256,192,85787,1,8,0:0:0:0:
256,192,85832,1,0,0:0:0:0:
256,192,85878,1,0,0:0:0:0:
256,192,85923,1,8,0:0:0:0:
256,192,86014,1,0,0:0:0:0:
256,192,86105,1,8,0:0:0:0:
256,192,86150,1,0,0:0:0:0:
256,192,86196,1,8,0:0:0:0:
256,192,86241,1,8,0:0:0:0:
256,192,86287,1,0,0:0:0:0:
256,192,86378,1,8,0:0:0:0:
256,192,86468,1,0,0:0:0:0:
256,192,86514,1,0,0:0:0:0:
256,192,86559,1,0,0:0:0:0:
256,192,86650,1,8,0:0:0:0:
256,192,86741,1,8,0:0:0:0:
256,192,86832,1,0,0:0:0:0:
256,192,86923,1,0,0:0:0:0:
256,192,87014,1,8,0:0:0:0:
256,192,87059,1,8,0:0:0:0:
256,192,87105,1,8,0:0:0:0:
256,192,87150,1,8,0:0:0:0:
256,192,87196,1,0,0:0:0:0:
256,192,87241,1,0,0:0:0:0:
256,192,87287,1,0,0:0:0:0:
256,192,87332,1,0,0:0:0:0:
256,192,87378,1,8,0:0:0:0:
256,192,87468,1,0,0:0:0:0:
256,192,87559,1,8,0:0:0:0:
256,192,87605,1,8,0:0:0:0:
256,192,87650,1,0,0:0:0:0:
256,192,87741,1,8,0:0:0:0:
256,192,87832,1,0,0:0:0:0:
256,192,87878,1,0,0:0:0:0:
256,192,87923,1,8,0:0:0:0:
256,192,88014,1,0,0:0:0:0:
256,192,88105,1,8,0:0:0:0:
256,192,88150,1,8,0:0:0:0:
256,192,88196,1,0,0:0:0:0:
256,192,88241,1,0,0:0:0:0:
256,192,88287,1,8,0:0:0:0:
256,192,88378,1,0,0:0:0:0:
256,192,88423,1,0,0:0:0:0:
256,192,88468,1,0,0:0:0:0:
256,192,88559,1,8,0:0:0:0:
256,192,88650,1,0,0:0:0:0:
256,192,88741,1,0,0:0:0:0:
256,192,88787,1,0,0:0:0:0:
256,192,88832,1,8,0:0:0:0:
256,192,88923,1,0,0:0:0:0:
256,192,89014,1,8,0:0:0:0:
256,192,89059,1,8,0:0:0:0:
256,192,89105,1,0,0:0:0:0:
256,192,89196,1,8,0:0:0:0:
256,192,89287,1,0,0:0:0:0:
256,192,89332,1,0,0:0:0:0:
256,192,89378,1,8,0:0:0:0:
256,192,89423,1,8,0:0:0:0:
256,192,89468,1,0,0:0:0:0:
256,192,89559,1,8,0:0:0:0:
256,192,89650,1,0,0:0:0:0:
256,192,89696,1,0,0:0:0:0:
256,192,89741,1,8,0:0:0:0:
256,192,89832,1,0,0:0:0:0:
256,192,89923,1,8,0:0:0:0:
256,192,89968,1,8,0:0:0:0:
256,192,90014,1,8,0:0:0:0:
256,192,90059,1,8,0:0:0:0:
256,192,90105,1,0,0:0:0:0:
256,192,90196,1,0,0:0:0:0:
256,192,90287,1,8,0:0:0:0:
256,192,90332,1,8,0:0:0:0:
256,192,90378,1,8,0:0:0:0:
256,192,90423,1,8,0:0:0:0:
256,192,90468,1,0,0:0:0:0:
256,192,90559,1,8,0:0:0:0:
256,192,90650,1,0,0:0:0:0:
256,192,90696,1,0,0:0:0:0:
256,192,90741,1,8,0:0:0:0:
256,192,90832,1,0,0:0:0:0:
256,192,90923,1,0,0:0:0:0:
256,192,91014,1,8,0:0:0:0:
256,192,91059,1,8,0:0:0:0:
256,192,91105,1,0,0:0:0:0:
256,192,91196,1,8,0:0:0:0:
256,192,91241,1,8,0:0:0:0:
256,192,91287,1,0,0:0:0:0:
256,192,91378,1,8,0:0:0:0:
256,192,91468,1,0,0:0:0:0:
256,192,91559,1,8,0:0:0:0:
256,192,91605,1,8,0:0:0:0:
256,192,91650,1,8,0:0:0:0:
256,192,91696,1,8,0:0:0:0:
256,192,91741,1,0,0:0:0:0:
256,192,91832,1,8,0:0:0:0:
256,192,91923,1,0,0:0:0:0:
256,192,92014,1,8,0:0:0:0:
256,192,92105,1,0,0:0:0:0:
256,192,92150,1,0,0:0:0:0:
256,192,92196,1,8,0:0:0:0:
256,192,92287,1,0,0:0:0:0:
256,192,92332,1,0,0:0:0:0:
256,192,92378,1,0,0:0:0:0:
256,192,92468,1,8,0:0:0:0:
256,192,92514,1,8,0:0:0:0:
256,192,92559,1,0,0:0:0:0:
256,192,92650,1,8,0:0:0:0:
256,192,92741,1,0,0:0:0:0:
256,192,92832,1,8,0:0:0:0:
256,192,92878,1,8,0:0:0:0:
256,192,92923,1,8,0:0:0:0:
256,192,92968,1,8,0:0:0:0:
256,192,93014,1,0,0:0:0:0:
288,192,93059,1,0,0:0:0:0:
288,192,93105,1,0,0:0:0:0:
256,192,93150,1,0,0:0:0:0:
288,192,93196,1,8,0:0:0:0:
288,192,93287,1,0,0:0:0:0:
288,192,93378,1,8,0:0:0:0:
288,192,93423,1,0,0:0:0:0:
288,192,93468,1,0,0:0:0:0:
256,192,93559,1,8,0:0:0:0:
256,192,93650,1,8,0:0:0:0:
256,192,93741,1,0,0:0:0:0:
256,192,93832,1,8,0:0:0:0:
256,192,93923,1,0,0:0:0:0:
256,192,93968,1,0,0:0:0:0:
256,192,94014,1,0,0:0:0:0:
256,192,94105,1,8,0:0:0:0:
256,192,94287,1,0,0:0:0:0:
256,192,94468,1,12,0:0:0:0:
256,192,94559,1,0,0:0:0:0:
256,192,94605,1,0,0:0:0:0:
256,192,94650,1,8,0:0:0:0:
256,192,94741,1,0,0:0:0:0:
256,192,94832,1,8,0:0:0:0:
256,192,94878,1,8,0:0:0:0:
256,192,94923,1,0,0:0:0:0:
256,192,95014,1,8,0:0:0:0:
256,192,95105,1,0,0:0:0:0:
256,192,95150,1,0,0:0:0:0:
256,192,95196,1,8,0:0:0:0:
256,192,95241,1,8,0:0:0:0:
256,192,95287,1,0,0:0:0:0:
256,192,95378,1,8,0:0:0:0:
256,192,95468,1,0,0:0:0:0:
256,192,95514,1,0,0:0:0:0:
256,192,95559,1,8,0:0:0:0:
256,192,95650,1,0,0:0:0:0:
256,192,95741,1,8,0:0:0:0:
256,192,95787,1,8,0:0:0:0:
256,192,95832,1,8,0:0:0:0:
256,192,95878,1,8,0:0:0:0:
256,192,95923,1,0,0:0:0:0:
256,192,96014,1,0,0:0:0:0:
256,192,96105,1,8,0:0:0:0:
256,192,96150,1,8,0:0:0:0:
256,192,96196,1,8,0:0:0:0:
256,192,96241,1,8,0:0:0:0:
256,192,96287,1,0,0:0:0:0:
256,192,96378,1,0,0:0:0:0:
256,192,96468,1,8,0:0:0:0:
256,192,96514,1,8,0:0:0:0:
256,192,96559,1,0,0:0:0:0:
256,192,96650,1,8,0:0:0:0:
256,192,96741,1,0,0:0:0:0:
256,192,96787,1,0,0:0:0:0:
256,192,96832,1,8,0:0:0:0:
256,192,96923,1,0,0:0:0:0:
256,192,96968,1,0,0:0:0:0:
256,192,97014,1,8,0:0:0:0:
256,192,97105,1,0,0:0:0:0:
256,192,97196,1,8,0:0:0:0:
256,192,97287,1,0,0:0:0:0:
256,192,97378,1,8,0:0:0:0:
256,192,97423,1,8,0:0:0:0:
256,192,97468,1,0,0:0:0:0:
256,192,97514,1,0,0:0:0:0:
256,192,97559,1,8,0:0:0:0:
256,192,97650,1,0,0:0:0:0:
256,192,97741,1,8,0:0:0:0:
256,192,97787,1,0,0:0:0:0:
256,192,97832,1,8,0:0:0:0:
256,192,97878,1,8,0:0:0:0:
256,192,97923,1,0,0:0:0:0:
256,192,98014,1,8,0:0:0:0:
256,192,98105,1,0,0:0:0:0:
256,192,98150,1,0,0:0:0:0:
256,192,98196,1,0,0:0:0:0:
256,192,98287,1,8,0:0:0:0:
256,192,98378,1,8,0:0:0:0:
256,192,98468,1,0,0:0:0:0:
256,192,98559,1,0,0:0:0:0:
256,192,98650,1,8,0:0:0:0:
256,192,98696,1,8,0:0:0:0:
256,192,98741,1,8,0:0:0:0:
256,192,98787,1,8,0:0:0:0:
256,192,98832,1,0,0:0:0:0:
256,192,98878,1,0,0:0:0:0:
256,192,98923,1,0,0:0:0:0:
256,192,98968,1,0,0:0:0:0:
256,192,99014,1,8,0:0:0:0:
256,192,99105,1,0,0:0:0:0:
256,192,99196,1,8,0:0:0:0:
256,192,99241,1,8,0:0:0:0:
256,192,99287,1,0,0:0:0:0:
256,192,99378,1,8,0:0:0:0:
256,192,99468,1,0,0:0:0:0:
256,192,99559,1,8,0:0:0:0:
256,192,99605,1,8,0:0:0:0:
256,192,99650,1,0,0:0:0:0:
256,192,99696,1,0,0:0:0:0:
256,192,99741,1,8,0:0:0:0:
256,192,99832,1,0,0:0:0:0:
256,192,99878,1,0,0:0:0:0:
256,192,99923,1,8,0:0:0:0:
256,192,99968,1,8,0:0:0:0:
256,192,100014,1,0,0:0:0:0:
256,192,100105,1,8,0:0:0:0:
256,192,100196,1,0,0:0:0:0:
256,192,100287,1,8,0:0:0:0:
256,192,100378,1,0,0:0:0:0:
256,192,100423,1,0,0:0:0:0:
256,192,100468,1,8,0:0:0:0:
256,192,100559,1,0,0:0:0:0:
256,192,100650,1,8,0:0:0:0:
256,192,100696,1,8,0:0:0:0:
256,192,100741,1,0,0:0:0:0:
256,192,100832,1,8,0:0:0:0:
256,192,100923,1,0,0:0:0:0:
256,192,100968,1,0,0:0:0:0:
256,192,101014,1,8,0:0:0:0:
256,192,101059,1,8,0:0:0:0:
256,192,101105,1,0,0:0:0:0:
256,192,101196,1,8,0:0:0:0:
256,192,101287,1,0,0:0:0:0:
256,192,101332,1,0,0:0:0:0:
256,192,101378,1,8,0:0:0:0:
256,192,101468,1,0,0:0:0:0:
256,192,101559,1,8,0:0:0:0:
256,192,101605,1,8,0:0:0:0:
256,192,101650,1,8,0:0:0:0:
256,192,101696,1,8,0:0:0:0:
256,192,101741,1,0,0:0:0:0:
256,192,101832,1,0,0:0:0:0:
256,192,101923,1,8,0:0:0:0:
256,192,101968,1,8,0:0:0:0:
256,192,102014,1,8,0:0:0:0:
256,192,102059,1,8,0:0:0:0:
256,192,102105,1,0,0:0:0:0:
256,192,102196,1,8,0:0:0:0:
256,192,102287,1,0,0:0:0:0:
256,192,102332,1,0,0:0:0:0:
256,192,102378,1,8,0:0:0:0:
256,192,102468,1,0,0:0:0:0:
256,192,102559,1,0,0:0:0:0:
256,192,102650,1,8,0:0:0:0:
256,192,102696,1,8,0:0:0:0:
256,192,102741,1,0,0:0:0:0:
256,192,102832,1,8,0:0:0:0:
256,192,102878,1,8,0:0:0:0:
256,192,102923,1,0,0:0:0:0:
256,192,103014,1,8,0:0:0:0:
256,192,103105,1,0,0:0:0:0:
256,192,103196,1,8,0:0:0:0:
256,192,103241,1,8,0:0:0:0:
256,192,103287,1,8,0:0:0:0:
256,192,103332,1,8,0:0:0:0:
256,192,103378,1,0,0:0:0:0:
256,192,103468,1,8,0:0:0:0:
256,192,103559,1,0,0:0:0:0:
256,192,103650,1,0,0:0:0:0:
256,192,103741,1,8,0:0:0:0:
256,192,103787,1,8,0:0:0:0:
256,192,103832,1,8,0:0:0:0:
256,192,103923,1,0,0:0:0:0:
256,192,103968,1,8,0:0:0:0:
256,192,104014,1,0,0:0:0:0:
256,192,104105,1,8,0:0:0:0:
256,192,104150,1,8,0:0:0:0:
256,192,104196,1,0,0:0:0:0:
256,192,104287,1,8,0:0:0:0:
256,192,104378,1,0,0:0:0:0:
256,192,104468,1,8,0:0:0:0:
256,192,104514,1,8,0:0:0:0:
256,192,104559,1,8,0:0:0:0:
256,192,104605,1,8,0:0:0:0:
256,192,104650,1,0,0:0:0:0:
288,192,104696,1,0,0:0:0:0:
288,192,104741,1,0,0:0:0:0:
256,192,104787,1,0,0:0:0:0:
288,192,104832,1,8,0:0:0:0:
288,192,104923,1,0,0:0:0:0:
288,192,105014,1,8,0:0:0:0:
288,192,105059,1,0,0:0:0:0:
288,192,105105,1,0,0:0:0:0:
256,192,105196,1,8,0:0:0:0:
256,192,105287,1,8,0:0:0:0:
256,192,105378,1,0,0:0:0:0:
256,192,105468,1,8,0:0:0:0:
256,192,105559,1,0,0:0:0:0:
256,192,105605,1,0,0:0:0:0:
256,192,105650,1,0,0:0:0:0:
256,192,105741,1,8,0:0:0:0:
256,192,105923,1,0,0:0:0:0:
256,192,106105,1,12,0:0:0:0:
256,192,106287,1,0,0:0:0:0:
256,192,106468,1,8,0:0:0:0:
256,192,107196,1,8,0:0:0:0:
256,192,107923,1,8,0:0:0:0:
256,192,108650,1,8,0:0:0:0:
256,192,108832,1,8,0:0:0:0:
256,192,108923,1,0,0:0:0:0:
256,192,109014,1,0,0:0:0:0:
256,192,109378,1,8,0:0:0:0:
256,192,110105,1,8,0:0:0:0:
256,192,110832,1,8,0:0:0:0:
256,192,111559,1,8,0:0:0:0:
256,192,111741,1,0,0:0:0:0:
256,192,111832,1,8,0:0:0:0:
256,192,111923,1,0,0:0:0:0:
256,192,112287,1,8,0:0:0:0:
256,192,113014,1,8,0:0:0:0:
256,192,113741,1,8,0:0:0:0:
256,192,114468,1,8,0:0:0:0:
256,192,114650,1,8,0:0:0:0:
256,192,114741,1,8,0:0:0:0:
256,192,114832,1,0,0:0:0:0:
256,192,115196,1,8,0:0:0:0:
256,192,115923,1,8,0:0:0:0:
256,192,116650,1,8,0:0:0:0:
256,192,117378,1,8,0:0:0:0:
256,192,117559,1,0,0:0:0:0:
256,192,117741,1,12,0:0:0:0:
256,192,123196,5,0,0:0:0:0:
256,192,123378,1,0,0:0:0:0:
256,192,123559,1,12,0:0:0:0:
256,192,123741,1,0,0:0:0:0:
256,192,123923,1,8,0:0:0:0:
256,192,124287,1,0,0:0:0:0:
256,192,124650,1,8,0:0:0:0:
256,192,125014,1,0,0:0:0:0:
256,192,125378,1,8,0:0:0:0:
256,192,125741,1,0,0:0:0:0:
256,192,126105,1,8,0:0:0:0:
256,192,126287,1,0,0:0:0:0:
256,192,126468,1,0,0:0:0:0:
256,192,126832,1,8,0:0:0:0:
256,192,127196,1,0,0:0:0:0:
256,192,127559,1,8,0:0:0:0:
256,192,127923,1,0,0:0:0:0:
256,192,128287,1,8,0:0:0:0:
256,192,128378,1,8,0:0:0:0:
256,192,128559,1,8,0:0:0:0:
256,192,128650,1,0,0:0:0:0:
256,192,128741,1,0,0:0:0:0:
256,192,128832,1,8,0:0:0:0:
256,192,128923,1,0,0:0:0:0:
256,192,129014,1,8,0:0:0:0:
256,192,129059,1,8,0:0:0:0:
256,192,129105,1,8,0:0:0:0:
256,192,129150,1,8,0:0:0:0:
256,192,129196,1,0,0:0:0:0:
256,192,129287,1,0,0:0:0:0:
256,192,129378,1,12,0:0:0:0:
256,192,129468,1,0,0:0:0:0:
256,192,129514,1,0,0:0:0:0:
256,192,129559,1,8,0:0:0:0:
256,192,129650,1,0,0:0:0:0:
256,192,129741,1,8,0:0:0:0:
256,192,129787,1,8,0:0:0:0:
256,192,129832,1,0,0:0:0:0:
256,192,129923,1,8,0:0:0:0:
256,192,130014,1,0,0:0:0:0:
256,192,130059,1,0,0:0:0:0:
256,192,130105,1,8,0:0:0:0:
256,192,130150,1,8,0:0:0:0:
256,192,130196,1,0,0:0:0:0:
256,192,130287,1,8,0:0:0:0:
256,192,130332,1,8,0:0:0:0:
256,192,130378,1,0,0:0:0:0:
256,192,130423,1,0,0:0:0:0:
256,192,130468,1,8,0:0:0:0:
256,192,130559,1,0,0:0:0:0:
256,192,130650,1,8,0:0:0:0:
256,192,130696,1,8,0:0:0:0:
256,192,130741,1,8,0:0:0:0:
256,192,130787,1,8,0:0:0:0:
256,192,130832,1,0,0:0:0:0:
256,192,130923,1,0,0:0:0:0:
256,192,131014,1,8,0:0:0:0:
256,192,131059,1,8,0:0:0:0:
256,192,131105,1,8,0:0:0:0:
256,192,131150,1,8,0:0:0:0:
256,192,131196,1,0,0:0:0:0:
256,192,131287,1,0,0:0:0:0:
256,192,131378,1,8,0:0:0:0:
256,192,131423,1,8,0:0:0:0:
256,192,131468,1,0,0:0:0:0:
256,192,131559,1,8,0:0:0:0:
256,192,131650,1,0,0:0:0:0:
256,192,131696,1,0,0:0:0:0:
256,192,131741,1,8,0:0:0:0:
256,192,131832,1,0,0:0:0:0:
256,192,131878,1,0,0:0:0:0:
256,192,131923,1,8,0:0:0:0:
256,192,132014,1,0,0:0:0:0:
256,192,132105,1,8,0:0:0:0:
256,192,132150,1,8,0:0:0:0:
256,192,132196,1,0,0:0:0:0:
256,192,132287,1,8,0:0:0:0:
256,192,132332,1,8,0:0:0:0:
256,192,132378,1,0,0:0:0:0:
256,192,132423,1,0,0:0:0:0:
256,192,132468,1,8,0:0:0:0:
256,192,132559,1,0,0:0:0:0:
256,192,132650,1,8,0:0:0:0:
256,192,132696,1,0,0:0:0:0:
256,192,132741,1,8,0:0:0:0:
256,192,132787,1,8,0:0:0:0:
256,192,132832,1,0,0:0:0:0:
256,192,132923,1,8,0:0:0:0:
256,192,133014,1,0,0:0:0:0:
256,192,133059,1,0,0:0:0:0:
256,192,133105,1,0,0:0:0:0:
256,192,133196,1,8,0:0:0:0:
256,192,133241,1,8,0:0:0:0:
256,192,133287,1,8,0:0:0:0:
256,192,133378,1,0,0:0:0:0:
256,192,133468,1,0,0:0:0:0:
256,192,133559,1,8,0:0:0:0:
256,192,133605,1,8,0:0:0:0:
256,192,133650,1,8,0:0:0:0:
256,192,133696,1,8,0:0:0:0:
256,192,133741,1,0,0:0:0:0:
256,192,133787,1,0,0:0:0:0:
256,192,133832,1,0,0:0:0:0:
256,192,133878,1,0,0:0:0:0:
256,192,133923,1,8,0:0:0:0:
256,192,134014,1,0,0:0:0:0:
256,192,134059,1,0,0:0:0:0:
256,192,134105,1,8,0:0:0:0:
256,192,134150,1,8,0:0:0:0:
256,192,134196,1,0,0:0:0:0:
256,192,134287,1,8,0:0:0:0:
256,192,134378,1,0,0:0:0:0:
256,192,134423,1,0,0:0:0:0:
256,192,134468,1,8,0:0:0:0:
256,192,134559,1,0,0:0:0:0:
256,192,134650,1,8,0:0:0:0:
256,192,134696,1,8,0:0:0:0:
256,192,134741,1,0,0:0:0:0:
256,192,134787,1,0,0:0:0:0:
256,192,134832,1,8,0:0:0:0:
256,192,134923,1,0,0:0:0:0:
256,192,134968,1,0,0:0:0:0:
256,192,135014,1,0,0:0:0:0:
256,192,135105,1,8,0:0:0:0:
256,192,135196,1,0,0:0:0:0:
256,192,135241,1,0,0:0:0:0:
256,192,135287,1,8,0:0:0:0:
256,192,135332,1,0,0:0:0:0:
256,192,135378,1,8,0:0:0:0:
256,192,135468,1,0,0:0:0:0:
256,192,135559,1,8,0:0:0:0:
256,192,135605,1,8,0:0:0:0:
256,192,135650,1,0,0:0:0:0:
256,192,135741,1,8,0:0:0:0:
256,192,135832,1,0,0:0:0:0:
256,192,135878,1,0,0:0:0:0:
256,192,135923,1,8,0:0:0:0:
256,192,135968,1,8,0:0:0:0:
256,192,136014,1,0,0:0:0:0:
256,192,136105,1,8,0:0:0:0:
256,192,136150,1,8,0:0:0:0:
256,192,136196,1,0,0:0:0:0:
256,192,136241,1,0,0:0:0:0:
256,192,136287,1,8,0:0:0:0:
256,192,136378,1,0,0:0:0:0:
256,192,136468,1,8,0:0:0:0:
256,192,136514,1,8,0:0:0:0:
256,192,136559,1,8,0:0:0:0:
256,192,136605,1,8,0:0:0:0:
256,192,136650,1,0,0:0:0:0:
256,192,136741,1,0,0:0:0:0:
256,192,136832,1,8,0:0:0:0:
256,192,136878,1,8,0:0:0:0:
256,192,136923,1,8,0:0:0:0:
256,192,136968,1,8,0:0:0:0:
256,192,137014,1,0,0:0:0:0:
256,192,137105,1,8,0:0:0:0:
256,192,137196,1,0,0:0:0:0:
256,192,137241,1,0,0:0:0:0:
256,192,137287,1,8,0:0:0:0:
256,192,137378,1,0,0:0:0:0:
256,192,137468,1,0,0:0:0:0:
256,192,137559,1,8,0:0:0:0:
256,192,137605,1,8,0:0:0:0:
256,192,137650,1,0,0:0:0:0:
256,192,137741,1,8,0:0:0:0:
256,192,137787,1,8,0:0:0:0:
256,192,137832,1,0,0:0:0:0:
256,192,137923,1,8,0:0:0:0:
256,192,138014,1,0,0:0:0:0:
256,192,138059,1,0,0:0:0:0:
256,192,138105,1,8,0:0:0:0:
256,192,138150,1,8,0:0:0:0:
256,192,138196,1,8,0:0:0:0:
256,192,138241,1,8,0:0:0:0:
256,192,138287,1,0,0:0:0:0:
256,192,138378,1,8,0:0:0:0:
256,192,138468,1,0,0:0:0:0:
256,192,138559,1,8,0:0:0:0:
256,192,138650,1,0,0:0:0:0:
256,192,138696,1,0,0:0:0:0:
256,192,138741,1,8,0:0:0:0:
256,192,138832,1,0,0:0:0:0:
256,192,138878,1,0,0:0:0:0:
256,192,138923,1,0,0:0:0:0:
256,192,139014,1,8,0:0:0:0:
256,192,139059,1,8,0:0:0:0:
256,192,139105,1,0,0:0:0:0:
256,192,139150,1,0,0:0:0:0:
256,192,139196,1,8,0:0:0:0:
256,192,139287,1,0,0:0:0:0:
256,192,139378,1,8,0:0:0:0:
256,192,139423,1,8,0:0:0:0:
256,192,139468,1,8,0:0:0:0:
256,192,139514,1,8,0:0:0:0:
256,192,139559,1,0,0:0:0:0:
288,192,139605,1,0,0:0:0:0:
288,192,139650,1,0,0:0:0:0:
288,192,139696,1,0,0:0:0:0:
256,192,139741,1,8,0:0:0:0:
288,192,139832,1,0,0:0:0:0:
288,192,139923,1,8,0:0:0:0:
256,192,139968,1,0,0:0:0:0:
288,192,140014,1,8,0:0:0:0:
256,192,140059,1,8,0:0:0:0:
256,192,140105,1,0,0:0:0:0:
256,192,140196,1,8,0:0:0:0:
256,192,140287,1,0,0:0:0:0:
256,192,140332,1,0,0:0:0:0:
256,192,140378,1,8,0:0:0:0:
256,192,140423,1,8,0:0:0:0:
256,192,140468,1,0,0:0:0:0:
256,192,140559,1,0,0:0:0:0:
256,192,140650,1,8,0:0:0:0:
256,192,140832,1,0,0:0:0:0:
256,192,141014,1,12,0:0:0:0:
256,192,141105,1,0,0:0:0:0:
256,192,141150,1,0,0:0:0:0:
256,192,141196,1,8,0:0:0:0:
256,192,141287,1,0,0:0:0:0:
256,192,141378,1,8,0:0:0:0:
256,192,141423,1,8,0:0:0:0:
256,192,141468,1,0,0:0:0:0:
256,192,141559,1,8,0:0:0:0:
256,192,141650,1,0,0:0:0:0:
256,192,141696,5,0,0:0:0:0:
256,192,141741,1,8,0:0:0:0:
256,192,141787,1,8,0:0:0:0:
256,192,141832,1,0,0:0:0:0:
256,192,141923,1,8,0:0:0:0:
256,192,141968,1,8,0:0:0:0:
256,192,142014,1,0,0:0:0:0:
256,192,142059,1,0,0:0:0:0:
256,192,142105,1,8,0:0:0:0:
256,192,142196,1,0,0:0:0:0:
256,192,142287,1,8,0:0:0:0:
256,192,142332,1,8,0:0:0:0:
256,192,142378,1,8,0:0:0:0:
256,192,142468,1,0,0:0:0:0:
256,192,142514,1,0,0:0:0:0:
256,192,142559,1,0,0:0:0:0:
256,192,142605,1,0,0:0:0:0:
256,192,142650,1,8,0:0:0:0:
256,192,142696,1,8,0:0:0:0:
256,192,142741,1,8,0:0:0:0:
256,192,142787,1,8,0:0:0:0:
256,192,142832,1,0,0:0:0:0:
256,192,142923,1,8,0:0:0:0:
256,192,142968,1,8,0:0:0:0:
256,192,143014,1,0,0:0:0:0:
256,192,143105,1,0,0:0:0:0:
256,192,143196,1,8,0:0:0:0:
256,192,143287,1,0,0:0:0:0:
256,192,143332,1,0,0:0:0:0:
256,192,143378,1,8,0:0:0:0:
256,192,143468,1,0,0:0:0:0:
256,192,143514,1,0,0:0:0:0:
256,192,143559,1,8,0:0:0:0:
256,192,143650,1,0,0:0:0:0:
256,192,143741,1,8,0:0:0:0:
288,192,143787,1,8,0:0:0:0:
256,192,143832,1,0,0:0:0:0:
256,192,143923,1,8,0:0:0:0:
256,192,143968,1,8,0:0:0:0:
256,192,144014,1,0,0:0:0:0:
256,192,144059,1,0,0:0:0:0:
256,192,144105,1,8,0:0:0:0:
256,192,144196,1,0,0:0:0:0:
256,192,144287,1,8,0:0:0:0:
256,192,144332,1,0,0:0:0:0:
256,192,144378,1,8,0:0:0:0:
256,192,144423,1,8,0:0:0:0:
256,192,144468,1,0,0:0:0:0:
256,192,144559,1,8,0:0:0:0:
256,192,144650,1,0,0:0:0:0:
256,192,144696,1,0,0:0:0:0:
256,192,144741,1,0,0:0:0:0:
288,192,144787,1,0,0:0:0:0:
256,192,144832,1,8,0:0:0:0:
256,192,144923,1,0,0:0:0:0:
288,192,144968,1,0,0:0:0:0:
256,192,145014,1,8,0:0:0:0:
256,192,145105,1,0,0:0:0:0:
256,192,145196,1,8,0:0:0:0:
256,192,145241,1,8,0:0:0:0:
256,192,145287,1,8,0:0:0:0:
256,192,145332,1,8,0:0:0:0:
256,192,145378,1,0,0:0:0:0:
256,192,145423,1,0,0:0:0:0:
256,192,145468,1,0,0:0:0:0:
288,192,145514,1,0,0:0:0:0:
256,192,145559,1,8,0:0:0:0:
256,192,145650,1,0,0:0:0:0:
256,192,145696,1,0,0:0:0:0:
256,192,145741,1,8,0:0:0:0:
256,192,145787,1,8,0:0:0:0:
256,192,145832,1,0,0:0:0:0:
256,192,145923,1,8,0:0:0:0:
256,192,146014,1,0,0:0:0:0:
256,192,146105,1,8,0:0:0:0:
256,192,146150,1,8,0:0:0:0:
256,192,146196,1,0,0:0:0:0:
256,192,146241,1,0,0:0:0:0:
256,192,146287,1,8,0:0:0:0:
256,192,146378,1,0,0:0:0:0:
256,192,146423,1,0,0:0:0:0:
256,192,146468,1,8,0:0:0:0:
256,192,146514,1,8,0:0:0:0:
256,192,146559,1,0,0:0:0:0:
256,192,146650,1,8,0:0:0:0:
256,160,146696,1,0,0:0:0:0:
256,192,146741,1,0,0:0:0:0:
256,192,146832,1,8,0:0:0:0:
256,192,146923,1,0,0:0:0:0:
256,192,146968,1,0,0:0:0:0:
256,192,147014,1,8,0:0:0:0:
256,192,147105,1,0,0:0:0:0:
256,192,147196,1,8,0:0:0:0:
256,192,147241,1,8,0:0:0:0:
256,192,147287,1,0,0:0:0:0:
256,192,147378,1,8,0:0:0:0:
256,192,147468,1,0,0:0:0:0:
256,192,147514,1,0,0:0:0:0:
256,192,147559,1,8,0:0:0:0:
256,192,147605,1,8,0:0:0:0:
256,192,147650,1,0,0:0:0:0:
256,192,147741,1,8,0:0:0:0:
256,192,147787,1,8,0:0:0:0:
256,192,147832,1,0,0:0:0:0:
256,192,147878,1,0,0:0:0:0:
256,192,147923,1,8,0:0:0:0:
256,192,148014,1,0,0:0:0:0:
256,192,148105,1,8,0:0:0:0:
256,192,148150,1,8,0:0:0:0:
256,192,148196,1,8,0:0:0:0:
256,192,148241,1,8,0:0:0:0:
256,192,148287,1,0,0:0:0:0:
256,192,148378,1,0,0:0:0:0:
256,192,148468,1,8,0:0:0:0:
256,192,148514,1,8,0:0:0:0:
256,192,148559,1,8,0:0:0:0:
256,192,148605,1,8,0:0:0:0:
256,192,148650,1,0,0:0:0:0:
256,192,148741,1,8,0:0:0:0:
256,192,148832,1,0,0:0:0:0:
256,192,148878,1,0,0:0:0:0:
256,192,148923,1,8,0:0:0:0:
256,192,149014,1,0,0:0:0:0:
256,192,149105,1,0,0:0:0:0:
256,192,149196,1,8,0:0:0:0:
256,192,149241,1,8,0:0:0:0:
256,192,149287,1,0,0:0:0:0:
256,192,149378,1,8,0:0:0:0:
256,192,149423,1,8,0:0:0:0:
256,192,149468,1,0,0:0:0:0:
256,192,149514,1,0,0:0:0:0:
256,192,149559,1,8,0:0:0:0:
256,192,149650,1,0,0:0:0:0:
256,192,149741,1,8,0:0:0:0:
256,192,149787,1,8,0:0:0:0:
256,192,149832,1,8,0:0:0:0:
256,192,149878,1,8,0:0:0:0:
256,192,149923,1,0,0:0:0:0:
256,192,150014,1,8,0:0:0:0:
256,192,150105,1,0,0:0:0:0:
256,192,150196,1,0,0:0:0:0:
256,192,150287,1,8,0:0:0:0:
256,192,150332,1,8,0:0:0:0:
256,192,150378,1,8,0:0:0:0:
256,192,150468,1,0,0:0:0:0:
256,192,150514,1,8,0:0:0:0:
256,192,150559,1,0,0:0:0:0:
256,192,150650,1,8,0:0:0:0:
256,192,150696,1,8,0:0:0:0:
256,192,150741,1,0,0:0:0:0:
256,192,150832,1,8,0:0:0:0:
256,192,150923,1,0,0:0:0:0:
256,192,151014,1,8,0:0:0:0:
256,192,151059,1,8,0:0:0:0:
256,192,151105,1,8,0:0:0:0:
256,192,151150,1,8,0:0:0:0:
256,192,151196,1,0,0:0:0:0:
288,192,151241,1,0,0:0:0:0:
288,192,151287,1,0,0:0:0:0:
256,192,151332,1,0,0:0:0:0:
288,192,151378,1,8,0:0:0:0:
288,192,151468,1,0,0:0:0:0:
288,192,151559,1,8,0:0:0:0:
288,192,151605,1,8,0:0:0:0:
288,192,151650,1,0,0:0:0:0:
256,192,151696,1,0,0:0:0:0:
256,192,151741,1,8,0:0:0:0:
256,192,151787,1,0,0:0:0:0:
256,192,151832,1,8,0:0:0:0:
256,192,151923,1,0,0:0:0:0:
256,192,152014,1,8,0:0:0:0:
256,192,152105,1,0,0:0:0:0:
256,192,152150,1,0,0:0:0:0:
256,192,152196,1,0,0:0:0:0:
256,192,152287,1,8,0:0:0:0:
256,192,152468,1,0,0:0:0:0:
256,192,152650,1,12,0:0:0:0:
256,192,152832,1,0,0:0:0:0:
256,192,152923,1,0,0:0:0:0:
256,192,153014,1,8,0:0:0:0:
256,192,153105,1,0,0:0:0:0:
256,192,153196,1,8,0:0:0:0:
256,192,153287,1,0,0:0:0:0:
256,192,153332,1,0,0:0:0:0:
256,192,153378,1,8,0:0:0:0:
256,192,153468,1,0,0:0:0:0:
256,192,153559,1,8,0:0:0:0:
256,192,153605,1,8,0:0:0:0:
256,192,153650,1,0,0:0:0:0:
256,192,153741,1,8,0:0:0:0:
256,192,153832,1,0,0:0:0:0:
256,192,153923,1,8,0:0:0:0:
256,192,154014,1,8,0:0:0:0:
256,192,154105,1,0,0:0:0:0:
256,192,154196,1,0,0:0:0:0:
256,192,154287,1,8,0:0:0:0:
256,192,154378,1,0,0:0:0:0:
256,192,154468,1,0,0:0:0:0:
256,192,154559,1,0,0:0:0:0:
256,192,154650,1,8,0:0:0:0:
256,192,154741,1,0,0:0:0:0:
256,192,154787,1,0,0:0:0:0:
256,192,154832,1,8,0:0:0:0:
256,192,154923,1,0,0:0:0:0:
256,192,155014,1,8,0:0:0:0:
256,192,155059,1,8,0:0:0:0:
256,192,155105,1,0,0:0:0:0:
256,192,155196,1,8,0:0:0:0:
256,192,155287,1,0,0:0:0:0:
256,192,155378,1,8,0:0:0:0:
256,192,155468,1,8,0:0:0:0:
256,192,155559,1,0,0:0:0:0:
256,192,155650,1,8,0:0:0:0:
256,192,155741,1,0,0:0:0:0:
256,192,155832,1,0,0:0:0:0:
256,192,155923,1,8,0:0:0:0:
256,192,156014,1,0,0:0:0:0:
256,192,156105,1,8,0:0:0:0:
256,192,156196,1,0,0:0:0:0:
256,192,156241,1,0,0:0:0:0:
256,192,156287,1,8,0:0:0:0:
256,192,156378,1,0,0:0:0:0:
256,192,156468,1,8,0:0:0:0:
256,192,156514,1,8,0:0:0:0:
256,192,156559,1,0,0:0:0:0:
256,192,156650,1,8,0:0:0:0:
256,192,156741,1,0,0:0:0:0:
256,192,156832,1,8,0:0:0:0:
256,192,156923,1,8,0:0:0:0:
256,192,157014,1,0,0:0:0:0:
256,192,157105,1,0,0:0:0:0:
256,192,157196,1,8,0:0:0:0:
256,192,157287,1,0,0:0:0:0:
256,192,157378,1,8,0:0:0:0:
256,192,157468,1,8,0:0:0:0:
256,192,157559,1,0,0:0:0:0:
256,192,157650,1,8,0:0:0:0:
256,192,157741,1,0,0:0:0:0:
256,192,157832,1,0,0:0:0:0:
256,192,157923,1,8,0:0:0:0:
256,192,158014,1,0,0:0:0:0:
256,192,158105,1,8,0:0:0:0:
256,192,158196,1,8,0:0:0:0:
256,192,158287,1,0,0:0:0:0:
256,192,158378,1,8,0:0:0:0:
256,192,158468,1,0,0:0:0:0:
256,192,158559,1,8,0:0:0:0:
256,192,158650,1,8,0:0:0:0:
256,192,158741,1,8,0:0:0:0:
256,192,158832,1,0,0:0:0:0:
256,192,158923,1,0,0:0:0:0:
256,192,159014,1,8,0:0:0:0:
256,192,159059,1,8,0:0:0:0:
256,192,159105,1,8,0:0:0:0:
256,192,159150,1,8,0:0:0:0:
256,192,159196,1,0,0:0:0:0:
256,192,159287,1,0,0:0:0:0:
256,192,159378,1,8,0:0:0:0:
256,192,159423,1,8,0:0:0:0:
256,192,159468,1,0,0:0:0:0:
256,192,159514,1,0,0:0:0:0:
256,192,159559,1,8,0:0:0:0:
256,192,159650,1,0,0:0:0:0:
256,192,159741,1,8,0:0:0:0:
256,192,159832,1,8,0:0:0:0:
256,192,159923,1,0,0:0:0:0:
256,192,160014,1,0,0:0:0:0:
256,192,160105,1,8,0:0:0:0:
256,192,160196,1,0,0:0:0:0:
256,192,160287,1,0,0:0:0:0:
256,192,160378,1,0,0:0:0:0:
256,192,160468,1,8,0:0:0:0:
256,192,160514,1,8,0:0:0:0:
256,192,160559,1,8,0:0:0:0:
256,192,160605,1,8,0:0:0:0:
256,192,160650,1,0,0:0:0:0:
256,192,160741,1,0,0:0:0:0:
256,192,160832,1,8,0:0:0:0:
256,192,160878,1,8,0:0:0:0:
256,192,160923,1,0,0:0:0:0:
256,192,160968,1,0,0:0:0:0:
256,192,161014,1,8,0:0:0:0:
256,192,161105,1,0,0:0:0:0:
256,192,161196,1,8,0:0:0:0:
256,192,161287,1,8,0:0:0:0:
256,192,161378,1,0,0:0:0:0:
256,192,161468,1,0,0:0:0:0:
256,192,161559,1,8,0:0:0:0:
256,192,161650,1,0,0:0:0:0:
256,192,161741,1,8,0:0:0:0:
256,192,161832,1,0,0:0:0:0:
256,192,161923,1,8,0:0:0:0:
256,192,161968,1,8,0:0:0:0:
256,192,162014,1,8,0:0:0:0:
256,192,162059,1,8,0:0:0:0:
256,192,162105,1,0,0:0:0:0:
256,192,162196,1,0,0:0:0:0:
256,192,162287,1,8,0:0:0:0:
256,192,162332,1,8,0:0:0:0:
256,192,162378,1,0,0:0:0:0:
256,192,162423,1,0,0:0:0:0:
256,192,162468,1,8,0:0:0:0:
256,192,162559,1,0,0:0:0:0:
256,192,162650,1,8,0:0:0:0:
256,192,162741,1,8,0:0:0:0:
256,192,162832,1,0,0:0:0:0:
256,192,162923,1,0,0:0:0:0:
256,192,163014,1,8,0:0:0:0:
256,192,163105,1,0,0:0:0:0:
256,192,163196,1,8,0:0:0:0:
256,192,163378,1,0,0:0:0:0:
256,192,163468,1,8,0:0:0:0:
256,192,163559,1,0,0:0:0:0:
256,192,163741,1,8,0:0:0:0:
256,192,163923,1,8,0:0:0:0:
256,192,164105,1,0,0:0:0:0:
256,192,164287,1,12,0:0:0:0:
256,192,164378,1,0,0:0:0:0:
256,192,164423,1,0,0:0:0:0:
256,192,164468,1,8,0:0:0:0:
256,192,164559,1,0,0:0:0:0:
256,192,164650,1,8,0:0:0:0:
256,192,164696,1,8,0:0:0:0:
256,192,164741,1,0,0:0:0:0:
256,192,164832,1,8,0:0:0:0:
256,192,164923,1,0,0:0:0:0:
256,192,165014,1,8,0:0:0:0:
256,192,165059,1,8,0:0:0:0:
256,192,165105,1,8,0:0:0:0:
256,192,165150,1,8,0:0:0:0:
256,192,165196,1,0,0:0:0:0:
256,192,165287,1,0,0:0:0:0:
256,192,165378,1,8,0:0:0:0:
256,192,165423,1,8,0:0:0:0:
256,192,165468,1,0,0:0:0:0:
256,192,165559,1,8,0:0:0:0:
256,192,165605,1,8,0:0:0:0:
256,192,165650,1,8,0:0:0:0:
256,192,165696,1,8,0:0:0:0:
256,192,165741,1,0,0:0:0:0:
256,192,165832,1,0,0:0:0:0:
256,192,165923,1,8,0:0:0:0:
256,192,165968,1,8,0:0:0:0:
256,192,166014,1,8,0:0:0:0:
256,192,166059,1,8,0:0:0:0:
256,192,166105,1,0,0:0:0:0:
256,192,166150,1,0,0:0:0:0:
256,192,166196,1,0,0:0:0:0:
256,192,166241,1,0,0:0:0:0:
256,192,166287,1,8,0:0:0:0:
256,192,166378,1,0,0:0:0:0:
256,192,166468,1,8,0:0:0:0:
256,192,166559,1,0,0:0:0:0:
256,192,166605,1,0,0:0:0:0:
256,192,166650,1,8,0:0:0:0:
256,192,166741,1,0,0:0:0:0:
256,192,166832,1,8,0:0:0:0:
256,192,166878,1,8,0:0:0:0:
256,192,166923,1,0,0:0:0:0:
256,192,166968,1,0,0:0:0:0:
256,192,167014,1,8,0:0:0:0:
256,192,167105,1,0,0:0:0:0:
256,192,167196,1,8,0:0:0:0:
256,192,167287,1,0,0:0:0:0:
256,192,167332,1,0,0:0:0:0:
256,192,167378,1,8,0:0:0:0:
256,192,167468,1,0,0:0:0:0:
256,192,167559,1,8,0:0:0:0:
256,192,167605,1,8,0:0:0:0:
256,192,167650,1,0,0:0:0:0:
256,192,167741,1,8,0:0:0:0:
256,192,167832,1,0,0:0:0:0:
256,192,167878,1,0,0:0:0:0:
256,192,167923,1,8,0:0:0:0:
256,192,167968,1,8,0:0:0:0:
256,192,168014,1,0,0:0:0:0:
256,192,168105,1,8,0:0:0:0:
256,192,168150,1,8,0:0:0:0:
256,192,168196,1,0,0:0:0:0:
256,192,168241,1,0,0:0:0:0:
256,192,168287,1,8,0:0:0:0:
256,192,168378,1,0,0:0:0:0:
256,192,168468,1,8,0:0:0:0:
256,192,168514,1,8,0:0:0:0:
256,192,168559,1,8,0:0:0:0:
256,192,168650,1,0,0:0:0:0:
256,192,168741,1,0,0:0:0:0:
256,192,168832,1,8,0:0:0:0:
256,192,168923,1,0,0:0:0:0:
256,192,168968,1,0,0:0:0:0:
256,192,169014,1,8,0:0:0:0:
256,192,169105,1,0,0:0:0:0:
256,192,169196,1,8,0:0:0:0:
256,192,169241,1,8,0:0:0:0:
256,192,169287,1,0,0:0:0:0:
256,192,169378,1,8,0:0:0:0:
256,192,169468,1,8,0:0:0:0:
256,192,169559,1,0,0:0:0:0:
256,192,169605,1,0,0:0:0:0:
256,192,169650,1,0,0:0:0:0:
256,192,169741,1,8,0:0:0:0:
256,192,169923,1,0,0:0:0:0:
256,192,170105,5,8,0:0:0:0:
256,192,170287,1,0,0:0:0:0:
256,192,170378,1,0,0:0:0:0:
256,192,170468,1,8,0:0:0:0:
256,192,170559,1,0,0:0:0:0:
256,192,170650,1,8,0:0:0:0:
256,192,170741,1,0,0:0:0:0:
256,192,170787,1,0,0:0:0:0:
256,192,170832,1,8,0:0:0:0:
256,192,170923,1,0,0:0:0:0:
256,192,171014,1,8,0:0:0:0:
256,192,171059,1,8,0:0:0:0:
256,192,171105,1,0,0:0:0:0:
256,192,171196,1,8,0:0:0:0:
256,192,171287,1,0,0:0:0:0:
256,192,171378,1,8,0:0:0:0:
256,192,171468,1,8,0:0:0:0:
256,192,171559,1,0,0:0:0:0:
256,192,171650,1,0,0:0:0:0:
256,192,171741,1,8,0:0:0:0:
256,192,171832,1,0,0:0:0:0:
256,192,171923,1,0,0:0:0:0:
256,192,172014,1,0,0:0:0:0:
256,192,172105,1,8,0:0:0:0:
256,192,172196,1,0,0:0:0:0:
256,192,172241,1,0,0:0:0:0:
256,192,172287,1,8,0:0:0:0:
256,192,172378,1,0,0:0:0:0:
256,192,172468,1,8,0:0:0:0:
256,192,172514,1,8,0:0:0:0:
256,192,172559,1,0,0:0:0:0:
256,192,172650,1,8,0:0:0:0:
256,192,172741,1,0,0:0:0:0:
256,192,172832,1,8,0:0:0:0:
256,192,172923,1,8,0:0:0:0:
256,192,173014,1,0,0:0:0:0:
256,192,173105,1,8,0:0:0:0:
256,192,173196,1,0,0:0:0:0:
256,192,173287,1,0,0:0:0:0:
256,192,173378,1,8,0:0:0:0:
256,192,173468,1,0,0:0:0:0:
256,192,173559,1,8,0:0:0:0:
256,192,173650,1,0,0:0:0:0:
256,192,173696,1,0,0:0:0:0:
256,192,173741,1,8,0:0:0:0:
256,192,173832,1,0,0:0:0:0:
256,192,173923,1,8,0:0:0:0:
256,192,173968,1,8,0:0:0:0:
256,192,174014,1,0,0:0:0:0:
256,192,174105,1,8,0:0:0:0:
256,192,174196,1,0,0:0:0:0:
256,192,174287,1,8,0:0:0:0:
256,192,174378,1,8,0:0:0:0:
256,192,174468,1,0,0:0:0:0:
256,192,174559,1,0,0:0:0:0:
256,192,174650,1,8,0:0:0:0:
256,192,174696,1,8,0:0:0:0:
256,192,174741,1,0,0:0:0:0:
256,192,174832,1,8,0:0:0:0:
256,192,174878,1,8,0:0:0:0:
256,192,174923,1,8,0:0:0:0:
256,192,174968,1,8,0:0:0:0:
256,192,175014,1,0,0:0:0:0:
256,192,175105,1,8,0:0:0:0:
256,192,175196,1,0,0:0:0:0:
256,192,175241,1,8,0:0:0:0:
256,192,175287,1,0,0:0:0:0:
256,192,175378,1,8,0:0:0:0:
256,192,175468,1,0,0:0:0:0:
256,192,175514,1,0,0:0:0:0:
256,192,175559,1,8,0:0:0:0:
256,192,175650,1,8,0:0:0:0:
256,192,175741,1,0,0:0:0:0:
256,192,175923,1,12,0:0:0:0:
256,192,176105,1,0,0:0:0:0:
256,192,176196,1,0,0:0:0:0:
256,192,176287,1,8,0:0:0:0:
256,192,176468,1,0,0:0:0:0:
256,192,176650,1,8,0:0:0:0:
256,192,176741,1,0,0:0:0:0:
256,192,176923,1,0,0:0:0:0:
256,192,177014,1,8,0:0:0:0:
256,192,177196,1,0,0:0:0:0:
256,192,177287,1,0,0:0:0:0:
256,192,177378,1,8,0:0:0:0:
256,192,177468,1,8,0:0:0:0:
256,224,177559,1,0,0:0:0:0:
256,192,177741,1,8,0:0:0:0:
256,192,177923,1,0,0:0:0:0:
256,192,178014,1,0,0:0:0:0:
256,192,178105,1,8,0:0:0:0:
256,192,178287,1,0,0:0:0:0:
256,192,178468,1,8,0:0:0:0:
256,192,178650,1,8,0:0:0:0:
256,192,178741,1,0,0:0:0:0:
256,192,178832,1,0,0:0:0:0:
256,192,179014,1,0,0:0:0:0:
256,192,179196,1,8,0:0:0:0:
256,192,179378,1,0,0:0:0:0:
256,192,179468,1,8,0:0:0:0:
256,192,179559,1,0,0:0:0:0:
256,192,179741,1,8,0:0:0:0:
256,192,179923,1,0,0:0:0:0:
256,192,180105,1,8,0:0:0:0:
256,192,180196,1,8,0:0:0:0:
256,192,180287,1,8,0:0:0:0:
256,192,180378,1,8,0:0:0:0:
256,192,180468,1,0,0:0:0:0:
256,192,180650,1,8,0:0:0:0:
256,192,180832,1,0,0:0:0:0:
256,192,180923,1,8,0:0:0:0:
256,192,181014,1,8,0:0:0:0:
256,192,181105,1,8,0:0:0:0:
256,192,181196,1,0,0:0:0:0:
256,192,181378,1,8,0:0:0:0:
256,192,181559,1,0,0:0:0:0:
256,192,181741,1,8,0:0:0:0:
256,192,181923,1,0,0:0:0:0:
256,192,182014,1,0,0:0:0:0:
256,192,182105,1,8,0:0:0:0:
256,192,182287,1,0,0:0:0:0:
256,192,182468,1,8,0:0:0:0:
256,192,182559,1,0,0:0:0:0:
256,192,182741,1,0,0:0:0:0:
256,192,182832,1,8,0:0:0:0:
256,192,183014,1,8,0:0:0:0:
256,192,183105,1,8,0:0:0:0:
256,192,183196,1,0,0:0:0:0:
256,192,183378,1,0,0:0:0:0:
256,192,183468,1,0,0:0:0:0:
256,192,183559,1,8,0:0:0:0:
256,192,183741,1,0,0:0:0:0:
256,192,183923,1,8,0:0:0:0:
256,192,184014,1,8,0:0:0:0:
256,192,184196,1,8,0:0:0:0:
256,192,184287,1,0,0:0:0:0:
256,192,184468,1,8,0:0:0:0:
256,192,184559,1,0,0:0:0:0:
256,192,184650,1,0,0:0:0:0:
256,192,184832,1,0,0:0:0:0:
256,192,185014,1,8,0:0:0:0:
256,192,185196,1,0,0:0:0:0:
256,192,185287,1,0,0:0:0:0:
256,192,185378,1,8,0:0:0:0:
256,192,185559,1,8,0:0:0:0:
256,192,185741,1,0,0:0:0:0:
256,192,185923,5,8,0:0:0:0:
256,192,186014,1,8,0:0:0:0:
256,192,186105,1,8,0:0:0:0:
256,192,186196,1,8,0:0:0:0:
256,192,186287,1,0,0:0:0:0:
256,192,186468,1,8,0:0:0:0:
256,192,186650,1,0,0:0:0:0:
256,192,186741,1,8,0:0:0:0:
256,192,186923,1,8,0:0:0:0:
256,192,187014,1,0,0:0:0:0:
256,192,187196,1,8,0:0:0:0:
256,192,187378,1,0,0:0:0:0:
256,192,187559,1,12,0:0:0:0:
