osu file format v14

[General]
AudioFilename: audio.mp3
AudioLeadIn: 0
PreviewTime: 35559
Countdown: 0
SampleSet: Normal
StackLeniency: 0.7
Mode: 1
LetterboxInBreaks: 0
WidescreenStoryboard: 1

[Editor]
Bookmarks: 1381,13017,24653,36290,47926,59562,71199,82835,94471,106108,117744,129381,141017,152653,164290,175926,187562
DistanceSpacing: 0.8
BeatDivisor: 4
GridSize: 32
TimelineZoom: 3.099999

[Metadata]
Title:Super Sonic Racing
TitleUnicode:Super Sonic Racing
Artist:TJ Davis
ArtistUnicode:TJ Davis
Creator:Foxeru
Version:Coryn's Mono-ish Race
Source:Sonic R
Tags:ssr hirok coryn sega sound team richard jacques sonic the hedgehog video game soundtrack ost original english electronic
BeatmapID:2735488
BeatmapSetID:1315188

[Difficulty]
HPDrainRate:3
CircleSize:2
OverallDifficulty:5.5
ApproachRate:9
SliderMultiplier:1.4
SliderTickRate:1

[Events]
//Background and Video events
0,0,"bgc.png",0,0
//Break Periods
//Storyboard Layer 0 (Background)
//Storyboard Layer 1 (Fail)
//Storyboard Layer 2 (Pass)
//Storyboard Layer 3 (Foreground)
//Storyboard Layer 4 (Overlay)
//Storyboard Sound Samples

[TimingPoints]
650,363.636363636364,4,1,0,70,1,0
1378,363.636363636364,4,1,0,70,1,0
1559,-100,4,1,0,70,0,0
35559,-86.9565217391304,4,1,0,70,0,0
36287,-66.6666666666667,4,1,0,70,0,1
59559,-100,4,1,0,70,0,0
82105,-86.9565217391304,4,1,0,70,0,0
82832,-66.6666666666667,4,1,0,70,0,1
106105,-100,4,1,0,70,0,0
128287,-86.9565217391304,4,1,0,70,0,0
129378,-66.6666666666667,4,1,0,70,0,1
152650,-100,4,1,0,70,0,0
178832,-100,4,1,0,60,0,0
180105,-100,4,1,0,55,0,0
180287,-100,4,1,0,50,0,0
181741,-100,4,1,0,40,0,0
184650,-100,4,1,0,30,0,0
187650,-100,4,1,0,10,0,0

[HitObjects]
372,109,650,5,8,0:0:0:0:
372,109,710,1,8,0:0:0:0:
372,109,771,1,8,0:0:0:0:
372,109,831,1,8,0:0:0:0:
368,120,892,1,8,0:0:0:0:
368,120,953,1,8,0:0:0:0:
368,120,1013,1,8,0:0:0:0:
368,120,1074,1,8,0:0:0:0:
368,120,1134,1,8,0:0:0:0:
364,128,1195,1,8,0:0:0:0:
364,128,1256,1,8,0:0:0:0:
364,128,1316,1,8,0:0:0:0:
356,140,1377,1,0,0:0:0:0:
361,131,1559,1,0,0:0:0:0:
361,130,1741,1,8,0:0:0:0:
278,126,1923,1,0,0:0:0:0:
277,89,2014,1,8,0:0:0:0:
277,89,2105,1,8,0:0:0:0:
277,89,2196,1,8,0:0:0:0:
330,158,2287,1,0,0:0:0:0:
297,86,2468,1,8,0:0:0:0:
306,106,2650,1,0,0:0:0:0:
306,105,2741,1,8,0:0:0:0:
306,105,2832,1,0,0:0:0:0:
253,67,2923,1,0,0:0:0:0:
306,105,3014,1,0,0:0:0:0:
297,86,3196,1,8,0:0:0:0:
252,112,3378,1,0,0:0:0:0:
252,112,3468,1,8,0:0:0:0:
252,112,3559,1,8,0:0:0:0:
252,112,3650,1,8,0:0:0:0:
252,112,3741,1,0,0:0:0:0:
252,112,3832,1,0,0:0:0:0:
297,86,3923,1,8,0:0:0:0:
297,86,4105,1,0,0:0:0:0:
297,86,4196,1,8,0:0:0:0:
297,86,4287,1,0,0:0:0:0:
297,86,4468,1,0,0:0:0:0:
269,85,4650,1,8,0:0:0:0:
280,72,4832,1,0,0:0:0:0:
280,71,4923,1,8,0:0:0:0:
280,71,5014,1,8,0:0:0:0:
280,71,5105,1,8,0:0:0:0:
280,71,5196,1,0,0:0:0:0:
269,85,5378,1,8,0:0:0:0:
225,58,5559,1,0,0:0:0:0:
225,58,5650,1,8,0:0:0:0:
225,58,5741,1,0,0:0:0:0:
246,70,5832,1,0,0:0:0:0:
239,80,5923,1,0,0:0:0:0:
269,85,6105,1,8,0:0:0:0:
243,59,6287,1,0,0:0:0:0:
243,58,6378,1,8,0:0:0:0:
243,58,6468,1,8,0:0:0:0:
243,58,6559,1,8,0:0:0:0:
243,58,6650,1,0,0:0:0:0:
243,58,6741,1,0,0:0:0:0:
269,85,6832,1,8,0:0:0:0:
243,59,7014,1,0,0:0:0:0:
243,59,7105,1,8,0:0:0:0:
230,77,7196,1,4,0:0:0:0:
214,58,7378,1,0,0:0:0:0:
269,85,7559,1,8,0:0:0:0:
244,70,7741,1,0,0:0:0:0:
244,70,7832,1,8,0:0:0:0:
244,69,7923,1,8,0:0:0:0:
244,69,8014,1,8,0:0:0:0:
244,69,8105,1,0,0:0:0:0:
229,78,8287,1,8,0:0:0:0:
257,64,8468,1,0,0:0:0:0:
257,64,8559,1,8,0:0:0:0:
257,63,8650,1,0,0:0:0:0:
244,70,8741,1,0,0:0:0:0:
257,63,8832,1,0,0:0:0:0:
229,78,9014,1,8,0:0:0:0:
257,64,9196,1,0,0:0:0:0:
257,64,9287,1,8,0:0:0:0:
257,64,9378,1,8,0:0:0:0:
257,64,9468,1,8,0:0:0:0:
257,63,9559,1,0,0:0:0:0:
257,63,9650,1,0,0:0:0:0:
229,78,9741,1,8,0:0:0:0:
249,85,9923,1,0,0:0:0:0:
249,85,10014,1,8,0:0:0:0:
249,85,10105,1,0,0:0:0:0:
249,84,10287,1,0,0:0:0:0:
229,78,10468,1,8,0:0:0:0:
249,83,10650,1,0,0:0:0:0:
249,85,10741,1,8,0:0:0:0:
249,85,10832,1,8,0:0:0:0:
249,85,10923,1,8,0:0:0:0:
249,85,11014,1,0,0:0:0:0:
249,84,11105,1,0,0:0:0:0:
257,99,11196,1,8,0:0:0:0:
248,78,11378,1,0,0:0:0:0:
249,83,11468,1,8,0:0:0:0:
249,83,11559,1,0,0:0:0:0:
225,91,11650,1,0,0:0:0:0:
264,61,11741,1,0,0:0:0:0:
223,91,11832,1,0,0:0:0:0:
257,99,11923,1,8,0:0:0:0:
218,92,12014,1,0,0:0:0:0:
257,73,12105,1,0,0:0:0:0:
257,73,12196,1,8,0:0:0:0:
257,73,12287,1,8,0:0:0:0:
257,73,12378,1,8,0:0:0:0:
257,73,12468,1,0,0:0:0:0:
203,68,12559,1,0,0:0:0:0:
257,99,12650,1,8,0:0:0:0:
203,68,12741,1,0,0:0:0:0:
237,64,12832,1,0,0:0:0:0:
237,64,12923,1,8,0:0:0:0:
219,107,13014,1,4,0:0:0:0:
291,145,13196,1,8,0:0:0:0:
332,93,13378,1,8,0:0:0:0:
332,93,13468,1,8,0:0:0:0:
332,93,13559,1,8,0:0:0:0:
332,93,13741,1,0,0:0:0:0:
273,77,13832,1,8,0:0:0:0:
273,77,13923,1,8,0:0:0:0:
362,171,14014,1,0,0:0:0:0:
273,77,14105,1,8,0:0:0:0:
273,77,14196,1,8,0:0:0:0:
273,77,14287,1,8,0:0:0:0:
273,77,14468,1,0,0:0:0:0:
273,77,14559,1,8,0:0:0:0:
273,77,14650,1,8,0:0:0:0:
274,69,14832,1,8,0:0:0:0:
274,68,14923,1,8,0:0:0:0:
274,68,15014,1,8,0:0:0:0:
274,68,15196,1,0,0:0:0:0:
274,67,15287,1,8,0:0:0:0:
274,67,15378,1,8,0:0:0:0:
362,171,15468,1,0,0:0:0:0:
258,93,15559,1,8,0:0:0:0:
258,93,15650,1,8,0:0:0:0:
258,93,15741,1,8,0:0:0:0:
258,93,15923,1,0,0:0:0:0:
258,92,16014,1,0,0:0:0:0:
258,92,16105,1,8,0:0:0:0:
258,92,16287,1,8,0:0:0:0:
321,99,16378,1,0,0:0:0:0:
321,99,16468,1,8,0:0:0:0:
321,99,16650,1,0,0:0:0:0:
321,99,16741,1,0,0:0:0:0:
321,99,16832,1,8,0:0:0:0:
358,169,16923,1,8,0:0:0:0:
321,99,17014,1,8,0:0:0:0:
321,99,17105,1,0,0:0:0:0:
321,99,17196,1,8,0:0:0:0:
321,99,17378,1,0,0:0:0:0:
321,99,17468,1,0,0:0:0:0:
321,99,17559,1,8,0:0:0:0:
321,99,17741,1,8,0:0:0:0:
321,99,17832,1,0,0:0:0:0:
273,78,17923,1,8,0:0:0:0:
273,78,18105,1,0,0:0:0:0:
273,78,18196,1,0,0:0:0:0:
273,78,18287,1,8,0:0:0:0:
293,118,18378,1,8,0:0:0:0:
273,78,18468,1,8,0:0:0:0:
273,78,18559,1,0,0:0:0:0:
273,78,18650,1,8,0:0:0:0:
308,73,18832,1,0,0:0:0:0:
308,73,18923,1,8,0:0:0:0:
308,73,19014,1,8,0:0:0:0:
308,73,19196,1,8,0:0:0:0:
308,73,19287,1,8,0:0:0:0:
308,73,19378,1,8,0:0:0:0:
308,73,19559,1,0,0:0:0:0:
308,73,19650,1,8,0:0:0:0:
308,73,19741,1,8,0:0:0:0:
220,78,19832,1,0,0:0:0:0:
308,73,19923,1,8,0:0:0:0:
308,73,20014,1,8,0:0:0:0:
308,73,20105,1,8,0:0:0:0:
308,73,20287,1,0,0:0:0:0:
308,73,20378,1,8,0:0:0:0:
308,73,20468,1,8,0:0:0:0:
308,73,20650,1,8,0:0:0:0:
308,73,20741,1,8,0:0:0:0:
308,73,20832,1,8,0:0:0:0:
308,73,21014,1,0,0:0:0:0:
308,73,21105,1,8,0:0:0:0:
308,73,21196,1,8,0:0:0:0:
220,78,21287,1,0,0:0:0:0:
308,73,21378,1,8,0:0:0:0:
308,73,21468,1,8,0:0:0:0:
308,73,21559,1,8,0:0:0:0:
308,73,21741,1,0,0:0:0:0:
251,47,21832,1,8,0:0:0:0:
251,47,21923,1,0,0:0:0:0:
274,64,22105,1,8,0:0:0:0:
242,39,22196,1,0,0:0:0:0:
232,115,22287,1,0,0:0:0:0:
232,115,22468,1,0,0:0:0:0:
232,115,22559,1,8,0:0:0:0:
232,115,22650,1,0,0:0:0:0:
269,71,22741,1,8,0:0:0:0:
232,115,22832,1,8,0:0:0:0:
254,71,22923,1,0,0:0:0:0:
254,70,23014,1,0,0:0:0:0:
254,71,23196,1,0,0:0:0:0:
254,71,23287,1,8,0:0:0:0:
240,58,23378,1,8,0:0:0:0:
239,58,23559,1,8,0:0:0:0:
239,57,23650,1,8,0:0:0:0:
239,57,23741,1,8,0:0:0:0:
240,60,23923,1,0,0:0:0:0:
240,60,24014,1,8,0:0:0:0:
240,60,24105,1,8,0:0:0:0:
273,70,24196,1,0,0:0:0:0:
240,58,24287,1,8,0:0:0:0:
239,58,24378,1,8,0:0:0:0:
240,70,24468,1,8,0:0:0:0:
274,191,24650,1,4,0:0:0:0:
291,145,24832,1,8,0:0:0:0:
197,84,24923,1,0,0:0:0:0:
332,93,25014,1,8,0:0:0:0:
332,93,25104,1,8,0:0:0:0:
332,93,25195,1,8,0:0:0:0:
332,93,25377,1,0,0:0:0:0:
273,77,25468,1,8,0:0:0:0:
273,77,25559,1,8,0:0:0:0:
197,84,25650,1,0,0:0:0:0:
273,77,25741,1,8,0:0:0:0:
273,77,25832,1,8,0:0:0:0:
273,77,25923,1,8,0:0:0:0:
273,77,26104,1,0,0:0:0:0:
273,77,26195,1,8,0:0:0:0:
273,77,26286,1,8,0:0:0:0:
274,69,26468,1,8,0:0:0:0:
274,68,26559,1,8,0:0:0:0:
274,68,26650,1,8,0:0:0:0:
274,68,26832,1,0,0:0:0:0:
274,67,26923,1,8,0:0:0:0:
274,67,27014,1,8,0:0:0:0:
267,99,27105,1,0,0:0:0:0:
258,93,27195,1,8,0:0:0:0:
258,93,27286,1,8,0:0:0:0:
258,93,27377,1,8,0:0:0:0:
258,93,27559,1,0,0:0:0:0:
258,92,27741,1,8,0:0:0:0:
297,127,27832,1,0,0:0:0:0:
258,92,27923,1,8,0:0:0:0:
321,99,28014,1,0,0:0:0:0:
321,99,28104,1,8,0:0:0:0:
321,99,28286,1,0,0:0:0:0:
321,99,28377,1,0,0:0:0:0:
321,99,28468,1,8,0:0:0:0:
297,127,28559,1,0,0:0:0:0:
321,99,28650,1,8,0:0:0:0:
321,99,28741,1,0,0:0:0:0:
321,99,28832,1,8,0:0:0:0:
321,99,29014,1,0,0:0:0:0:
321,99,29104,1,0,0:0:0:0:
321,99,29195,1,8,0:0:0:0:
321,99,29377,1,8,0:0:0:0:
321,99,29468,1,0,0:0:0:0:
273,78,29559,1,8,0:0:0:0:
273,78,29741,1,0,0:0:0:0:
273,78,29832,1,0,0:0:0:0:
273,78,29923,1,8,0:0:0:0:
249,95,30014,1,8,0:0:0:0:
273,78,30104,1,8,0:0:0:0:
273,78,30195,1,0,0:0:0:0:
273,78,30286,1,8,0:0:0:0:
308,73,30468,1,0,0:0:0:0:
308,73,30650,1,8,0:0:0:0:
292,86,30741,1,0,0:0:0:0:
308,73,30832,1,8,0:0:0:0:
308,73,30923,1,8,0:0:0:0:
308,73,31014,1,8,0:0:0:0:
308,73,31195,1,0,0:0:0:0:
308,73,31286,1,8,0:0:0:0:
308,73,31377,1,8,0:0:0:0:
292,86,31468,1,0,0:0:0:0:
308,73,31559,1,8,0:0:0:0:
308,73,31650,1,8,0:0:0:0:
308,73,31741,1,8,0:0:0:0:
308,73,31923,1,0,0:0:0:0:
308,73,32014,1,8,0:0:0:0:
308,73,32104,1,8,0:0:0:0:
292,85,32196,1,0,0:0:0:0:
308,73,32286,1,8,0:0:0:0:
308,73,32377,1,8,0:0:0:0:
308,73,32468,1,8,0:0:0:0:
308,73,32650,1,0,0:0:0:0:
308,73,32741,1,8,0:0:0:0:
308,73,32832,1,8,0:0:0:0:
308,73,33014,1,8,0:0:0:0:
308,73,33104,1,8,0:0:0:0:
308,73,33195,1,8,0:0:0:0:
308,73,33377,1,0,0:0:0:0:
251,47,33559,1,0,0:0:0:0:
328,124,33650,1,0,0:0:0:0:
274,64,33741,1,8,0:0:0:0:
242,39,33832,1,0,0:0:0:0:
232,115,33923,1,0,0:0:0:0:
232,115,34104,1,0,0:0:0:0:
232,115,34195,1,8,0:0:0:0:
232,115,34286,1,0,0:0:0:0:
266,175,34378,1,0,0:0:0:0:
232,115,34468,1,8,0:0:0:0:
254,71,34559,1,0,0:0:0:0:
254,70,34650,1,0,0:0:0:0:
254,71,34832,1,0,0:0:0:0:
254,71,34923,1,8,0:0:0:0:
240,58,35014,1,8,0:0:0:0:
266,175,35105,1,0,0:0:0:0:
239,58,35195,1,8,0:0:0:0:
239,57,35286,1,8,0:0:0:0:
239,57,35377,1,8,0:0:0:0:
233,80,35559,1,8,0:0:0:0:
393,49,35620,1,8,0:0:0:0:
202,95,35681,1,0,0:0:0:0:
232,79,35741,1,0,0:0:0:0:
190,27,35802,1,0,0:0:0:0:
329,162,35862,1,0,0:0:0:0:
238,68,35923,1,8,0:0:0:0:
197,146,35983,1,8,0:0:0:0:
244,120,36044,1,0,0:0:0:0:
356,183,36287,5,0,0:0:0:0:
326,109,36347,1,0,0:0:0:0:
326,109,36408,1,0,0:0:0:0:
326,109,36468,1,0,0:0:0:0:
333,108,36529,1,0,0:0:0:0:
336,108,36590,1,0,0:0:0:0:
286,185,36650,1,8,0:0:0:0:
344,103,36711,1,8,0:0:0:0:
344,103,36771,1,8,0:0:0:0:
343,103,36832,1,8,0:0:0:0:
342,103,36893,1,8,0:0:0:0:
341,103,36953,1,8,0:0:0:0:
286,185,37014,1,0,0:0:0:0:
344,103,37074,1,0,0:0:0:0:
344,103,37135,1,0,0:0:0:0:
344,102,37196,1,0,0:0:0:0:
344,102,37256,1,0,0:0:0:0:
344,102,37317,1,0,0:0:0:0:
286,185,37378,1,8,0:0:0:0:
345,101,37438,1,8,0:0:0:0:
345,102,37499,1,0,0:0:0:0:
211,141,37559,1,0,0:0:0:0:
345,101,37620,1,0,0:0:0:0:
344,103,37681,1,0,0:0:0:0:
344,103,37741,1,8,0:0:0:0:
276,81,37802,1,0,0:0:0:0:
276,81,37862,1,0,0:0:0:0:
218,90,37923,1,8,0:0:0:0:
80,127,37984,1,0,0:0:0:0:
138,112,38044,1,0,0:0:0:0:
218,90,38105,1,8,0:0:0:0:
224,58,38287,1,0,0:0:0:0:
233,80,38468,1,8,0:0:0:0:
393,49,38529,1,8,0:0:0:0:
202,95,38590,1,0,0:0:0:0:
232,79,38650,1,0,0:0:0:0:
190,27,38711,1,0,0:0:0:0:
329,162,38771,1,0,0:0:0:0:
238,68,38832,1,8,0:0:0:0:
329,162,38893,1,8,0:0:0:0:
241,68,38953,1,0,0:0:0:0:
241,68,39196,1,0,0:0:0:0:
346,71,39256,1,0,0:0:0:0:
346,71,39317,1,0,0:0:0:0:
346,71,39378,1,0,0:0:0:0:
346,71,39438,1,0,0:0:0:0:
346,71,39499,1,0,0:0:0:0:
352,68,39559,1,8,0:0:0:0:
352,68,39620,1,8,0:0:0:0:
352,68,39681,1,8,0:0:0:0:
352,68,39741,1,8,0:0:0:0:
352,68,39802,1,8,0:0:0:0:
352,68,39862,1,8,0:0:0:0:
209,74,39923,1,0,0:0:0:0:
219,124,39984,1,0,0:0:0:0:
219,124,40044,1,0,0:0:0:0:
219,124,40105,1,0,0:0:0:0:
219,124,40165,1,0,0:0:0:0:
219,124,40226,1,0,0:0:0:0:
209,75,40287,1,8,0:0:0:0:
221,60,40347,1,0,0:0:0:0:
220,61,40408,1,8,0:0:0:0:
209,75,40468,1,0,0:0:0:0:
218,62,40529,1,8,0:0:0:0:
218,62,40590,1,8,0:0:0:0:
218,62,40650,1,8,0:0:0:0:
117,148,40711,1,8,0:0:0:0:
124,144,40771,1,8,0:0:0:0:
209,74,40832,1,8,0:0:0:0:
126,141,40893,1,8,0:0:0:0:
125,144,40953,1,8,0:0:0:0:
209,75,41014,1,0,0:0:0:0:
271,108,41196,1,8,0:0:0:0:
223,109,41378,1,0,0:0:0:0:
223,109,41559,1,8,0:0:0:0:
276,92,41620,1,8,0:0:0:0:
276,92,41681,1,0,0:0:0:0:
223,109,41741,1,0,0:0:0:0:
160,43,41802,1,0,0:0:0:0:
163,50,41862,1,0,0:0:0:0:
240,66,41923,1,8,0:0:0:0:
240,66,42105,1,0,0:0:0:0:
284,64,42165,1,0,0:0:0:0:
274,74,42226,1,0,0:0:0:0:
268,80,42287,1,0,0:0:0:0:
268,80,42347,1,0,0:0:0:0:
268,80,42408,1,0,0:0:0:0:
268,81,42468,1,8,0:0:0:0:
268,80,42529,1,8,0:0:0:0:
272,79,42590,1,8,0:0:0:0:
268,80,42650,1,8,0:0:0:0:
276,79,42711,1,8,0:0:0:0:
277,78,42771,1,8,0:0:0:0:
277,78,42832,1,0,0:0:0:0:
280,75,42893,1,0,0:0:0:0:
280,75,42953,1,0,0:0:0:0:
280,75,43014,1,0,0:0:0:0:
280,75,43074,1,0,0:0:0:0:
274,74,43135,1,0,0:0:0:0:
228,61,43196,1,8,0:0:0:0:
228,61,43256,1,8,0:0:0:0:
228,61,43317,1,0,0:0:0:0:
228,61,43378,1,0,0:0:0:0:
228,61,43438,1,0,0:0:0:0:
228,61,43499,1,0,0:0:0:0:
228,61,43559,1,8,0:0:0:0:
228,61,43620,1,0,0:0:0:0:
228,61,43681,1,0,0:0:0:0:
228,61,43741,1,8,0:0:0:0:
228,61,43802,1,0,0:0:0:0:
228,61,43862,1,0,0:0:0:0:
228,61,43923,1,8,0:0:0:0:
267,211,44105,1,8,0:0:0:0:
267,211,44287,1,0,0:0:0:0:
233,80,44468,1,8,0:0:0:0:
393,49,44529,1,8,0:0:0:0:
202,95,44590,1,0,0:0:0:0:
232,79,44650,1,0,0:0:0:0:
190,27,44711,1,0,0:0:0:0:
329,162,44771,1,0,0:0:0:0:
238,68,44832,1,8,0:0:0:0:
247,63,45014,1,0,0:0:0:0:
352,68,45074,1,0,0:0:0:0:
352,68,45135,1,8,0:0:0:0:
352,68,45196,1,0,0:0:0:0:
352,68,45256,1,0,0:0:0:0:
352,68,45317,1,0,0:0:0:0:
358,65,45377,1,0,0:0:0:0:
358,65,45438,1,0,0:0:0:0:
352,68,45499,1,0,0:0:0:0:
352,68,45559,1,0,0:0:0:0:
352,68,45620,1,8,0:0:0:0:
352,68,45681,1,0,0:0:0:0:
209,74,45741,1,8,0:0:0:0:
219,124,45802,1,0,0:0:0:0:
219,124,45862,1,0,0:0:0:0:
219,124,45923,1,0,0:0:0:0:
219,124,45983,1,8,0:0:0:0:
219,124,46044,1,8,0:0:0:0:
209,75,46105,1,8,0:0:0:0:
221,60,46165,1,8,0:0:0:0:
220,61,46226,1,0,0:0:0:0:
209,75,46286,1,8,0:0:0:0:
218,62,46347,1,8,0:0:0:0:
218,62,46408,1,8,0:0:0:0:
218,62,46468,1,8,0:0:0:0:
117,148,46529,1,8,0:0:0:0:
124,144,46590,1,8,0:0:0:0:
209,74,46650,1,8,0:0:0:0:
126,141,46711,1,8,0:0:0:0:
125,144,46771,1,8,0:0:0:0:
209,75,46832,1,0,0:0:0:0:
281,156,47014,1,8,0:0:0:0:
281,156,47196,1,0,0:0:0:0:
233,80,47378,1,8,0:0:0:0:
393,49,47439,1,8,0:0:0:0:
202,95,47500,1,0,0:0:0:0:
232,79,47560,1,0,0:0:0:0:
190,27,47621,1,0,0:0:0:0:
329,162,47681,1,0,0:0:0:0:
238,68,47742,1,8,0:0:0:0:
240,66,47923,1,0,0:0:0:0:
284,64,47983,1,0,0:0:0:0:
274,74,48044,1,0,0:0:0:0:
268,80,48105,1,0,0:0:0:0:
268,80,48165,1,0,0:0:0:0:
268,80,48226,1,0,0:0:0:0:
268,81,48286,1,8,0:0:0:0:
268,80,48347,1,8,0:0:0:0:
272,79,48408,1,8,0:0:0:0:
268,80,48468,1,8,0:0:0:0:
276,79,48529,1,8,0:0:0:0:
277,78,48589,1,8,0:0:0:0:
277,78,48650,1,0,0:0:0:0:
280,75,48711,1,0,0:0:0:0:
280,75,48771,1,0,0:0:0:0:
280,75,48832,1,0,0:0:0:0:
280,75,48892,1,0,0:0:0:0:
274,74,48953,1,0,0:0:0:0:
228,61,49014,1,8,0:0:0:0:
228,61,49074,1,8,0:0:0:0:
228,61,49135,1,0,0:0:0:0:
228,61,49196,1,0,0:0:0:0:
228,61,49256,1,0,0:0:0:0:
228,61,49317,1,0,0:0:0:0:
228,61,49377,1,8,0:0:0:0:
228,61,49438,1,0,0:0:0:0:
228,61,49499,1,0,0:0:0:0:
228,61,49559,1,8,0:0:0:0:
228,61,49620,1,0,0:0:0:0:
228,61,49680,1,0,0:0:0:0:
228,61,49741,1,8,0:0:0:0:
210,121,49923,1,0,0:0:0:0:
233,80,50105,1,8,0:0:0:0:
393,49,50166,1,8,0:0:0:0:
202,95,50227,1,0,0:0:0:0:
232,79,50287,1,0,0:0:0:0:
190,27,50348,1,0,0:0:0:0:
329,162,50408,1,0,0:0:0:0:
238,68,50469,1,8,0:0:0:0:
164,131,50529,1,8,0:0:0:0:
164,131,50590,1,0,0:0:0:0:
245,68,50832,1,0,0:0:0:0:
350,71,50892,1,0,0:0:0:0:
350,71,50953,1,0,0:0:0:0:
350,71,51014,1,0,0:0:0:0:
350,71,51074,1,0,0:0:0:0:
350,71,51135,1,0,0:0:0:0:
356,68,51195,1,8,0:0:0:0:
356,68,51256,1,8,0:0:0:0:
356,68,51317,1,8,0:0:0:0:
356,68,51377,1,8,0:0:0:0:
356,68,51438,1,8,0:0:0:0:
356,68,51498,1,8,0:0:0:0:
213,74,51559,1,0,0:0:0:0:
223,124,51620,1,0,0:0:0:0:
223,124,51680,1,0,0:0:0:0:
223,124,51741,1,0,0:0:0:0:
223,124,51801,1,0,0:0:0:0:
223,124,51862,1,0,0:0:0:0:
213,75,51923,1,8,0:0:0:0:
225,60,51983,1,0,0:0:0:0:
224,61,52044,1,8,0:0:0:0:
213,75,52104,1,0,0:0:0:0:
222,62,52165,1,8,0:0:0:0:
222,62,52226,1,8,0:0:0:0:
222,62,52286,1,8,0:0:0:0:
121,148,52347,1,8,0:0:0:0:
128,144,52407,1,8,0:0:0:0:
213,74,52468,1,8,0:0:0:0:
130,141,52529,1,8,0:0:0:0:
129,144,52589,1,8,0:0:0:0:
213,75,52650,1,0,0:0:0:0:
244,120,52832,1,0,0:0:0:0:
233,80,53014,1,8,0:0:0:0:
393,49,53075,1,8,0:0:0:0:
202,95,53136,1,0,0:0:0:0:
232,79,53196,1,0,0:0:0:0:
190,27,53257,1,0,0:0:0:0:
329,162,53317,1,0,0:0:0:0:
238,68,53378,1,8,0:0:0:0:
197,146,53438,1,8,0:0:0:0:
244,120,53499,1,0,0:0:0:0:
240,66,53741,1,0,0:0:0:0:
284,64,53801,1,0,0:0:0:0:
274,74,53862,1,0,0:0:0:0:
268,80,53923,1,0,0:0:0:0:
268,80,53983,1,0,0:0:0:0:
268,80,54044,1,0,0:0:0:0:
268,81,54104,1,8,0:0:0:0:
268,80,54165,1,8,0:0:0:0:
272,79,54226,1,8,0:0:0:0:
268,80,54286,1,8,0:0:0:0:
276,79,54347,1,8,0:0:0:0:
277,78,54407,1,8,0:0:0:0:
277,78,54468,1,0,0:0:0:0:
280,75,54529,1,0,0:0:0:0:
280,75,54589,1,0,0:0:0:0:
280,75,54650,1,0,0:0:0:0:
280,75,54710,1,0,0:0:0:0:
274,74,54771,1,0,0:0:0:0:
228,61,54832,1,8,0:0:0:0:
228,61,54892,1,8,0:0:0:0:
228,61,54953,1,0,0:0:0:0:
228,61,55014,1,0,0:0:0:0:
228,61,55074,1,0,0:0:0:0:
228,61,55135,1,0,0:0:0:0:
228,61,55195,1,8,0:0:0:0:
228,61,55256,1,0,0:0:0:0:
228,61,55317,1,0,0:0:0:0:
228,61,55377,1,8,0:0:0:0:
228,61,55438,1,0,0:0:0:0:
228,61,55498,1,0,0:0:0:0:
228,61,55559,1,8,0:0:0:0:
227,79,55741,1,8,0:0:0:0:
227,78,55923,1,0,0:0:0:0:
233,80,56105,1,8,0:0:0:0:
393,49,56166,1,8,0:0:0:0:
202,95,56227,1,0,0:0:0:0:
232,79,56287,1,0,0:0:0:0:
190,27,56348,1,0,0:0:0:0:
329,162,56408,1,0,0:0:0:0:
238,68,56469,1,8,0:0:0:0:
228,61,56650,1,0,0:0:0:0:
352,68,56710,1,0,0:0:0:0:
352,68,56771,1,8,0:0:0:0:
352,68,56832,1,0,0:0:0:0:
352,68,56892,1,0,0:0:0:0:
352,68,56953,1,0,0:0:0:0:
358,65,57013,1,0,0:0:0:0:
358,65,57074,1,0,0:0:0:0:
352,68,57135,1,8,0:0:0:0:
352,68,57195,1,8,0:0:0:0:
352,68,57256,1,0,0:0:0:0:
352,68,57317,1,0,0:0:0:0:
352,68,57377,1,8,0:0:0:0:
219,124,57438,1,0,0:0:0:0:
219,124,57498,1,0,0:0:0:0:
219,124,57559,1,0,0:0:0:0:
219,124,57619,1,8,0:0:0:0:
219,124,57680,1,8,0:0:0:0:
209,75,57741,1,8,0:0:0:0:
221,60,57801,1,8,0:0:0:0:
220,61,57862,1,0,0:0:0:0:
209,75,57922,1,8,0:0:0:0:
218,62,57983,1,8,0:0:0:0:
218,62,58044,1,8,0:0:0:0:
218,62,58104,1,8,0:0:0:0:
117,148,58165,1,8,0:0:0:0:
124,144,58226,1,8,0:0:0:0:
209,74,58286,1,8,0:0:0:0:
126,141,58347,1,8,0:0:0:0:
125,144,58407,1,8,0:0:0:0:
243,111,58468,5,8,0:0:0:0:
248,112,58529,1,8,0:0:0:0:
254,112,58590,1,8,0:0:0:0:
250,112,58650,1,8,0:0:0:0:
244,88,58711,1,8,0:0:0:0:
244,88,58771,1,8,0:0:0:0:
244,88,58832,1,8,0:0:0:0:
244,88,58893,1,8,0:0:0:0:
244,88,58953,1,8,0:0:0:0:
244,88,59014,1,8,0:0:0:0:
244,88,59074,1,8,0:0:0:0:
245,88,59135,1,8,0:0:0:0:
291,111,59196,1,8,0:0:0:0:
260,150,59378,1,8,0:0:0:0:
300,112,59559,1,4,0:0:0:0:
309,129,59741,1,0,0:0:0:0:
371,96,59832,1,0,0:0:0:0:
309,128,59923,1,8,0:0:0:0:
309,128,60105,1,8,0:0:0:0:
309,128,60287,1,0,0:0:0:0:
309,128,60468,1,8,0:0:0:0:
304,81,60559,1,0,0:0:0:0:
291,74,60650,1,8,0:0:0:0:
291,74,60832,1,8,0:0:0:0:
291,74,61014,1,0,0:0:0:0:
309,129,61196,1,0,0:0:0:0:
271,82,61287,1,0,0:0:0:0:
309,128,61378,1,8,0:0:0:0:
309,128,61560,1,8,0:0:0:0:
309,128,61742,1,0,0:0:0:0:
309,128,61923,1,8,0:0:0:0:
273,119,62014,1,0,0:0:0:0:
291,74,62105,1,8,0:0:0:0:
291,74,62287,1,8,0:0:0:0:
374,90,62468,1,0,0:0:0:0:
330,101,62650,1,0,0:0:0:0:
273,119,62741,1,0,0:0:0:0:
330,100,62832,1,8,0:0:0:0:
330,101,63014,1,0,0:0:0:0:
330,101,63196,1,8,0:0:0:0:
330,101,63378,1,0,0:0:0:0:
273,119,63468,1,8,0:0:0:0:
330,101,63559,1,8,0:0:0:0:
330,100,63741,1,8,0:0:0:0:
322,82,63923,1,0,0:0:0:0:
321,81,64105,1,0,0:0:0:0:
321,81,64196,1,0,0:0:0:0:
321,81,64287,1,8,0:0:0:0:
321,81,64468,1,0,0:0:0:0:
252,39,64559,1,8,0:0:0:0:
252,39,64650,1,0,0:0:0:0:
322,82,64832,1,0,0:0:0:0:
273,91,64923,1,0,0:0:0:0:
321,81,65014,1,8,0:0:0:0:
270,113,65105,1,8,0:0:0:0:
321,81,65196,1,0,0:0:0:0:
257,75,65287,1,8,0:0:0:0:
321,81,65378,1,0,0:0:0:0:
309,129,65559,1,0,0:0:0:0:
276,84,65650,1,0,0:0:0:0:
309,128,65741,1,8,0:0:0:0:
309,128,65923,1,8,0:0:0:0:
309,128,66105,1,0,0:0:0:0:
309,128,66286,1,8,0:0:0:0:
276,84,66378,1,0,0:0:0:0:
291,74,66468,1,8,0:0:0:0:
291,74,66650,1,8,0:0:0:0:
167,206,66832,1,0,0:0:0:0:
309,129,67014,1,0,0:0:0:0:
246,109,67105,1,0,0:0:0:0:
309,128,67196,1,8,0:0:0:0:
309,128,67378,1,8,0:0:0:0:
309,128,67560,1,0,0:0:0:0:
309,128,67741,1,8,0:0:0:0:
220,102,67832,1,0,0:0:0:0:
291,74,67923,1,8,0:0:0:0:
291,74,68105,1,8,0:0:0:0:
181,148,68287,1,0,0:0:0:0:
309,129,68468,1,0,0:0:0:0:
300,121,68559,1,8,0:0:0:0:
309,128,68650,1,8,0:0:0:0:
309,128,68832,1,8,0:0:0:0:
300,120,68923,1,8,0:0:0:0:
309,128,69014,1,0,0:0:0:0:
309,128,69195,1,8,0:0:0:0:
219,101,69287,1,0,0:0:0:0:
291,74,69377,1,8,0:0:0:0:
208,89,69468,1,0,0:0:0:0:
291,74,69559,1,8,0:0:0:0:
208,88,69650,1,8,0:0:0:0:
300,106,69741,1,0,0:0:0:0:
309,129,69923,1,0,0:0:0:0:
259,115,70014,1,0,0:0:0:0:
309,128,70105,1,8,0:0:0:0:
309,128,70287,1,8,0:0:0:0:
309,128,70468,1,8,0:0:0:0:
309,128,70650,1,0,0:0:0:0:
212,110,70741,1,8,0:0:0:0:
291,74,70832,1,8,0:0:0:0:
291,74,71014,1,8,0:0:0:0:
331,103,71196,1,4,0:0:0:0:
309,129,71378,1,0,0:0:0:0:
230,108,71468,1,0,0:0:0:0:
309,128,71560,1,8,0:0:0:0:
309,128,71742,1,8,0:0:0:0:
309,128,71924,1,0,0:0:0:0:
309,128,72105,1,8,0:0:0:0:
254,106,72196,1,0,0:0:0:0:
291,74,72287,1,8,0:0:0:0:
264,103,72378,1,8,0:0:0:0:
291,74,72469,1,8,0:0:0:0:
291,94,72559,1,8,0:0:0:0:
291,74,72651,1,0,0:0:0:0:
309,129,72833,1,0,0:0:0:0:
288,97,72923,1,0,0:0:0:0:
309,128,73015,1,8,0:0:0:0:
309,128,73197,1,8,0:0:0:0:
309,128,73379,1,0,0:0:0:0:
309,128,73560,1,8,0:0:0:0:
274,102,73650,1,0,0:0:0:0:
291,74,73742,1,8,0:0:0:0:
270,121,73832,1,8,0:0:0:0:
291,74,73924,1,8,0:0:0:0:
270,121,74014,1,8,0:0:0:0:
374,90,74105,1,0,0:0:0:0:
330,101,74287,1,0,0:0:0:0:
330,101,74378,1,0,0:0:0:0:
330,100,74469,1,8,0:0:0:0:
330,101,74651,1,0,0:0:0:0:
330,101,74833,1,8,0:0:0:0:
330,101,75015,1,0,0:0:0:0:
294,62,75105,1,8,0:0:0:0:
330,101,75196,1,8,0:0:0:0:
294,62,75287,1,0,0:0:0:0:
330,100,75378,1,8,0:0:0:0:
289,69,75468,1,0,0:0:0:0:
322,82,75560,1,0,0:0:0:0:
321,81,75742,1,0,0:0:0:0:
321,81,75833,1,0,0:0:0:0:
321,81,75924,1,8,0:0:0:0:
321,81,76105,1,0,0:0:0:0:
252,39,76196,1,8,0:0:0:0:
252,39,76287,1,0,0:0:0:0:
322,82,76469,1,0,0:0:0:0:
187,88,76559,1,0,0:0:0:0:
321,81,76651,1,8,0:0:0:0:
187,88,76741,1,8,0:0:0:0:
321,81,76833,1,0,0:0:0:0:
187,88,76923,1,8,0:0:0:0:
321,81,77015,1,0,0:0:0:0:
309,129,77196,1,0,0:0:0:0:
308,93,77287,1,0,0:0:0:0:
309,128,77378,1,8,0:0:0:0:
309,128,77560,1,8,0:0:0:0:
309,128,77742,1,0,0:0:0:0:
309,128,77923,1,8,0:0:0:0:
274,113,78014,1,0,0:0:0:0:
291,74,78105,1,8,0:0:0:0:
304,67,78196,1,8,0:0:0:0:
291,74,78287,1,8,0:0:0:0:
303,66,78378,1,8,0:0:0:0:
167,206,78469,1,0,0:0:0:0:
309,129,78651,1,0,0:0:0:0:
304,78,78741,1,0,0:0:0:0:
309,128,78833,1,8,0:0:0:0:
309,128,79015,1,8,0:0:0:0:
309,128,79197,1,0,0:0:0:0:
309,128,79378,1,8,0:0:0:0:
304,78,79468,1,0,0:0:0:0:
291,74,79560,1,8,0:0:0:0:
304,78,79650,1,8,0:0:0:0:
291,74,79742,1,8,0:0:0:0:
304,78,79832,1,8,0:0:0:0:
181,148,79924,1,0,0:0:0:0:
309,129,80105,1,0,0:0:0:0:
300,121,80196,1,8,0:0:0:0:
309,128,80287,1,8,0:0:0:0:
309,128,80469,1,8,0:0:0:0:
300,120,80560,1,8,0:0:0:0:
309,128,80651,1,0,0:0:0:0:
309,128,80832,1,8,0:0:0:0:
265,50,80923,1,0,0:0:0:0:
291,74,81014,1,8,0:0:0:0:
248,58,81105,1,8,0:0:0:0:
291,74,81196,1,8,0:0:0:0:
248,57,81287,1,8,0:0:0:0:
300,106,81378,1,0,0:0:0:0:
309,129,81560,5,0,0:0:0:0:
271,64,81650,1,0,0:0:0:0:
309,128,81742,1,8,0:0:0:0:
309,128,81924,1,8,0:0:0:0:
309,128,82105,1,8,0:0:0:0:
393,49,82166,1,8,0:0:0:0:
202,95,82227,1,0,0:0:0:0:
309,128,82287,1,0,0:0:0:0:
190,27,82348,1,0,0:0:0:0:
329,162,82408,1,0,0:0:0:0:
290,74,82469,1,8,0:0:0:0:
197,146,82529,1,8,0:0:0:0:
244,120,82590,1,0,0:0:0:0:
355,184,82832,5,0,0:0:0:0:
325,110,82892,1,0,0:0:0:0:
325,110,82953,1,0,0:0:0:0:
325,110,83013,1,0,0:0:0:0:
332,109,83074,1,0,0:0:0:0:
335,109,83135,1,0,0:0:0:0:
285,186,83195,1,8,0:0:0:0:
343,104,83256,1,8,0:0:0:0:
343,104,83316,1,8,0:0:0:0:
342,104,83377,1,8,0:0:0:0:
341,104,83438,1,8,0:0:0:0:
340,104,83498,1,8,0:0:0:0:
285,186,83559,1,0,0:0:0:0:
343,104,83619,1,0,0:0:0:0:
343,104,83680,1,0,0:0:0:0:
343,103,83741,1,0,0:0:0:0:
343,103,83801,1,0,0:0:0:0:
343,103,83862,1,0,0:0:0:0:
285,186,83923,1,8,0:0:0:0:
344,102,83983,1,8,0:0:0:0:
344,103,84044,1,0,0:0:0:0:
210,142,84104,1,0,0:0:0:0:
344,102,84165,1,0,0:0:0:0:
343,104,84226,1,0,0:0:0:0:
343,104,84286,1,8,0:0:0:0:
275,82,84347,1,0,0:0:0:0:
275,82,84407,1,0,0:0:0:0:
217,91,84468,1,8,0:0:0:0:
79,128,84529,1,0,0:0:0:0:
137,113,84589,1,0,0:0:0:0:
217,91,84650,1,8,0:0:0:0:
223,59,84832,1,0,0:0:0:0:
232,81,85013,1,8,0:0:0:0:
392,50,85074,1,8,0:0:0:0:
201,96,85135,1,0,0:0:0:0:
231,80,85195,1,0,0:0:0:0:
189,28,85256,1,0,0:0:0:0:
328,163,85316,1,0,0:0:0:0:
237,69,85377,1,8,0:0:0:0:
328,163,85438,1,8,0:0:0:0:
240,69,85498,1,0,0:0:0:0:
277,179,85559,1,0,0:0:0:0:
277,179,85620,1,0,0:0:0:0:
240,69,85741,1,0,0:0:0:0:
345,72,85801,1,0,0:0:0:0:
345,72,85862,1,0,0:0:0:0:
345,72,85923,1,0,0:0:0:0:
345,72,85983,1,0,0:0:0:0:
345,72,86044,1,0,0:0:0:0:
351,69,86104,1,8,0:0:0:0:
351,69,86165,1,8,0:0:0:0:
351,69,86226,1,8,0:0:0:0:
351,69,86286,1,8,0:0:0:0:
351,69,86347,1,8,0:0:0:0:
351,69,86407,1,8,0:0:0:0:
208,75,86468,1,0,0:0:0:0:
218,125,86529,1,0,0:0:0:0:
218,125,86589,1,0,0:0:0:0:
218,125,86650,1,0,0:0:0:0:
218,125,86710,1,0,0:0:0:0:
218,125,86771,1,0,0:0:0:0:
208,76,86832,1,8,0:0:0:0:
220,61,86892,1,0,0:0:0:0:
219,62,86953,1,8,0:0:0:0:
208,76,87013,1,0,0:0:0:0:
217,63,87074,1,8,0:0:0:0:
217,63,87135,1,8,0:0:0:0:
217,63,87195,1,8,0:0:0:0:
116,149,87256,1,8,0:0:0:0:
123,145,87316,1,8,0:0:0:0:
208,75,87377,1,8,0:0:0:0:
125,142,87438,1,8,0:0:0:0:
124,145,87498,1,8,0:0:0:0:
208,76,87559,1,0,0:0:0:0:
270,109,87741,1,8,0:0:0:0:
222,110,87923,1,0,0:0:0:0:
222,110,88104,1,8,0:0:0:0:
275,93,88165,1,8,0:0:0:0:
275,93,88226,1,0,0:0:0:0:
222,110,88286,1,0,0:0:0:0:
159,44,88347,1,0,0:0:0:0:
162,51,88407,1,0,0:0:0:0:
239,67,88468,1,8,0:0:0:0:
239,67,88650,1,0,0:0:0:0:
283,65,88710,1,0,0:0:0:0:
273,75,88771,1,0,0:0:0:0:
267,81,88832,1,0,0:0:0:0:
267,81,88892,1,0,0:0:0:0:
267,81,88953,1,0,0:0:0:0:
267,82,89013,1,8,0:0:0:0:
267,81,89074,1,8,0:0:0:0:
271,80,89135,1,8,0:0:0:0:
267,81,89195,1,8,0:0:0:0:
275,80,89256,1,8,0:0:0:0:
276,79,89316,1,8,0:0:0:0:
276,79,89377,1,0,0:0:0:0:
279,76,89438,1,0,0:0:0:0:
279,76,89498,1,0,0:0:0:0:
279,76,89559,1,0,0:0:0:0:
279,76,89619,1,0,0:0:0:0:
273,75,89680,1,0,0:0:0:0:
227,62,89741,1,8,0:0:0:0:
227,62,89801,1,8,0:0:0:0:
227,62,89862,1,0,0:0:0:0:
227,62,89923,1,0,0:0:0:0:
227,62,89983,1,0,0:0:0:0:
227,62,90044,1,0,0:0:0:0:
227,62,90104,1,8,0:0:0:0:
227,62,90165,1,0,0:0:0:0:
227,62,90226,1,0,0:0:0:0:
227,62,90286,1,8,0:0:0:0:
227,62,90347,1,0,0:0:0:0:
227,62,90407,1,0,0:0:0:0:
227,62,90468,1,8,0:0:0:0:
266,212,90650,1,8,0:0:0:0:
266,212,90832,1,0,0:0:0:0:
232,81,91013,1,8,0:0:0:0:
392,50,91074,1,8,0:0:0:0:
201,96,91135,1,0,0:0:0:0:
231,80,91195,1,0,0:0:0:0:
189,28,91256,1,0,0:0:0:0:
328,163,91316,1,0,0:0:0:0:
237,69,91377,1,8,0:0:0:0:
246,64,91559,1,0,0:0:0:0:
351,69,91619,1,0,0:0:0:0:
351,69,91680,1,8,0:0:0:0:
351,69,91741,1,0,0:0:0:0:
351,69,91801,1,0,0:0:0:0:
351,69,91862,1,0,0:0:0:0:
357,66,91922,1,0,0:0:0:0:
357,66,91983,1,0,0:0:0:0:
351,69,92044,1,0,0:0:0:0:
351,69,92104,1,0,0:0:0:0:
351,69,92165,1,8,0:0:0:0:
351,69,92226,1,0,0:0:0:0:
208,75,92286,1,8,0:0:0:0:
218,125,92347,1,0,0:0:0:0:
218,125,92407,1,0,0:0:0:0:
218,125,92468,1,0,0:0:0:0:
218,125,92528,1,8,0:0:0:0:
218,125,92589,1,8,0:0:0:0:
208,76,92650,1,8,0:0:0:0:
220,61,92710,1,8,0:0:0:0:
219,62,92771,1,0,0:0:0:0:
208,76,92831,1,8,0:0:0:0:
217,63,92892,1,8,0:0:0:0:
217,63,92953,1,8,0:0:0:0:
217,63,93013,1,8,0:0:0:0:
116,149,93074,1,8,0:0:0:0:
123,145,93135,1,8,0:0:0:0:
208,75,93195,1,8,0:0:0:0:
125,142,93256,1,8,0:0:0:0:
124,145,93316,1,8,0:0:0:0:
208,76,93377,1,0,0:0:0:0:
280,157,93559,1,8,0:0:0:0:
280,157,93741,1,0,0:0:0:0:
232,81,93923,1,8,0:0:0:0:
392,50,93984,1,8,0:0:0:0:
201,96,94045,1,0,0:0:0:0:
231,80,94105,1,0,0:0:0:0:
189,28,94166,1,0,0:0:0:0:
328,163,94226,1,0,0:0:0:0:
237,69,94287,1,8,0:0:0:0:
239,67,94468,1,0,0:0:0:0:
283,65,94528,1,0,0:0:0:0:
273,75,94589,1,0,0:0:0:0:
267,81,94650,1,0,0:0:0:0:
267,81,94710,1,0,0:0:0:0:
267,81,94771,1,0,0:0:0:0:
267,82,94831,1,8,0:0:0:0:
267,81,94892,1,8,0:0:0:0:
271,80,94953,1,8,0:0:0:0:
267,81,95013,1,8,0:0:0:0:
275,80,95074,1,8,0:0:0:0:
276,79,95134,1,8,0:0:0:0:
276,79,95195,1,0,0:0:0:0:
279,76,95256,1,0,0:0:0:0:
279,76,95316,1,0,0:0:0:0:
279,76,95377,1,0,0:0:0:0:
279,76,95437,1,0,0:0:0:0:
273,75,95498,1,0,0:0:0:0:
227,62,95559,1,8,0:0:0:0:
227,62,95619,1,8,0:0:0:0:
227,62,95680,1,0,0:0:0:0:
227,62,95741,1,0,0:0:0:0:
227,62,95801,1,0,0:0:0:0:
227,62,95862,1,0,0:0:0:0:
227,62,95922,1,8,0:0:0:0:
227,62,95983,1,0,0:0:0:0:
227,62,96044,1,0,0:0:0:0:
227,62,96104,1,8,0:0:0:0:
227,62,96165,1,0,0:0:0:0:
227,62,96225,1,0,0:0:0:0:
227,62,96286,1,8,0:0:0:0:
209,122,96468,1,0,0:0:0:0:
232,81,96650,1,8,0:0:0:0:
392,50,96711,1,8,0:0:0:0:
201,96,96772,1,0,0:0:0:0:
231,80,96832,1,0,0:0:0:0:
189,28,96893,1,0,0:0:0:0:
328,163,96953,1,0,0:0:0:0:
237,69,97014,1,8,0:0:0:0:
163,132,97074,1,8,0:0:0:0:
163,132,97135,1,0,0:0:0:0:
260,102,97196,1,0,0:0:0:0:
260,102,97256,1,0,0:0:0:0:
244,69,97377,1,0,0:0:0:0:
349,72,97437,1,0,0:0:0:0:
349,72,97498,1,0,0:0:0:0:
349,72,97559,1,0,0:0:0:0:
349,72,97619,1,0,0:0:0:0:
349,72,97680,1,0,0:0:0:0:
355,69,97740,1,8,0:0:0:0:
355,69,97801,1,8,0:0:0:0:
355,69,97862,1,8,0:0:0:0:
355,69,97922,1,8,0:0:0:0:
355,69,97983,1,8,0:0:0:0:
355,69,98043,1,8,0:0:0:0:
212,75,98104,1,0,0:0:0:0:
222,125,98165,1,0,0:0:0:0:
222,125,98225,1,0,0:0:0:0:
222,125,98286,1,0,0:0:0:0:
222,125,98346,1,0,0:0:0:0:
222,125,98407,1,0,0:0:0:0:
212,76,98468,1,8,0:0:0:0:
224,61,98528,1,0,0:0:0:0:
223,62,98589,1,8,0:0:0:0:
212,76,98649,1,0,0:0:0:0:
221,63,98710,1,8,0:0:0:0:
221,63,98771,1,8,0:0:0:0:
221,63,98831,1,8,0:0:0:0:
120,149,98892,1,8,0:0:0:0:
127,145,98952,1,8,0:0:0:0:
212,75,99013,1,8,0:0:0:0:
129,142,99074,1,8,0:0:0:0:
128,145,99134,1,8,0:0:0:0:
212,76,99195,1,0,0:0:0:0:
243,121,99377,1,0,0:0:0:0:
232,81,99559,1,8,0:0:0:0:
392,50,99620,1,8,0:0:0:0:
201,96,99681,1,0,0:0:0:0:
231,80,99741,1,0,0:0:0:0:
189,28,99802,1,0,0:0:0:0:
328,163,99862,1,0,0:0:0:0:
237,69,99923,1,8,0:0:0:0:
196,147,99983,1,8,0:0:0:0:
243,121,100044,1,0,0:0:0:0:
267,155,100105,1,0,0:0:0:0:
300,141,100165,1,0,0:0:0:0:
239,67,100286,1,0,0:0:0:0:
283,65,100346,1,0,0:0:0:0:
273,75,100407,1,0,0:0:0:0:
267,81,100468,1,0,0:0:0:0:
267,81,100528,1,0,0:0:0:0:
267,81,100589,1,0,0:0:0:0:
267,82,100649,1,8,0:0:0:0:
267,81,100710,1,8,0:0:0:0:
271,80,100771,1,8,0:0:0:0:
267,81,100831,1,8,0:0:0:0:
275,80,100892,1,8,0:0:0:0:
276,79,100952,1,8,0:0:0:0:
276,79,101013,1,0,0:0:0:0:
279,76,101074,1,0,0:0:0:0:
279,76,101134,1,0,0:0:0:0:
279,76,101195,1,0,0:0:0:0:
279,76,101255,1,0,0:0:0:0:
273,75,101316,1,0,0:0:0:0:
227,62,101377,1,8,0:0:0:0:
227,62,101437,1,8,0:0:0:0:
227,62,101498,1,0,0:0:0:0:
227,62,101559,1,0,0:0:0:0:
227,62,101619,1,0,0:0:0:0:
227,62,101680,1,0,0:0:0:0:
227,62,101740,1,8,0:0:0:0:
227,62,101801,1,0,0:0:0:0:
227,62,101862,1,0,0:0:0:0:
227,62,101922,1,8,0:0:0:0:
227,62,101983,1,0,0:0:0:0:
227,62,102043,1,0,0:0:0:0:
227,62,102104,1,8,0:0:0:0:
226,80,102286,1,8,0:0:0:0:
226,79,102468,1,0,0:0:0:0:
232,81,102650,1,8,0:0:0:0:
392,50,102711,1,8,0:0:0:0:
201,96,102772,1,0,0:0:0:0:
231,80,102832,1,0,0:0:0:0:
189,28,102893,1,0,0:0:0:0:
328,163,102953,1,0,0:0:0:0:
237,69,103014,1,8,0:0:0:0:
227,62,103195,1,0,0:0:0:0:
351,69,103255,1,0,0:0:0:0:
351,69,103316,1,8,0:0:0:0:
351,69,103377,1,0,0:0:0:0:
351,69,103437,1,0,0:0:0:0:
351,69,103498,1,0,0:0:0:0:
357,66,103558,1,0,0:0:0:0:
357,66,103619,1,0,0:0:0:0:
351,69,103680,1,8,0:0:0:0:
351,69,103740,1,8,0:0:0:0:
351,69,103801,1,0,0:0:0:0:
351,69,103862,1,0,0:0:0:0:
351,69,103922,1,8,0:0:0:0:
218,125,103983,1,0,0:0:0:0:
218,125,104043,1,0,0:0:0:0:
218,125,104104,1,0,0:0:0:0:
218,125,104164,1,8,0:0:0:0:
218,125,104225,1,8,0:0:0:0:
208,76,104286,1,8,0:0:0:0:
220,61,104346,1,8,0:0:0:0:
219,62,104407,1,0,0:0:0:0:
208,76,104467,1,8,0:0:0:0:
217,63,104528,1,8,0:0:0:0:
217,63,104589,1,8,0:0:0:0:
217,63,104649,1,8,0:0:0:0:
116,149,104710,1,8,0:0:0:0:
123,145,104771,1,8,0:0:0:0:
208,75,104831,1,8,0:0:0:0:
125,142,104892,1,8,0:0:0:0:
124,145,104952,1,8,0:0:0:0:
242,112,105013,5,8,0:0:0:0:
247,113,105074,1,8,0:0:0:0:
253,113,105135,1,8,0:0:0:0:
249,113,105195,1,8,0:0:0:0:
243,89,105256,1,8,0:0:0:0:
243,89,105316,1,8,0:0:0:0:
243,89,105377,1,8,0:0:0:0:
243,89,105438,1,8,0:0:0:0:
243,89,105498,1,8,0:0:0:0:
243,89,105559,1,8,0:0:0:0:
243,89,105619,1,8,0:0:0:0:
244,89,105680,1,8,0:0:0:0:
290,112,105741,1,8,0:0:0:0:
288,123,105923,1,8,0:0:0:0:
182,105,106105,1,4,0:0:0:0:
300,51,106468,1,8,0:0:0:0:
380,140,107196,1,8,0:0:0:0:
280,91,107378,1,0,0:0:0:0:
307,98,107741,1,0,0:0:0:0:
348,123,107923,1,8,0:0:0:0:
348,123,108650,1,8,0:0:0:0:
307,98,109014,1,0,0:0:0:0:
348,123,109378,1,8,0:0:0:0:
291,100,110105,1,8,0:0:0:0:
285,81,110287,1,0,0:0:0:0:
285,81,110650,1,0,0:0:0:0:
285,80,110832,1,8,0:0:0:0:
285,81,111559,1,8,0:0:0:0:
285,81,111923,1,0,0:0:0:0:
285,81,112287,1,8,0:0:0:0:
294,118,113014,1,8,0:0:0:0:
309,89,113196,1,0,0:0:0:0:
309,89,113559,1,0,0:0:0:0:
309,88,113741,1,8,0:0:0:0:
309,89,114468,1,8,0:0:0:0:
264,90,114832,1,0,0:0:0:0:
309,89,115196,1,8,0:0:0:0:
264,88,115923,1,8,0:0:0:0:
264,88,116105,1,0,0:0:0:0:
264,88,116468,1,0,0:0:0:0:
264,88,116650,1,8,0:0:0:0:
264,88,117378,1,8,0:0:0:0:
264,88,117741,1,4,0:0:0:0:
269,150,118105,1,8,0:0:0:0:
269,150,118468,1,8,0:0:0:0:
261,77,119014,1,0,0:0:0:0:
326,85,119378,1,8,0:0:0:0:
279,97,120650,1,0,0:0:0:0:
279,97,121014,1,8,0:0:0:0:
279,97,121378,1,8,0:0:0:0:
279,97,121741,1,0,0:0:0:0:
279,97,121923,1,8,0:0:0:0:
276,97,123196,1,0,0:0:0:0:
276,97,123378,1,0,0:0:0:0:
276,97,123559,1,4,0:0:0:0:
426,140,123923,1,8,0:0:0:0:
426,140,124287,1,8,0:0:0:0:
426,140,124650,1,0,0:0:0:0:
318,119,124832,1,8,0:0:0:0:
312,114,125196,1,0,0:0:0:0:
312,113,125378,1,0,0:0:0:0:
305,125,125923,1,0,0:0:0:0:
304,123,126105,1,8,0:0:0:0:
304,123,126287,1,8,0:0:0:0:
305,125,126468,1,0,0:0:0:0:
277,91,126832,1,8,0:0:0:0:
277,91,127196,1,8,0:0:0:0:
277,91,127559,1,0,0:0:0:0:
277,91,127741,1,8,0:0:0:0:
277,91,128287,1,8,0:0:0:0:
277,91,128468,1,0,0:0:0:0:
277,91,128559,1,0,0:0:0:0:
233,80,128650,5,8,0:0:0:0:
393,49,128711,1,8,0:0:0:0:
202,95,128772,1,0,0:0:0:0:
232,79,128832,5,0,0:0:0:0:
190,27,128893,1,0,0:0:0:0:
329,162,128953,1,0,0:0:0:0:
238,68,129014,1,8,0:0:0:0:
197,146,129074,1,8,0:0:0:0:
244,120,129135,1,0,0:0:0:0:
355,184,129378,5,0,0:0:0:0:
325,110,129438,1,0,0:0:0:0:
325,110,129499,1,0,0:0:0:0:
325,110,129559,1,0,0:0:0:0:
332,109,129620,1,0,0:0:0:0:
335,109,129681,1,0,0:0:0:0:
285,186,129741,1,8,0:0:0:0:
343,104,129802,1,8,0:0:0:0:
343,104,129862,1,8,0:0:0:0:
342,104,129923,1,8,0:0:0:0:
341,104,129984,1,8,0:0:0:0:
340,104,130044,1,8,0:0:0:0:
285,186,130105,1,0,0:0:0:0:
343,104,130165,1,0,0:0:0:0:
343,104,130226,1,0,0:0:0:0:
343,103,130287,1,0,0:0:0:0:
343,103,130347,1,0,0:0:0:0:
343,103,130408,1,0,0:0:0:0:
285,186,130469,1,8,0:0:0:0:
344,102,130529,1,8,0:0:0:0:
344,103,130590,1,0,0:0:0:0:
210,142,130650,1,0,0:0:0:0:
344,102,130711,1,0,0:0:0:0:
343,104,130772,1,0,0:0:0:0:
343,104,130832,1,8,0:0:0:0:
275,82,130893,1,0,0:0:0:0:
275,82,130953,1,0,0:0:0:0:
217,91,131014,1,8,0:0:0:0:
79,128,131075,1,0,0:0:0:0:
137,113,131135,1,0,0:0:0:0:
217,91,131196,1,8,0:0:0:0:
223,59,131378,1,0,0:0:0:0:
273,71,131438,1,0,0:0:0:0:
273,71,131499,1,0,0:0:0:0:
232,81,131559,1,0,0:0:0:0:
392,50,131620,1,8,0:0:0:0:
201,96,131681,1,8,0:0:0:0:
231,80,131741,1,0,0:0:0:0:
189,28,131802,1,0,0:0:0:0:
328,163,131862,1,8,0:0:0:0:
237,69,131923,1,8,0:0:0:0:
328,163,131984,1,0,0:0:0:0:
240,69,132044,1,0,0:0:0:0:
277,179,132105,1,8,0:0:0:0:
240,69,132287,1,0,0:0:0:0:
345,72,132347,1,0,0:0:0:0:
345,72,132408,1,0,0:0:0:0:
345,72,132469,1,0,0:0:0:0:
345,72,132529,1,0,0:0:0:0:
345,72,132590,1,0,0:0:0:0:
351,69,132650,1,8,0:0:0:0:
351,69,132711,1,8,0:0:0:0:
351,69,132772,1,8,0:0:0:0:
351,69,132832,1,8,0:0:0:0:
351,69,132893,1,8,0:0:0:0:
351,69,132953,1,8,0:0:0:0:
208,75,133014,1,0,0:0:0:0:
218,125,133075,1,0,0:0:0:0:
218,125,133135,1,0,0:0:0:0:
218,125,133196,1,0,0:0:0:0:
218,125,133256,1,0,0:0:0:0:
218,125,133317,1,0,0:0:0:0:
208,76,133378,1,8,0:0:0:0:
220,61,133438,1,0,0:0:0:0:
219,62,133499,1,8,0:0:0:0:
208,76,133559,1,0,0:0:0:0:
217,63,133620,1,8,0:0:0:0:
217,63,133681,1,8,0:0:0:0:
217,63,133741,1,8,0:0:0:0:
116,149,133802,1,8,0:0:0:0:
123,145,133862,1,8,0:0:0:0:
208,75,133923,1,8,0:0:0:0:
125,142,133984,1,8,0:0:0:0:
124,145,134044,1,8,0:0:0:0:
208,76,134105,1,0,0:0:0:0:
270,109,134287,1,8,0:0:0:0:
197,96,134347,1,8,0:0:0:0:
197,96,134408,1,8,0:0:0:0:
222,110,134469,1,0,0:0:0:0:
222,110,134650,1,8,0:0:0:0:
275,93,134711,1,8,0:0:0:0:
275,93,134772,1,0,0:0:0:0:
222,110,134832,1,0,0:0:0:0:
159,44,134893,1,0,0:0:0:0:
162,51,134953,1,0,0:0:0:0:
239,67,135014,1,8,0:0:0:0:
239,67,135196,1,0,0:0:0:0:
283,65,135256,1,0,0:0:0:0:
273,75,135317,1,0,0:0:0:0:
267,81,135378,1,0,0:0:0:0:
267,81,135438,1,0,0:0:0:0:
267,81,135499,1,0,0:0:0:0:
267,82,135559,1,8,0:0:0:0:
267,81,135620,1,8,0:0:0:0:
271,80,135681,1,8,0:0:0:0:
267,81,135741,1,8,0:0:0:0:
275,80,135802,1,8,0:0:0:0:
276,79,135862,1,8,0:0:0:0:
276,79,135923,1,0,0:0:0:0:
279,76,135984,1,0,0:0:0:0:
279,76,136044,1,0,0:0:0:0:
279,76,136105,1,0,0:0:0:0:
279,76,136165,1,0,0:0:0:0:
273,75,136226,1,0,0:0:0:0:
227,62,136287,1,8,0:0:0:0:
227,62,136347,1,8,0:0:0:0:
227,62,136408,1,0,0:0:0:0:
227,62,136469,1,0,0:0:0:0:
227,62,136529,1,0,0:0:0:0:
227,62,136590,1,0,0:0:0:0:
227,62,136650,1,8,0:0:0:0:
227,62,136711,1,0,0:0:0:0:
227,62,136772,1,0,0:0:0:0:
227,62,136832,1,8,0:0:0:0:
227,62,136893,1,0,0:0:0:0:
227,62,136953,1,0,0:0:0:0:
227,62,137014,1,8,0:0:0:0:
266,212,137196,1,8,0:0:0:0:
317,165,137256,1,8,0:0:0:0:
317,165,137317,1,8,0:0:0:0:
266,212,137378,1,0,0:0:0:0:
232,81,137559,1,8,0:0:0:0:
392,50,137620,1,8,0:0:0:0:
201,96,137681,1,0,0:0:0:0:
231,80,137741,1,0,0:0:0:0:
189,28,137802,1,0,0:0:0:0:
328,163,137862,1,0,0:0:0:0:
237,69,137923,1,8,0:0:0:0:
246,64,138105,1,0,0:0:0:0:
351,69,138165,1,0,0:0:0:0:
351,69,138226,1,8,0:0:0:0:
351,69,138287,1,0,0:0:0:0:
351,69,138347,1,0,0:0:0:0:
351,69,138408,1,0,0:0:0:0:
357,66,138468,1,0,0:0:0:0:
357,66,138529,1,0,0:0:0:0:
351,69,138590,1,0,0:0:0:0:
351,69,138650,1,0,0:0:0:0:
351,69,138711,1,8,0:0:0:0:
351,69,138772,1,0,0:0:0:0:
208,75,138832,1,8,0:0:0:0:
218,125,138893,1,0,0:0:0:0:
218,125,138953,1,0,0:0:0:0:
218,125,139014,1,0,0:0:0:0:
218,125,139074,1,8,0:0:0:0:
218,125,139135,1,8,0:0:0:0:
208,76,139196,1,8,0:0:0:0:
220,61,139256,1,8,0:0:0:0:
219,62,139317,1,0,0:0:0:0:
208,76,139377,1,8,0:0:0:0:
217,63,139438,1,8,0:0:0:0:
217,63,139499,1,8,0:0:0:0:
217,63,139559,1,8,0:0:0:0:
116,149,139620,1,8,0:0:0:0:
123,145,139681,1,8,0:0:0:0:
208,75,139741,1,8,0:0:0:0:
125,142,139802,1,8,0:0:0:0:
124,145,139862,1,8,0:0:0:0:
208,76,139923,1,0,0:0:0:0:
280,157,140105,1,8,0:0:0:0:
267,138,140165,1,8,0:0:0:0:
267,138,140226,1,8,0:0:0:0:
280,157,140287,1,0,0:0:0:0:
232,81,140469,1,8,0:0:0:0:
392,50,140530,1,8,0:0:0:0:
201,96,140591,1,0,0:0:0:0:
231,80,140651,1,0,0:0:0:0:
189,28,140712,1,0,0:0:0:0:
328,163,140772,1,0,0:0:0:0:
237,69,140833,1,8,0:0:0:0:
239,67,141014,1,0,0:0:0:0:
283,65,141074,1,0,0:0:0:0:
273,75,141135,1,0,0:0:0:0:
267,81,141196,1,0,0:0:0:0:
267,81,141256,1,0,0:0:0:0:
267,81,141317,1,0,0:0:0:0:
267,82,141377,1,8,0:0:0:0:
267,81,141438,1,8,0:0:0:0:
271,80,141499,1,8,0:0:0:0:
267,81,141559,1,8,0:0:0:0:
275,80,141620,1,8,0:0:0:0:
276,79,141680,1,8,0:0:0:0:
276,79,141741,1,0,0:0:0:0:
279,76,141802,1,0,0:0:0:0:
279,76,141862,1,0,0:0:0:0:
279,76,141923,1,0,0:0:0:0:
279,76,141983,1,0,0:0:0:0:
273,75,142044,1,0,0:0:0:0:
227,62,142105,1,8,0:0:0:0:
227,62,142165,1,8,0:0:0:0:
227,62,142226,1,0,0:0:0:0:
227,62,142287,1,0,0:0:0:0:
227,62,142347,1,0,0:0:0:0:
227,62,142408,1,0,0:0:0:0:
227,62,142468,1,8,0:0:0:0:
227,62,142529,1,0,0:0:0:0:
227,62,142590,1,0,0:0:0:0:
227,62,142650,1,8,0:0:0:0:
227,62,142711,1,0,0:0:0:0:
227,62,142771,1,0,0:0:0:0:
227,62,142832,1,8,0:0:0:0:
209,122,143014,1,0,0:0:0:0:
249,116,143074,1,0,0:0:0:0:
229,156,143135,1,0,0:0:0:0:
232,81,143196,1,0,0:0:0:0:
392,50,143257,1,8,0:0:0:0:
201,96,143318,1,8,0:0:0:0:
231,80,143378,1,0,0:0:0:0:
189,28,143439,1,0,0:0:0:0:
328,163,143499,1,8,0:0:0:0:
237,69,143559,1,8,0:0:0:0:
163,132,143620,1,0,0:0:0:0:
163,132,143681,1,0,0:0:0:0:
260,102,143742,1,8,0:0:0:0:
244,69,143923,1,0,0:0:0:0:
349,72,143983,1,0,0:0:0:0:
349,72,144044,1,0,0:0:0:0:
349,72,144105,1,0,0:0:0:0:
349,72,144165,1,0,0:0:0:0:
349,72,144226,1,0,0:0:0:0:
355,69,144286,1,8,0:0:0:0:
355,69,144347,1,8,0:0:0:0:
355,69,144408,1,8,0:0:0:0:
355,69,144468,1,8,0:0:0:0:
355,69,144529,1,8,0:0:0:0:
355,69,144589,1,8,0:0:0:0:
212,75,144650,1,0,0:0:0:0:
222,125,144711,1,0,0:0:0:0:
222,125,144771,1,0,0:0:0:0:
222,125,144832,1,0,0:0:0:0:
222,125,144892,1,0,0:0:0:0:
222,125,144953,1,0,0:0:0:0:
212,76,145014,1,8,0:0:0:0:
224,61,145074,1,0,0:0:0:0:
223,62,145135,1,8,0:0:0:0:
212,76,145195,1,0,0:0:0:0:
221,63,145256,1,8,0:0:0:0:
221,63,145317,1,8,0:0:0:0:
221,63,145377,1,8,0:0:0:0:
120,149,145438,1,8,0:0:0:0:
127,145,145498,1,8,0:0:0:0:
212,75,145559,1,8,0:0:0:0:
129,142,145620,1,8,0:0:0:0:
128,145,145680,1,8,0:0:0:0:
212,76,145741,1,0,0:0:0:0:
243,121,145923,1,0,0:0:0:0:
280,162,145984,1,0,0:0:0:0:
280,162,146044,1,8,0:0:0:0:
232,81,146105,1,8,0:0:0:0:
392,50,146166,1,0,0:0:0:0:
201,96,146227,1,0,0:0:0:0:
231,80,146287,1,0,0:0:0:0:
189,28,146348,1,0,0:0:0:0:
328,163,146408,1,8,0:0:0:0:
237,69,146469,1,8,0:0:0:0:
196,147,146529,1,0,0:0:0:0:
243,121,146590,1,0,0:0:0:0:
267,155,146650,1,0,0:0:0:0:
239,67,146832,1,0,0:0:0:0:
283,65,146892,1,0,0:0:0:0:
273,75,146953,1,0,0:0:0:0:
267,81,147014,1,0,0:0:0:0:
267,81,147074,1,0,0:0:0:0:
267,81,147135,1,0,0:0:0:0:
267,82,147195,1,8,0:0:0:0:
267,81,147256,1,8,0:0:0:0:
271,80,147317,1,8,0:0:0:0:
267,81,147377,1,8,0:0:0:0:
275,80,147438,1,8,0:0:0:0:
276,79,147498,1,8,0:0:0:0:
276,79,147559,1,0,0:0:0:0:
279,76,147620,1,0,0:0:0:0:
279,76,147680,1,0,0:0:0:0:
279,76,147741,1,0,0:0:0:0:
279,76,147801,1,0,0:0:0:0:
273,75,147862,1,0,0:0:0:0:
227,62,147923,1,8,0:0:0:0:
227,62,147983,1,8,0:0:0:0:
227,62,148044,1,0,0:0:0:0:
227,62,148105,1,0,0:0:0:0:
227,62,148165,1,0,0:0:0:0:
227,62,148226,1,0,0:0:0:0:
227,62,148286,1,8,0:0:0:0:
227,62,148347,1,0,0:0:0:0:
227,62,148408,1,0,0:0:0:0:
227,62,148468,1,8,0:0:0:0:
227,62,148529,1,0,0:0:0:0:
227,62,148589,1,0,0:0:0:0:
227,62,148650,1,8,0:0:0:0:
226,80,148832,1,8,0:0:0:0:
226,79,149014,1,0,0:0:0:0:
232,81,149196,1,8,0:0:0:0:
392,50,149257,1,8,0:0:0:0:
201,96,149318,1,0,0:0:0:0:
231,80,149378,1,0,0:0:0:0:
189,28,149439,1,0,0:0:0:0:
328,163,149499,1,0,0:0:0:0:
237,69,149560,1,8,0:0:0:0:
227,62,149741,1,0,0:0:0:0:
351,69,149801,1,0,0:0:0:0:
351,69,149862,1,8,0:0:0:0:
351,69,149923,1,0,0:0:0:0:
351,69,149983,1,0,0:0:0:0:
351,69,150044,1,0,0:0:0:0:
357,66,150104,1,0,0:0:0:0:
357,66,150165,1,0,0:0:0:0:
351,69,150226,1,8,0:0:0:0:
351,69,150286,1,8,0:0:0:0:
351,69,150347,1,0,0:0:0:0:
351,69,150408,1,0,0:0:0:0:
351,69,150468,1,8,0:0:0:0:
218,125,150529,1,0,0:0:0:0:
218,125,150589,1,0,0:0:0:0:
218,125,150650,1,0,0:0:0:0:
218,125,150710,1,8,0:0:0:0:
218,125,150771,1,8,0:0:0:0:
208,76,150832,1,8,0:0:0:0:
220,61,150892,1,8,0:0:0:0:
219,62,150953,1,0,0:0:0:0:
208,76,151013,1,8,0:0:0:0:
217,63,151074,1,8,0:0:0:0:
217,63,151135,1,8,0:0:0:0:
217,63,151195,1,8,0:0:0:0:
116,149,151256,1,8,0:0:0:0:
123,145,151317,1,8,0:0:0:0:
208,75,151377,1,8,0:0:0:0:
125,142,151438,1,8,0:0:0:0:
124,145,151498,1,8,0:0:0:0:
242,112,151559,5,8,0:0:0:0:
247,113,151620,1,8,0:0:0:0:
253,113,151681,1,8,0:0:0:0:
249,113,151741,1,8,0:0:0:0:
243,89,151802,1,8,0:0:0:0:
243,89,151862,1,8,0:0:0:0:
243,89,151923,1,8,0:0:0:0:
243,89,151984,1,8,0:0:0:0:
243,89,152044,1,8,0:0:0:0:
243,89,152105,1,8,0:0:0:0:
243,89,152165,1,8,0:0:0:0:
244,89,152226,1,8,0:0:0:0:
290,112,152287,1,8,0:0:0:0:
310,167,152468,1,8,0:0:0:0:
310,167,152529,1,8,0:0:0:0:
310,167,152590,1,8,0:0:0:0:
182,105,152651,1,4,0:0:0:0:
361,97,152832,1,0,0:0:0:0:
304,99,152923,1,0,0:0:0:0:
281,79,153014,1,8,0:0:0:0:
287,102,153196,1,8,0:0:0:0:
281,79,153378,1,0,0:0:0:0:
284,71,153559,1,0,0:0:0:0:
283,70,153650,1,0,0:0:0:0:
268,156,153741,1,8,0:0:0:0:
290,69,153923,1,8,0:0:0:0:
290,68,154014,1,8,0:0:0:0:
268,156,154105,1,0,0:0:0:0:
326,81,154196,1,8,0:0:0:0:
326,81,154287,1,0,0:0:0:0:
326,81,154378,1,0,0:0:0:0:
268,156,154468,1,8,0:0:0:0:
277,81,154650,1,8,0:0:0:0:
268,156,154832,1,0,0:0:0:0:
277,80,155014,1,0,0:0:0:0:
268,156,155196,1,8,0:0:0:0:
262,69,155287,1,0,0:0:0:0:
262,69,155378,1,8,0:0:0:0:
262,69,155468,1,8,0:0:0:0:
268,156,155559,1,0,0:0:0:0:
306,93,155741,1,0,0:0:0:0:
306,92,155832,1,0,0:0:0:0:
298,114,155923,1,8,0:0:0:0:
306,93,156105,1,8,0:0:0:0:
298,114,156287,1,0,0:0:0:0:
306,72,156468,1,0,0:0:0:0:
237,72,156559,1,0,0:0:0:0:
298,114,156650,1,8,0:0:0:0:
250,115,156832,1,0,0:0:0:0:
246,73,156923,1,0,0:0:0:0:
246,73,157105,1,0,0:0:0:0:
250,115,157196,1,0,0:0:0:0:
250,115,157378,1,8,0:0:0:0:
320,76,157559,1,8,0:0:0:0:
250,115,157741,1,0,0:0:0:0:
300,81,157923,1,0,0:0:0:0:
250,115,158105,1,8,0:0:0:0:
297,78,158287,1,8,0:0:0:0:
273,69,158378,1,8,0:0:0:0:
250,115,158468,1,0,0:0:0:0:
300,81,158650,1,0,0:0:0:0:
300,81,158741,1,0,0:0:0:0:
250,115,158832,1,8,0:0:0:0:
318,75,158923,1,0,0:0:0:0:
301,81,159014,1,8,0:0:0:0:
258,113,159196,1,0,0:0:0:0:
335,71,159378,1,0,0:0:0:0:
335,70,159468,1,0,0:0:0:0:
258,112,159559,1,8,0:0:0:0:
335,70,159741,1,8,0:0:0:0:
335,70,159832,1,8,0:0:0:0:
258,113,159923,1,0,0:0:0:0:
265,82,160014,1,8,0:0:0:0:
249,76,160105,1,0,0:0:0:0:
249,76,160196,1,0,0:0:0:0:
258,112,160287,1,8,0:0:0:0:
314,91,160468,1,8,0:0:0:0:
258,113,160650,1,0,0:0:0:0:
314,90,160832,1,0,0:0:0:0:
258,112,161014,1,8,0:0:0:0:
338,91,161105,1,0,0:0:0:0:
336,91,161196,1,8,0:0:0:0:
338,91,161287,1,8,0:0:0:0:
258,113,161378,1,0,0:0:0:0:
272,72,161559,1,0,0:0:0:0:
272,72,161650,1,0,0:0:0:0:
258,112,161741,1,8,0:0:0:0:
310,92,161832,1,0,0:0:0:0:
261,63,161923,1,8,0:0:0:0:
258,113,162105,1,0,0:0:0:0:
245,66,162287,1,0,0:0:0:0:
245,66,162378,1,0,0:0:0:0:
258,112,162468,1,8,0:0:0:0:
258,112,162650,1,0,0:0:0:0:
289,101,162741,1,0,0:0:0:0:
287,99,162923,1,0,0:0:0:0:
258,113,163014,1,0,0:0:0:0:
258,112,163196,1,8,0:0:0:0:
269,57,163378,1,8,0:0:0:0:
269,57,163468,1,8,0:0:0:0:
258,112,163559,1,0,0:0:0:0:
320,66,163741,1,0,0:0:0:0:
258,113,163923,1,8,0:0:0:0:
341,74,164105,1,8,0:0:0:0:
341,72,164196,1,8,0:0:0:0:
258,112,164287,1,4,0:0:0:0:
361,97,164468,1,0,0:0:0:0:
304,99,164559,1,0,0:0:0:0:
281,79,164650,1,8,0:0:0:0:
287,102,164832,1,8,0:0:0:0:
281,79,165014,1,0,0:0:0:0:
291,81,165105,1,8,0:0:0:0:
284,71,165195,1,0,0:0:0:0:
283,70,165286,1,0,0:0:0:0:
268,156,165377,1,8,0:0:0:0:
290,69,165559,1,8,0:0:0:0:
290,68,165650,1,8,0:0:0:0:
268,156,165741,1,0,0:0:0:0:
326,81,165832,1,8,0:0:0:0:
326,81,165923,1,0,0:0:0:0:
326,81,166014,1,0,0:0:0:0:
268,156,166104,1,8,0:0:0:0:
277,81,166286,1,8,0:0:0:0:
268,156,166468,1,0,0:0:0:0:
277,80,166650,1,0,0:0:0:0:
268,156,166832,1,8,0:0:0:0:
262,69,166923,1,0,0:0:0:0:
262,69,167014,1,8,0:0:0:0:
262,69,167104,1,8,0:0:0:0:
268,156,167195,1,0,0:0:0:0:
306,93,167377,1,0,0:0:0:0:
306,92,167468,1,0,0:0:0:0:
298,114,167559,1,8,0:0:0:0:
306,93,167741,1,8,0:0:0:0:
298,114,167923,1,0,0:0:0:0:
275,77,168014,1,8,0:0:0:0:
306,72,168104,1,0,0:0:0:0:
237,72,168195,1,0,0:0:0:0:
298,114,168286,1,8,0:0:0:0:
250,115,168468,1,0,0:0:0:0:
246,73,168559,1,0,0:0:0:0:
246,73,168741,1,0,0:0:0:0:
250,115,168832,1,0,0:0:0:0:
250,115,169014,1,8,0:0:0:0:
320,76,169195,1,8,0:0:0:0:
250,115,169377,1,0,0:0:0:0:
300,81,169559,1,0,0:0:0:0:
250,115,169741,1,8,0:0:0:0:
297,78,169923,1,8,0:0:0:0:
273,69,170014,1,8,0:0:0:0:
250,115,170104,1,0,0:0:0:0:
343,96,170196,1,8,0:0:0:0:
300,81,170286,1,0,0:0:0:0:
300,81,170377,1,0,0:0:0:0:
250,115,170468,1,8,0:0:0:0:
301,81,170650,1,8,0:0:0:0:
258,113,170832,1,0,0:0:0:0:
335,71,171014,1,0,0:0:0:0:
335,70,171104,1,0,0:0:0:0:
258,112,171195,1,8,0:0:0:0:
335,70,171377,1,8,0:0:0:0:
335,70,171468,1,8,0:0:0:0:
258,113,171559,1,0,0:0:0:0:
265,82,171650,1,8,0:0:0:0:
249,76,171741,1,0,0:0:0:0:
249,76,171832,1,0,0:0:0:0:
258,112,171923,1,8,0:0:0:0:
314,91,172104,1,8,0:0:0:0:
258,113,172286,1,0,0:0:0:0:
314,90,172468,1,0,0:0:0:0:
258,112,172650,1,8,0:0:0:0:
338,91,172741,1,0,0:0:0:0:
336,91,172832,1,8,0:0:0:0:
338,91,172923,1,8,0:0:0:0:
258,113,173014,1,0,0:0:0:0:
345,93,173105,1,8,0:0:0:0:
272,72,173195,1,0,0:0:0:0:
272,72,173286,1,0,0:0:0:0:
258,112,173377,1,8,0:0:0:0:
261,63,173559,1,8,0:0:0:0:
258,113,173741,1,0,0:0:0:0:
245,66,173923,1,0,0:0:0:0:
245,66,174014,1,0,0:0:0:0:
258,112,174104,1,8,0:0:0:0:
258,112,174286,1,0,0:0:0:0:
289,101,174377,1,0,0:0:0:0:
287,99,174559,1,0,0:0:0:0:
258,113,174650,1,0,0:0:0:0:
258,112,174832,1,8,0:0:0:0:
269,57,175014,1,8,0:0:0:0:
269,57,175104,1,8,0:0:0:0:
258,112,175195,1,0,0:0:0:0:
320,66,175377,1,0,0:0:0:0:
258,113,175559,1,8,0:0:0:0:
341,74,175741,1,8,0:0:0:0:
341,72,175832,1,8,0:0:0:0:
258,112,175923,1,4,0:0:0:0:
361,97,176105,1,0,0:0:0:0:
304,99,176196,1,0,0:0:0:0:
281,79,176287,1,8,0:0:0:0:
345,93,176378,1,0,0:0:0:0:
287,102,176469,1,8,0:0:0:0:
345,92,176559,1,8,0:0:0:0:
281,79,176651,1,0,0:0:0:0:
284,71,176832,1,0,0:0:0:0:
283,70,176923,1,0,0:0:0:0:
268,156,177014,1,8,0:0:0:0:
290,69,177196,1,8,0:0:0:0:
290,68,177287,1,8,0:0:0:0:
268,156,177378,1,0,0:0:0:0:
326,81,177469,1,8,0:0:0:0:
326,81,177560,1,0,0:0:0:0:
326,81,177651,1,0,0:0:0:0:
268,156,177741,1,8,0:0:0:0:
277,81,177923,1,8,0:0:0:0:
268,156,178105,1,0,0:0:0:0:
277,80,178287,1,0,0:0:0:0:
268,156,178469,1,8,0:0:0:0:
262,69,178560,1,0,0:0:0:0:
262,69,178651,1,8,0:0:0:0:
262,69,178741,1,8,0:0:0:0:
268,156,178832,1,0,0:0:0:0:
278,88,178923,1,8,0:0:0:0:
306,93,179014,1,0,0:0:0:0:
306,92,179105,1,0,0:0:0:0:
298,114,179196,1,8,0:0:0:0:
306,93,179378,1,8,0:0:0:0:
298,114,179560,1,0,0:0:0:0:
276,80,179650,1,8,0:0:0:0:
306,72,179741,1,0,0:0:0:0:
237,72,179832,1,0,0:0:0:0:
298,114,179923,1,8,0:0:0:0:
250,115,180105,1,0,0:0:0:0:
246,73,180196,1,0,0:0:0:0:
246,73,180378,1,0,0:0:0:0:
250,115,180469,1,0,0:0:0:0:
250,115,180651,1,8,0:0:0:0:
320,76,180832,1,8,0:0:0:0:
250,115,181014,1,0,0:0:0:0:
300,81,181196,1,0,0:0:0:0:
250,115,181378,1,8,0:0:0:0:
297,78,181560,1,8,0:0:0:0:
273,69,181651,1,8,0:0:0:0:
250,115,181741,1,0,0:0:0:0:
300,81,181923,1,0,0:0:0:0:
300,81,182014,1,0,0:0:0:0:
250,115,182105,1,8,0:0:0:0:
301,81,182287,1,8,0:0:0:0:
294,92,182378,1,8,0:0:0:0:
258,113,182469,1,0,0:0:0:0:
335,71,182651,1,0,0:0:0:0:
335,70,182741,1,0,0:0:0:0:
258,112,182832,1,8,0:0:0:0:
335,70,183014,1,8,0:0:0:0:
335,70,183105,1,8,0:0:0:0:
258,113,183196,1,0,0:0:0:0:
265,82,183287,1,8,0:0:0:0:
249,76,183378,1,0,0:0:0:0:
249,76,183469,1,0,0:0:0:0:
258,112,183560,1,8,0:0:0:0:
314,91,183741,1,8,0:0:0:0:
258,113,183923,1,0,0:0:0:0:
314,90,184105,1,0,0:0:0:0:
258,112,184287,1,8,0:0:0:0:
338,91,184378,1,0,0:0:0:0:
336,91,184469,1,8,0:0:0:0:
338,91,184560,1,8,0:0:0:0:
258,113,184651,1,0,0:0:0:0:
297,90,184741,1,8,0:0:0:0:
272,72,184832,1,0,0:0:0:0:
272,72,184923,1,0,0:0:0:0:
258,112,185014,1,8,0:0:0:0:
261,63,185196,1,8,0:0:0:0:
258,113,185378,1,0,0:0:0:0:
297,90,185468,1,8,0:0:0:0:
245,66,185560,1,0,0:0:0:0:
245,66,185651,1,0,0:0:0:0:
258,112,185741,1,8,0:0:0:0:
258,112,185923,1,0,0:0:0:0:
289,101,186014,1,0,0:0:0:0:
287,99,186196,1,0,0:0:0:0:
258,113,186287,1,0,0:0:0:0:
258,112,186469,1,8,0:0:0:0:
269,57,186651,1,8,0:0:0:0:
269,57,186741,1,8,0:0:0:0:
258,112,186832,1,0,0:0:0:0:
297,89,186923,1,8,0:0:0:0:
320,66,187014,1,0,0:0:0:0:
258,113,187196,1,8,0:0:0:0:
341,74,187378,1,8,0:0:0:0:
341,72,187469,1,8,0:0:0:0:
258,112,187560,1,4,0:0:0:0:
