osu file format v14

[General]
AudioFilename: audio.mp3
AudioLeadIn: 0
PreviewTime: 83955
Countdown: 0
SampleSet: Normal
StackLeniency: 0.3
Mode: 0
LetterboxInBreaks: 0
EpilepsyWarning: 1
WidescreenStoryboard: 1

[Editor]
DistanceSpacing: 1
BeatDivisor: 8
GridSize: 16
TimelineZoom: 0.9

[Metadata]
Title:Ticking
TitleUnicode:Ticking
Artist:TIN
ArtistUnicode:TIN
Creator:Zanilis-
Version:Easy
Source:
Tags:
BeatmapID:1685760
BeatmapSetID:778540

[Difficulty]
HPDrainRate:3.7
CircleSize:3.1
OverallDifficulty:3.1
ApproachRate:5
SliderMultiplier:0.5
SliderTickRate:2

[Events]
//Background and Video events
0,0,"background.jpg",0,0
//Break Periods
//Storyboard Layer 0 (Background)
//Storyboard Layer 1 (Fail)
//Storyboard Layer 2 (Pass)
//Storyboard Layer 3 (Foreground)
//Storyboard Sound Samples

[TimingPoints]
19955,800,4,1,0,100,1,0
32755,-66.6666666666667,4,1,0,100,0,0
58355,-50,4,1,0,100,0,1
71155,-40,4,1,0,100,0,1
83955,-33.3333333333333,4,1,0,100,0,1
96755,-28.5714285714286,4,1,0,100,0,1
109555,-25,4,1,0,100,0,0

[HitObjects]
86,190,19955,6,0,P|134:170|174:124,1,100
228,74,21955,1,0,0:0:0:0:
249,158,22355,1,0,0:0:0:0:
298,229,22755,1,0,0:0:0:0:
341,153,23155,6,0,P|362:125|474:158,1,150
487,222,25955,1,0,0:0:0:0:
409,262,26355,6,0,P|363:283|312:287,1,100
240,240,28355,1,0,0:0:0:0:
305,181,28755,1,0,0:0:0:0:
253,110,29155,1,0,0:0:0:0:
166,98,29555,6,0,P|129:113|137:223,1,150
198,253,32355,1,0,0:0:0:0:
269,204,32755,6,0,L|321:166,2,56.2500021457673
142,174,34555,2,0,L|182:120,1,56.2500021457673
348,127,35955,6,0,L|403:93,2,56.2500021457673
290,242,37755,2,0,L|356:225,1,56.2500021457673
216,112,39155,6,0,L|243:47,2,56.2500021457673
88,132,40955,2,0,L|81:71,1,56.2500021457673
158,36,41955,1,0,0:0:0:0:
235,73,42355,6,0,L|251:132,2,56.2500021457673
354,22,44155,2,0,L|416:23,1,56.2500021457673
283,140,45555,6,0,L|247:165,1,37.5000014305115
227,78,46355,2,0,L|255:53,1,37.5000014305115
274,137,47155,2,0,L|238:171,1,37.5000014305115
186,100,47955,1,0,0:0:0:0:
168,184,48355,1,0,0:0:0:0:
254,186,48755,6,0,L|283:226,1,37.5000014305115
320,142,49555,2,0,L|310:98,1,37.5000014305115
225,110,50355,2,0,L|174:111,1,37.5000014305115
171,25,51155,1,0,0:0:0:0:
84,30,51555,1,0,0:0:0:0:
256,192,51955,12,0,56755,0:0:0:0:
198,129,58355,6,0,L|306:108,1,100
358,167,59555,2,0,P|381:221|359:277,1,100
286,256,60755,1,0,0:0:0:0:
286,256,61155,5,0,0:0:0:0:
286,256,61555,6,0,P|260:197|221:159,1,100
287,103,62755,2,0,P|318:127|381:110,1,100
445,162,63955,1,0,0:0:0:0:
399,233,64355,1,0,0:0:0:0:
366,154,64755,6,0,P|346:122|286:106,1,100
241,176,65955,2,0,P|188:195|141:171,1,100
151,94,67155,1,0,0:0:0:0:
151,94,67555,5,0,0:0:0:0:
151,94,67955,6,0,P|120:77|50:90,1,100
59,169,69155,2,0,P|91:166|118:220,1,100
49,270,70355,1,0,0:0:0:0:
122,313,70755,1,0,0:0:0:0:
171,244,71155,6,0,L|304:277,1,125
297,186,72355,2,0,P|302:149|213:115,1,125
197,183,73555,1,0,0:0:0:0:
197,183,73955,5,0,0:0:0:0:
197,183,74355,6,0,P|151:166|123:91,1,125
209,90,75555,2,0,P|243:106|319:59,1,125
245,14,76755,1,0,0:0:0:0:
157,14,77155,1,0,0:0:0:0:
104,83,77555,6,0,P|76:121|65:210,1,125
149,188,78755,2,0,P|187:168|218:89,1,125
288,42,79955,1,0,0:0:0:0:
288,42,80355,5,0,0:0:0:0:
288,42,80755,6,0,P|338:47|396:102,1,125
320,144,81955,2,0,P|323:196|271:263,1,125
348,314,83155,1,0,0:0:0:0:
418,261,83555,1,0,0:0:0:0:
461,345,83955,6,0,P|494:326|514:302,1,56.2500021457673
495,218,84555,2,0,L|497:176,2,37.5000014305115
443,256,85155,2,0,P|410:264|339:186,1,150.000005722046
457,141,86355,2,0,L|421:158,3,37.5000014305115
365,129,87155,6,0,P|326:124|297:110,1,56.2500021457673
229,168,87755,2,0,L|180:188,2,37.5000014305115
250,107,88355,2,0,P|238:90|121:88,1,150.000005722046
122,184,89555,1,0,0:0:0:0:
203,236,89955,1,0,0:0:0:0:
258,156,90355,6,0,P|278:148|328:151,1,56.2500021457673
402,114,90955,2,0,L|436:87,2,37.5000014305115
382,174,91555,2,0,P|401:205|318:229,1,150.000005722046
196,229,92755,2,0,L|153:254,1,37.5000014305115
99,246,93155,2,0,L|57:263,1,37.5000014305115
34,317,93555,6,0,P|53:348|78:364,1,56.2500021457673
141,297,94155,2,0,L|163:251,2,37.5000014305115
182,346,94755,2,0,P|203:358|288:289,1,150.000005722046
322,202,95955,1,0,0:0:0:0:
241,146,96355,1,0,0:0:0:0:
140,199,96755,6,0,P|128:158|135:126,2,65.6250006258488
195,212,97555,2,0,L|251:214,1,43.7500004172325
280,174,97955,2,0,P|330:171|392:72,1,175.00000166893
279,61,99155,2,0,L|218:64,3,43.7500004172325
209,113,99955,6,0,L|157:176,2,65.6250006258488
266,111,100755,2,0,L|341:110,1,43.7500004172325
353,146,101155,2,0,P|417:150|465:248,1,175.00000166893
352,243,102355,2,0,L|277:267,2,43.7500004172325
269,164,103155,6,0,P|212:178|192:180,2,65.6250006258488
304,118,103955,2,0,L|315:75,1,43.7500004172325
280,30,104355,2,0,P|237:22|178:122,1,175.00000166893
290,116,105555,6,0,L|310:160,1,43.7500004172325
361,175,105955,2,0,L|380:220,1,43.7500004172325
365,270,106355,6,0,P|343:297|300:323,2,65.6250006258488
419,252,107155,2,0,L|478:242,1,43.7500004172325
507,278,107555,2,0,P|522:308|421:359,1,175.00000166893
371,283,108755,1,0,0:0:0:0:
390,184,109155,1,0,0:0:0:0:
