osu file format v14

[General]
AudioFilename: audio.mp3
AudioLeadIn: 0
PreviewTime: 48720
Countdown: 0
SampleSet: Soft
StackLeniency: 0.4
Mode: 0
LetterboxInBreaks: 0
WidescreenStoryboard: 1

[Editor]
DistanceSpacing: 1.11
BeatDivisor: 4
GridSize: 16
TimelineZoom: 1.850002

[Metadata]
Title:forever we can make it! (TV Size)
TitleUnicode:forever we can make it! (TV Size)
Artist:THYME
ArtistUnicode:THYME
Creator:Kudosu
Version:Hard
Source:To LOVEる -とらぶる-
Tags:to love ru trouble opening op 1 sayaka kamiyama japanese rock j-rock anime kowari soop so0p
BeatmapID:2598841
BeatmapSetID:1250456

[Difficulty]
HPDrainRate:5
CircleSize:4
OverallDifficulty:6
ApproachRate:8
SliderMultiplier:1.4
SliderTickRate:1

[Events]
//Background and Video events
0,0,"to love ru bg.jpg",0,0
//Break Periods
//Storyboard Layer 0 (Background)
//Storyboard Layer 1 (Fail)
//Storyboard Layer 2 (Pass)
//Storyboard Layer 3 (Foreground)
//Storyboard Layer 4 (Overlay)
//Storyboard Sound Samples

[TimingPoints]
802,324.324324324324,4,2,1,70,1,0
1653,297.029702970297,4,2,1,70,1,0
2099,324.324324324324,4,2,1,70,1,0
7288,-125,4,2,1,55,0,0
17666,-111.111111111111,4,2,1,60,0,0
22856,-125,4,2,1,60,0,0
26747,-111.111111111111,4,2,1,60,0,0
28045,-125,4,2,1,55,0,0
37126,-125,4,2,1,65,0,0
41018,-125,4,2,1,55,0,0
43612,-111.111111111111,4,2,1,65,0,0
47504,-111.111111111111,4,2,1,75,0,0
48801,-100,4,2,1,75,0,0

[Colours]
Combo1 : 248,235,165
Combo2 : 241,120,120
Combo3 : 184,216,239
Combo4 : 243,150,194

[HitObjects]
401,377,1653,5,8,0:0:0:0:
397,362,1801,1,8,0:0:0:0:
394,347,1950,1,8,0:0:0:0:
321,286,2099,6,0,L|342:147,1,140,6|8,1:2|0:0,0:0:0:0:
342,147,2585,1,0,0:0:0:0:
287,77,2747,2,0,B|223:69|215:117|152:102,1,140,2|8,1:2|0:0,0:0:0:0:
152,102,3396,6,0,L|162:32,1,70,2|0,1:2|0:0,0:0:0:0:
83,164,3720,2,0,L|93:233,1,70,8|0,0:0|1:0,0:0:0:0:
0,359,4045,2,0,P|63:319|130:346,1,140,2|8,0:0|0:0,0:0:0:0:
121,337,4531,1,2,0:0:0:0:
211,380,4693,6,0,L|280:369,1,70,0|0,1:0|0:0,0:0:0:0:
359,316,5018,2,0,P|377:353|367:397,1,70,10|0,2:0|0:0,0:0:0:0:
273,274,5342,2,0,P|255:208|294:152,1,140,0|8,1:0|2:0,0:0:0:0:
318,61,5829,2,0,B|254:53|246:101|183:86,1,140,2|0,0:0|0:0,0:0:0:0:
103,130,6315,2,0,L|93:61,2,70,8|0|0,0:0|1:0|0:0,0:0:0:0:
181,177,6801,5,8,2:0:0:0:
177,192,6964,1,8,2:0:0:0:
174,207,7127,1,8,2:0:0:0:
88,291,7288,6,0,B|135:283|135:283|161:295|161:295|209:288,1,112,6|10,1:2|0:0,0:0:0:0:
266,332,7774,2,0,P|282:279|256:231,1,112,2|2,0:0|1:2,0:0:0:0:
312,172,8261,2,0,L|367:180,1,56,10|2,2:2|0:0,0:0:0:0:
461,141,8585,5,2,1:2:0:0:
461,141,8747,2,0,L|440:267,1,112,2|2,0:0|1:2,0:0:0:0:
443,251,9396,1,2,1:2:0:0:
383,306,9558,2,0,L|327:297,1,56,10|0,2:2|0:0,0:0:0:0:
252,321,9883,6,0,L|258:376,1,56,2|0,1:2|0:0,0:0:0:0:
175,296,10207,2,0,L|192:185,1,112,10|2,0:0|1:2,0:0:0:0:
129,135,10693,2,0,P|115:159|112:186,1,56,2|8,1:2|2:0,0:0:0:0:
204,106,11018,6,0,B|251:98|251:98|277:110|277:110|325:103,1,112,2|0,0:0|0:0,0:0:0:0:
396,119,11504,2,0,L|388:64,1,56,8|0,2:0|1:0,0:0:0:0:
470,156,11829,2,0,L|461:211,1,56,2|0,0:3|1:0,0:0:0:0:
510,276,12153,1,8,2:0:0:0:
375,349,12477,6,0,L|248:328,1,112,6|10,1:2|0:0,0:0:0:0:
201,384,12964,2,0,P|176:334|194:283,1,112,2|2,0:0|1:2,0:0:0:0:
144,220,13450,2,0,L|88:228,1,56,10|2,2:2|0:0,0:0:0:0:
209,167,13774,6,0,L|319:184,1,112,2|8,1:2|2:0,0:0:0:0:
389,141,14261,1,2,1:2:0:0:
389,141,14585,2,0,L|378:77,2,56,2|10|2,1:2|2:2|0:0,0:0:0:0:
461,179,15072,6,0,L|443:289,1,112,2|10,1:2|0:0,0:0:0:0:
443,289,15720,1,2,1:2:0:0:
370,325,15883,2,0,L|378:380,1,56,2|8,1:2|2:0,0:0:0:0:
291,306,16207,6,0,P|247:281|180:298,1,112,2|0,0:0|0:0,0:0:0:0:
105,277,16693,2,0,L|114:333,1,56,8|0,2:0|1:0,0:0:0:0:
32,242,17018,2,0,L|40:186,1,56,2|0,0:1|1:0,0:0:0:0:
0,116,17342,1,8,2:2:0:0:
159,50,17666,6,0,B|206:42|206:42|241:57|241:57|280:50,1,125.999996154785,6|10,1:2|0:0,0:0:0:0:
351,104,18153,2,0,L|331:228,1,125.999996154785,2|2,0:0|1:2,0:0:0:0:
391,293,18639,2,0,L|453:283,1,62.9999980773926,10|2,2:2|0:0,0:0:0:0:
322,349,18964,5,2,1:2:0:0:
322,349,19126,2,0,P|253:307|201:332,1,125.999996154785,2|2,0:0|1:2,0:0:0:0:
215,319,19774,2,0,L|224:381,2,62.9999980773926,2|10|2,1:2|2:2|0:0,0:0:0:0:
136,279,20261,6,0,L|145:216,1,62.9999980773926,2|2,1:2|0:0,0:0:0:0:
86,152,20585,2,0,P|63:190|68:223,1,62.9999980773926,10|2,0:2|0:0,0:0:0:0:
170,132,20910,1,2,1:2:0:0:
170,132,21072,2,0,P|264:108|291:125,1,125.999996154785,2|2,1:2|0:0,0:0:0:0:
512,98,21883,6,0,P|453:114|399:85,1,125.999996154785,10|2,2:0|0:0,0:0:0:0:
362,165,22369,2,0,L|381:289,1,125.999996154785,2|2,1:2|0:0,0:0:0:0:
290,376,22856,6,0,L|298:320,1,56,4|0,1:2|0:0,0:0:0:0:
233,262,23180,2,0,B|197:256|197:256|171:268|171:268|124:260,2,112,10|0|8,0:0|1:0|2:0,0:0:0:0:
307,213,23991,1,2,0:0:0:0:
307,213,24315,2,0,L|362:221,2,56,2|8|0,0:0|2:0|1:0,0:0:0:0:
246,149,24801,2,0,L|265:24,1,112,2|8,0:0|2:0,0:0:0:0:
81,78,25450,6,0,L|90:134,1,56,2|0,1:2|0:0,0:0:0:0:
166,182,25774,2,0,L|155:245,1,56,10|0,0:0|0:0,0:0:0:0:
215,307,26099,2,0,P|305:283|334:303,1,112,2|14,1:2|2:0,0:0:0:0:
394,157,26747,6,0,L|384:94,2,62.9999980773926,12|8|8,1:2|0:0|0:0,0:0:0:0:
467,207,27234,2,0,L|457:269,1,62.9999980773926,8|8,0:0|0:0,0:0:0:0:
369,328,27558,1,10,0:0:0:0:
369,328,27720,1,10,0:0:0:0:
282,270,27882,1,10,0:0:0:0:
198,326,28045,6,0,L|210:405,1,56,6|2,1:2|1:2,0:0:0:0:
118,288,28369,2,0,L|138:161,1,112,2|8,1:2|0:0,0:0:0:0:
81,117,28856,2,0,L|25:125,2,56,2|2|2,0:0|0:0|0:0,0:0:0:0:
141,62,29342,6,0,L|196:70,1,56,2|2,1:2|1:2,0:0:0:0:
287,30,29666,2,0,L|269:140,1,112,2|8,1:2|0:0,0:0:0:0:
330,196,30153,2,0,L|385:187,2,56,2|2|2,0:0|0:0|0:0,0:0:0:0:
289,266,30639,6,0,B|242:258|242:258|216:270|216:270|168:263,2,112,6|2|8,1:2|1:2|0:0,0:0:0:0:
289,266,31612,2,0,L|280:321,1,56,2|2,0:0|0:0,0:0:0:0:
215,370,31937,6,0,L|159:361,1,56,0|8,1:0|2:0,0:0:0:0:
95,312,32261,2,0,L|39:320,1,56,2|2,0:0|1:2,0:0:0:0:
147,250,32585,1,8,0:0:0:0:
80,204,32747,1,2,1:2:0:0:
80,204,32829,1,2,0:0:0:0:
80,204,32910,2,0,P|76:157|90:133,1,56,10|2,0:0|0:0,0:0:0:0:
90,66,33234,6,0,L|35:75,1,56,2|2,1:2|1:2,0:0:0:0:
156,118,33558,2,0,L|282:138,1,112,2|8,1:2|0:0,0:0:0:0:
328,82,34045,2,0,L|317:18,2,56,2|2|2,0:0|0:0|0:0,0:0:0:0:
399,121,34531,6,0,L|390:176,1,56,2|2,1:2|1:2,0:0:0:0:
431,265,34856,2,0,L|320:247,1,112,2|8,1:2|0:0,0:0:0:0:
238,277,35342,2,0,L|230:222,2,56,2|2|2,0:0|0:0|0:0,0:0:0:0:
177,331,35829,6,0,P|129:297|77:308,2,112,2|2|8,1:2|1:2|0:0,0:0:0:0:
177,331,36801,2,0,L|167:386,1,56,2|2,0:0|0:0,0:0:0:0:
256,362,37126,6,0,B|299:314|349:318|349:318|375:350|401:346,1,168,14|2,0:0|0:0,0:0:0:0:
473,310,37774,2,0,B|493:183|493:183|478:204|456:210,1,168,14|2,0:0|0:0,0:0:0:0:
364,145,38423,6,0,L|419:136,1,56,10|2,0:2|0:0,0:0:0:0:
300,195,38747,2,0,L|244:186,1,56,10|0,0:2|0:0,0:0:0:0:
92,112,39720,6,0,L|83:56,1,56,10|2,0:2|0:0,0:0:0:0:
166,147,40045,2,0,L|157:202,1,56,10|8,0:2|0:0,0:0:0:0:
156,209,40288,1,8,0:0:0:0:
155,217,40369,1,8,0:0:0:0:
95,273,40531,2,0,P|68:275|42:264,2,56,8|8|8,0:0|0:3|0:3,0:0:0:0:
160,324,41018,6,0,P|226:293|267:303,1,112,6|2,1:2|1:2,0:0:0:0:
320,357,41504,1,2,0:0:0:0:
383,306,41666,2,0,P|372:244|362:179,1,112,10|2,0:0|0:0,0:0:0:0:
365,195,42315,6,0,L|420:203,1,56,2|0,1:2|1:2,0:0:0:0:
310,143,42639,1,2,1:2:0:0:
310,143,42801,2,0,L|246:153,1,56,2|10,0:0|0:0,0:0:0:0:
191,101,43126,2,0,L|201:37,2,56,2|10|2,1:2|0:0|0:0,0:0:0:0:
124,147,43612,6,0,P|98:124|6:128,1,125.999996154785,6|2,1:2|0:3,0:0:0:0:
86,281,44261,2,0,L|221:259,1,125.999996154785,10|2,2:2|0:3,0:0:0:0:
369,329,44910,6,0,P|360:370|380:409,1,62.9999980773926,2|8,1:2|2:2,0:0:0:0:
449,295,45234,2,0,L|512:305,1,62.9999980773926,2|0,0:0|1:0,0:0:0:0:
378,244,45558,1,8,2:3:0:0:
378,244,45720,2,0,B|339:251|339:251|304:236|304:236|257:244,1,125.999996154785,2|8,1:2|0:0,0:0:0:0:
180,314,46207,6,0,L|161:190,1,125.999996154785,6|2,1:2|0:3,0:0:0:0:
301,97,46856,2,0,P|347:136|408:127,1,125.999996154785,10|2,2:2|0:3,0:0:0:0:
226,0,47504,6,0,L|216:62,1,62.9999980773926,14|0,0:0|0:0,0:0:0:0:
131,109,47829,2,0,L|121:46,1,62.9999980773926,14|2,0:0|0:0,0:0:0:0:
215,160,48153,1,8,0:0:0:0:
129,208,48315,1,8,0:0:0:0:
129,208,48396,1,8,0:0:0:0:
129,208,48477,2,0,L|124:239,3,31.4999990386963,8|8|8|0,0:0|0:0|0:0|0:0,0:0:0:0:
139,260,48801,6,0,B|203:252|211:300|274:285,1,140,4|8,1:2|0:0,0:0:0:0:
373,259,49288,1,0,1:0:0:0:
373,259,49369,1,8,0:0:0:0:
373,259,49450,2,0,L|362:329,1,70,2|0,1:2|1:0,0:0:0:0:
300,186,49774,2,0,L|289:116,1,70,8|0,2:0|0:0,0:0:0:0:
329,27,50099,6,0,B|278:18|278:18|252:31|252:31|193:21,2,140,2|8|2,1:2|0:0|1:2,0:0:0:0:
425,17,50910,1,0,1:0:0:0:
386,106,51072,2,0,P|380:171|396:197,1,70,8|0,2:0|0:0,0:0:0:0:
469,216,51396,6,0,P|461:170|455:133,1,70,2|0,1:2|0:0,0:0:0:0:
387,269,51720,2,0,P|311:254|240:245,1,140,10|2,2:2|1:2,0:0:0:0:
176,180,52207,1,0,1:0:0:0:
89,225,52369,2,0,P|95:259|99:294,1,70,10|0,2:0|0:0,0:0:0:0:
176,180,52693,6,0,P|180:145|186:110,1,70,0|0,1:0|0:0,0:0:0:0:
103,58,53018,2,0,P|157:16|226:19,1,140,8|0,2:0|1:0,0:0:0:0:
322,0,53504,1,0,1:0:0:0:
290,92,53666,2,0,L|301:167,1,70,8|0,2:0|0:0,0:0:0:0:
378,223,53991,6,0,B|442:215|450:263|513:248,1,140,2|8,1:2|0:0,0:0:0:0:
393,326,54477,1,0,1:0:0:0:
393,326,54558,1,8,0:0:0:0:
393,326,54639,2,0,L|323:315,1,70,2|0,1:2|1:0,0:0:0:0:
222,334,54964,2,0,L|232:264,1,70,8|0,2:0|0:0,0:0:0:0:
162,197,55288,6,0,P|120:230|16:200,2,140,2|8|2,1:2|0:0|1:2,0:0:0:0:
255,169,56099,1,0,1:0:0:0:
184,102,56261,2,0,L|194:32,1,70,8|0,2:0|0:0,0:0:0:0:
93,138,56585,6,0,L|103:207,1,70,2|0,1:2|0:0,0:0:0:0:
65,298,56910,2,0,P|97:309|131:304,1,70,10|0,2:2|0:0,0:0:0:0:
220,358,57234,1,2,1:2:0:0:
220,358,57396,1,0,1:0:0:0:
285,286,57558,1,10,2:0:0:0:
285,286,57720,6,0,B|294:235|294:235|281:209|281:209|291:150,1,140,6|0,1:2|1:0,0:0:0:0:
358,79,58207,2,0,L|437:91,1,70,8|0,2:0|0:0,0:0:0:0:
286,10,58531,1,0,1:0:0:0:
218,81,58693,1,8,0:0:0:0:
218,81,58774,1,8,0:0:0:0:
218,81,58856,2,0,L|154:70,3,35,8|8|8|0,2:0|2:0|2:0|0:0,0:0:0:0:
161,89,59180,6,0,L|183:231,1,140,4|8,1:2|0:0,0:0:0:0:
115,298,59666,1,0,1:0:0:0:
115,298,59747,1,8,0:0:0:0:
115,298,59829,2,0,L|45:287,1,70,2|0,1:2|1:0,0:0:0:0:
182,227,60153,2,0,L|251:216,1,70,8|0,2:0|0:0,0:0:0:0:
336,265,60477,6,0,P|294:302|320:386,2,140,2|8|2,1:2|0:0|1:2,0:0:0:0:
422,217,61288,1,0,1:0:0:0:
337,167,61450,2,0,L|352:72,1,70,8|0,2:0|0:0,0:0:0:0:
264,47,61774,6,0,L|195:57,1,70,2|0,1:2|0:0,0:0:0:0:
85,0,62099,2,0,L|108:139,1,140,10|2,2:2|1:2,0:0:0:0:
195,184,62585,1,0,1:0:0:0:
113,237,62747,2,0,L|33:224,1,70,10|0,2:0|0:0,0:0:0:0:
200,282,63072,6,0,L|187:361,1,70,0|0,1:0|0:0,0:0:0:0:
282,334,63396,2,0,B|346:326|354:374|417:359,1,140,8|0,2:0|1:0,0:0:0:0:
491,295,63883,1,2,1:2:0:0:
399,262,64045,2,0,L|411:182,1,70,8|2,2:0|0:0,0:0:0:0:
345,119,64369,6,0,P|287:157|220:143,1,140,0|8,1:2|0:0,0:0:0:0:
138,90,64856,1,0,1:0:0:0:
138,90,64937,1,8,0:0:0:0:
138,90,65018,2,0,L|127:159,1,70,2|0,1:2|1:0,0:0:0:0:
62,231,65342,2,0,P|27:234|-3:218,1,70,8|0,2:0|0:0,0:0:0:0:
133,299,65666,6,0,B|184:290|184:290|210:303|210:303|269:293,1,140,2|8,1:2|0:0,0:0:0:0:
268,293,66315,2,0,L|257:362,1,70,2|0,1:2|1:0,0:0:0:0:
355,248,66639,1,8,2:0:0:0:
272,195,66801,6,0,L|202:205,2,70,2|0|0,0:0|1:2|0:0,0:0:0:0:
360,150,67288,2,0,B|386:85|386:85|352:14,1,140,10|2,2:2|1:2,0:0:0:0:
443,204,67937,1,10,2:0:0:0:
283,94,68261,6,0,L|213:84,1,70,2|8,1:2|0:0,0:0:0:0:
205,83,68504,1,8,0:0:0:0:
197,82,68586,1,10,2:0:0:0:
112,35,68747,2,0,L|104:-12,2,35,8|8|10,0:3|0:0|0:0,0:0:0:0:
114,132,69072,1,10,0:3:0:0:
114,132,69153,1,8,0:2:0:0:
114,132,69234,2,0,L|106:179,3,35,8|8|10|8,0:2|0:3|0:3|0:3,0:0:0:0:
123,188,69558,6,0,B|174:179|174:179|200:192|200:192|259:182,1,140,4|8,1:2|0:0,0:0:0:0:
325,111,70045,1,0,1:0:0:0:
325,111,70126,1,8,0:0:0:0:
325,111,70207,2,0,L|314:41,1,70,2|0,1:2|1:0,0:0:0:0:
419,138,70531,2,0,L|406:217,1,70,8|0,2:0|0:0,0:0:0:0:
375,340,70856,6,0,P|429:298|497:303,2,140,2|8|2,1:2|0:0|1:2,0:0:0:0:
332,252,71666,1,0,1:0:0:0:
246,300,71829,2,0,L|166:287,1,70,8|0,2:0|0:0,0:0:0:0:
82,313,72153,6,0,L|97:407,1,70,2|0,1:2|0:0,0:0:0:0:
176,289,72477,2,0,B|202:224|202:224|168:153,1,140,10|2,2:2|1:2,0:0:0:0:
77,136,72964,1,0,1:0:0:0:
145,67,73126,2,0,L|224:79,1,70,10|0,2:0|0:0,0:0:0:0:
309,55,73450,6,0,L|298:124,1,70,0|0,1:0|0:0,0:0:0:0:
376,183,73774,1,8,2:0:0:0:
376,183,73937,2,0,L|445:172,1,70,0|0,0:0|1:0,0:0:0:0:
512,244,74261,1,0,1:0:0:0:
446,316,74423,2,0,L|376:305,1,70,8|0,2:0|0:0,0:0:0:0:
290,384,74747,6,0,L|267:241,1,140,2|8,1:2|0:0,0:0:0:0:
218,173,75234,1,0,1:0:0:0:
218,173,75315,1,8,0:0:0:0:
218,173,75396,2,0,P|275:157|301:168,1,70,2|0,1:2|1:0,0:0:0:0:
180,251,75720,2,0,P|145:252|114:237,1,70,8|0,2:0|0:0,0:0:0:0:
0,218,76045,6,0,P|42:163|36:95,2,140,2|8|2,1:2|0:0|1:2,0:0:0:0:
40,308,76856,1,0,1:0:0:0:
112,242,77018,2,0,L|191:254,1,70,8|0,2:0|0:0,0:0:0:0:
277,234,77342,6,0,L|266:303,1,70,2|0,1:2|0:0,0:0:0:0:
214,160,77666,2,0,L|225:91,1,70,10|0,2:2|0:0,0:0:0:0:
324,70,77991,1,2,1:2:0:0:
324,70,78153,1,0,1:0:0:0:
423,100,78315,1,10,2:0:0:0:
423,100,78477,6,0,L|448:258,1,140,6|0,1:2|1:0,0:0:0:0:
371,303,78964,2,0,L|301:292,1,70,8|0,2:0|0:0,0:0:0:0:
209,324,79288,1,0,1:0:0:0:
227,228,79450,1,8,0:0:0:0:
227,228,79531,1,8,0:0:0:0:
227,228,79612,2,0,L|234:180,3,35,8|8|8|8,2:0|2:0|2:0|2:0,0:0:0:0:
210,179,79937,6,0,P|168:212|64:182,1,140,4|8,1:2|0:0,0:0:0:0:
35,120,80423,1,0,1:0:0:0:
35,120,80504,1,8,0:0:0:0:
35,120,80585,2,0,L|104:109,1,70,2|0,1:2|1:0,0:0:0:0:
194,69,80910,2,0,L|183:0,1,70,8|0,2:0|0:0,0:0:0:0:
287,100,81234,6,0,B|351:92|359:140|422:125,2,140,2|8|2,1:2|0:0|1:2,0:0:0:0:
194,69,82045,1,0,1:0:0:0:
212,166,82207,2,0,L|199:245,1,70,8|0,2:0|0:0,0:0:0:0:
112,276,82531,6,0,P|116:205|129:192,1,70,2|0,1:2|0:0,0:0:0:0:
192,332,82856,2,0,B|243:323|243:323|269:336|269:336|328:326,1,140,10|2,2:2|1:2,0:0:0:0:
415,370,83342,1,0,1:0:0:0:
409,271,83504,2,0,L|424:176,1,70,10|0,2:0|0:0,0:0:0:0:
309,148,83829,6,0,L|320:218,1,70,0|0,1:0|0:0,0:0:0:0:
232,254,84153,1,8,2:0:0:0:
232,254,84315,2,0,L|137:238,1,70,0|0,0:0|1:0,0:0:0:0:
72,279,84639,1,2,1:2:0:0:
86,184,84801,2,0,L|73:104,1,70,8|2,2:0|0:0,0:0:0:0:
142,43,85126,6,0,P|188:81|283:53,1,140,0|8,1:2|0:0,0:0:0:0:
367,95,85612,1,0,1:0:0:0:
367,95,85693,1,8,0:0:0:0:
367,95,85774,2,0,L|356:25,1,70,2|0,1:2|1:0,0:0:0:0:
446,154,86099,2,0,L|430:248,1,70,8|0,2:0|0:0,0:0:0:0:
475,313,86423,6,0,B|424:322|424:322|398:309|398:309|339:319,1,140,2|8,1:2|0:0,0:0:0:0:
339,318,87072,2,0,L|351:387,1,70,2|0,1:2|1:0,0:0:0:0:
254,272,87396,1,8,2:0:0:0:
341,219,87558,6,0,L|410:229,2,70,2|0|0,0:0|1:2|0:0,0:0:0:0:
256,173,88045,2,0,B|191:147|191:147|120:181,1,140,10|2,2:2|1:2,0:0:0:0:
34,149,88531,1,0,1:0:0:0:
56,243,88693,2,0,L|43:322,1,70,10|0,2:0|0:0,0:0:0:0:
140,338,89017,6,0,L|242:322,1,93.3333333333333,2|8,1:3|0:0,0:0:0:0:
310,312,89342,2,0,L|303:359,2,46.6666666666667,8|8|8,0:0|0:0|2:2,0:0:0:0:
259,251,89666,1,2,1:3:0:0:
338,182,89829,5,8,0:0:0:0:
334,197,89990,1,8,0:0:0:0:
331,212,90153,1,8,0:0:0:0:
