osu file format v14

[General]
AudioFilename: audio.MP3
AudioLeadIn: 0
PreviewTime: 48801
Countdown: 0
SampleSet: Soft
StackLeniency: 0.7
Mode: 2
LetterboxInBreaks: 0
WidescreenStoryboard: 1

[Editor]
Bookmarks: 6801,22855,27882,80585
DistanceSpacing: 1
BeatDivisor: 4
GridSize: 4
TimelineZoom: 1.5

[Metadata]
Title:forever we can make it! (TV Size)
TitleUnicode:forever we can make it! (TV Size)
Artist:THYME
ArtistUnicode:THYME
Creator:Kukkai
Version:Salad
Source:To LOVEる -とらぶる-
Tags:to love ru trouble anime op season 1 Opening Japanese rock j-rock
BeatmapID:3281746
BeatmapSetID:1095030

[Difficulty]
HPDrainRate:3
CircleSize:3
OverallDifficulty:7
ApproachRate:7
SliderMultiplier:1.5
SliderTickRate:1

[Events]
//Background and Video events
0,0,"bg.jpg",0,0
//Break Periods
//Storyboard Layer 0 (Background)
//Storyboard Layer 1 (Fail)
//Storyboard Layer 2 (Pass)
//Storyboard Layer 3 (Foreground)
//Storyboard Layer 4 (Overlay)
//Storyboard Sound Samples

[TimingPoints]
802,324.324324324324,4,2,1,70,1,0
1653,297.029702970297,4,2,1,70,1,0
2099,324.324324324324,4,2,1,70,1,0
7288,-111.111111111111,4,2,1,60,0,0
26423,-111.111111111111,4,2,2,60,0,0
26747,-111.111111111111,4,2,1,60,0,0
28044,-111.111111111111,4,2,2,65,0,0
37126,-111.111111111111,4,2,1,65,0,0
41017,-111.111111111111,4,2,2,65,0,0
48801,-100,4,2,1,75,0,1
58207,-100,4,2,2,75,0,1
59180,-100,4,2,1,75,0,1
64369,-100,4,2,1,75,0,0
69558,-100,4,2,1,75,0,1
78963,-100,4,2,2,75,0,1
79936,-100,4,2,1,75,0,1
89017,-100,4,2,1,75,0,0

[Colours]
Combo1 : 143,207,204
Combo2 : 243,160,187
Combo3 : 243,199,139
Combo4 : 125,140,193
Combo5 : 184,136,116

[HitObjects]
232,200,1653,6,0,L|132:200,2,75,8|8|8,1:2|1:2|1:2,0:0:0:0:
314,196,2099,6,0,L|314:32,1,150,6|8,1:2|0:2,0:0:0:0:
158,64,2747,2,0,L|50:64,2,75,2|0|8,1:2|1:2|0:2,0:0:0:0:
314,176,3396,6,0,L|158:176,1,150,2|8,1:2|0:2,0:0:0:0:
86,180,3882,1,0,1:2:0:0:
238,184,4207,2,0,L|238:96,1,75,0|8,1:2|0:2,0:0:0:0:
82,340,4693,6,0,L|82:180,1,150,0|10,1:2|0:2,0:0:0:0:
238,192,5342,1,0,1:2:0:0:
313,192,5504,1,0,1:2:0:0:
388,192,5666,1,8,0:2:0:0:
230,328,5990,6,0,P|190:260|250:204,1,150,0|8,1:2|0:2,0:0:0:0:
302,212,6477,1,0,1:2:0:0:
447,213,6801,2,0,L|447:133,1,75,8|8,1:2|1:2,0:0:0:0:
371,141,7126,1,8,1:2:0:0:
196,200,7288,6,0,L|32:200,1,134.999995880127,6|10,1:2|0:2,0:0:0:0:
128,200,7774,1,2,0:2:0:0:
264,200,8098,2,0,L|352:200,2,67.4999979400635,2|10|2,1:2|0:2|0:2,0:0:0:0:
196,204,8585,5,2,1:2:0:0:
128,200,8747,2,0,L|128:40,1,134.999995880127,2|2,0:2|1:2,0:0:0:0:
264,64,9396,2,0,L|344:64,1,67.4999979400635,2|10,1:2|0:2,0:0:0:0:
72,336,9882,5,2,1:2:0:0:
212,336,10207,1,10,0:2:0:0:
72,336,10531,2,0,L|72:248,1,67.4999979400635,2|2,1:2|1:2,0:0:0:0:
224,148,11017,6,0,P|260:96|212:40,1,134.999995880127,2|0,0:2|0:0,0:0:0:0:
157,148,11504,1,8,0:2:0:0:
224,148,11666,1,0,1:2:0:0:
360,148,11990,2,0,L|360:80,1,67.4999979400635,0|8,1:2|0:2,0:0:0:0:
100,344,12477,6,0,P|72:280|116:224,1,134.999995880127,6|10,1:2|0:2,0:0:0:0:
172,232,12963,1,2,0:2:0:0:
308,228,13288,1,2,1:2:0:0:
308,160,13450,1,10,0:2:0:0:
240,164,13612,1,2,0:2:0:0:
172,164,13774,5,2,1:2:0:0:
240,164,13936,2,0,L|400:164,1,134.999995880127,2|2,0:2|1:2,0:0:0:0:
240,164,14585,2,0,L|140:164,1,67.4999979400635,2|10,1:2|0:2,0:0:0:0:
408,228,15071,5,2,1:2:0:0:
272,232,15396,1,10,0:2:0:0:
408,228,15720,2,0,L|336:228,1,67.4999979400635,2|2,1:2|1:2,0:0:0:0:
204,232,16207,6,0,P|168:184|212:128,1,134.999995880127,2|0,0:2|0:0,0:0:0:0:
271,232,16693,1,8,0:2:0:0:
204,232,16855,1,0,1:2:0:0:
68,232,17180,2,0,L|68:136,1,67.4999979400635,0|8,1:2|0:2,0:0:0:0:
324,248,17666,6,0,L|488:248,1,134.999995880127,6|10,1:2|0:2,0:0:0:0:
392,248,18153,1,2,0:2:0:0:
256,248,18477,1,2,1:2:0:0:
197,221,18639,1,10,0:2:0:0:
196,157,18801,1,2,0:2:0:0:
253,128,18963,5,2,1:2:0:0:
320,132,19126,2,0,L|480:132,1,134.999995880127,2|2,0:2|1:2,0:0:0:0:
320,128,19774,1,2,1:2:0:0:
253,128,19936,2,0,L|252:40,1,67.4999979400635,10|2,0:2|0:2,0:0:0:0:
429,362,20261,5,2,1:2:0:0:
483,325,20423,1,2,0:2:0:0:
494,260,20585,1,10,0:2:0:0:
456,207,20747,1,2,0:2:0:0:
391,197,20909,1,2,1:2:0:0:
325,198,21071,2,0,L|165:198,1,134.999995880127,2|2,1:2|0:2,0:0:0:0:
121,198,21558,5,0,1:2:0:0:
232,176,21882,2,0,P|252:96|216:44,1,134.999995880127,10|2,0:2|0:2,0:0:0:0:
160,52,22369,1,2,1:2:0:0:
92,56,22531,1,8,0:2:0:0:
348,352,22855,6,0,L|348:208,1,134.999995880127,4|8,1:2|0:2,0:0:0:0:
212,224,23504,1,0,1:2:0:0:
279,224,23666,1,0,1:2:0:0:
347,224,23828,1,8,0:2:0:0:
198,97,24153,6,0,L|44:97,1,134.999995880127,0|8,1:2|0:2,0:0:0:0:
130,93,24639,1,0,1:2:0:0:
270,97,24963,2,0,L|346:97,1,67.4999979400635,0|8,1:2|0:2,0:0:0:0:
184,325,25450,6,0,L|182:172,1,134.999995880127,0|8,1:2|0:2,0:0:0:0:
318,191,26098,1,0,1:2:0:0:
250,191,26260,1,0,1:2:0:0:
183,191,26422,1,10,0:2:0:0:
449,342,26747,5,4,1:2:0:0:
449,274,26909,1,8,1:1:0:0:
381,274,27071,1,8,1:1:0:0:
313,278,27233,1,8,1:1:0:0:
245,278,27396,1,8,1:1:0:0:
177,274,27558,1,8,1:1:0:0:
112,273,27720,1,8,1:1:0:0:
185,218,27882,1,8,1:1:0:0:
360,144,28044,6,0,L|448:144,1,67.4999979400635,6|0,1:2|1:2,0:0:0:0:
360,144,28369,2,0,L|208:144,2,134.999995880127,2|4|2,1:2|0:2|0:2,0:0:0:0:
100,204,29342,6,0,L|20:204,1,67.4999979400635,2|0,1:2|1:2,0:0:0:0:
100,204,29666,2,0,L|252:204,2,134.999995880127,2|6|2,1:2|0:2|0:2,0:0:0:0:
352,220,30639,6,0,L|352:144,1,67.4999979400635,2|0,1:2|1:2,0:0:0:0:
284,148,30963,1,2,1:2:0:0:
420,148,31288,2,0,L|420:8,1,134.999995880127,6|2,0:2|0:2,0:0:0:0:
160,212,31936,6,0,L|160:116,1,67.4999979400635,2|0,1:2|1:2,0:0:0:0:
228,144,32261,2,0,L|372:144,1,134.999995880127,2|12,1:2|0:2,0:0:0:0:
432,144,32747,1,0,1:2:0:0:
364,140,32909,1,8,0:2:0:0:
108,140,33234,6,0,L|28:140,2,67.4999979400635,2|0|2,1:2|1:2|1:2,0:0:0:0:
244,140,33882,2,0,L|84:140,1,134.999995880127,6|2,0:2|0:2,0:0:0:0:
368,88,34531,6,0,L|448:88,2,67.4999979400635,2|0|2,1:2|1:2|1:2,0:0:0:0:
232,88,35179,2,0,L|392:88,1,134.999995880127,6|2,0:2|0:2,0:0:0:0:
112,348,35828,6,0,L|112:268,1,67.4999979400635,2|0,1:2|1:2,0:0:0:0:
180,280,36153,1,2,1:2:0:0:
44,280,36477,2,0,L|44:128,1,134.999995880127,6|2,0:2|0:2,0:0:0:0:
300,360,37126,6,0,L|452:360,1,134.999995880127,6|0,1:2|0:0,0:0:0:0:
176,268,37774,2,0,L|36:268,1,134.999995880127,4|2,1:2|0:2,0:0:0:0:
288,216,38423,5,6,1:2:0:0:
41,268,38747,2,0,L|41:104,1,134.999995880127,6|0,1:2|0:2,0:0:0:0:
116,144,39234,1,2,0:2:0:0:
184,144,39396,1,2,0:2:0:0:
428,144,39720,5,6,1:2:0:0:
184,152,40044,2,0,L|184:312,1,134.999995880127,6|4,1:2|0:3,0:0:0:0:
252,288,40531,1,8,0:3:0:0:
320,288,40693,1,8,0:3:0:0:
252,288,40855,1,8,0:3:0:0:
80,216,41017,6,0,L|80:136,1,67.4999979400635,6|0,1:2|1:2,0:0:0:0:
148,152,41342,1,2,1:2:0:0:
284,148,41666,1,6,0:2:0:0:
148,148,41990,1,2,0:2:0:0:
404,208,42315,6,0,L|404:128,1,67.4999979400635,2|0,1:2|1:2,0:0:0:0:
336,144,42640,1,2,1:2:0:0:
200,140,42964,1,14,0:2:0:0:
268,140,43126,1,0,1:2:0:0:
336,140,43288,1,8,0:2:0:0:
76,360,43612,6,0,L|76:212,1,134.999995880127,4|2,1:2|0:2,0:0:0:0:
144,228,44098,1,0,1:2:0:0:
316,224,44261,2,0,L|464:224,1,134.999995880127,12|2,1:2|0:2,0:0:0:0:
312,256,44909,6,0,L|152:256,1,134.999995880127,2|2,1:2|0:2,0:0:0:0:
244,256,45396,2,0,L|408:256,2,134.999995880127,0|0|8,1:2|1:2|0:2,0:0:0:0:
68,324,46207,6,0,P|40:256|80:204,1,134.999995880127,4|2,1:2|0:2,0:0:0:0:
140,208,46693,1,0,1:2:0:0:
312,208,46855,2,0,P|336:148|296:72,1,134.999995880127,12|2,0:2|0:2,0:0:0:0:
56,100,47504,6,0,L|212:100,1,134.999995880127,0|2,1:2|1:2,0:0:0:0:
257,100,47990,1,0,1:2:0:0:
191,100,48153,1,2,1:2:0:0:
129,74,48315,1,0,3:2:0:0:
128,73,48477,1,2,3:2:0:0:
191,100,48639,1,0,3:2:0:0:
368,347,48801,6,0,P|396:315|336:223,1,150,6|8,1:2|0:2,0:0:0:0:
208,228,49450,1,2,1:2:0:0:
283,228,49612,1,0,1:2:0:0:
358,228,49774,1,8,0:2:0:0:
208,228,50098,6,0,L|52:228,1,150,2|8,1:2|0:2,0:0:0:0:
208,228,50747,2,0,L|292:228,1,75,2|0,1:2|1:2,0:0:0:0:
283,228,51071,1,8,0:2:0:0:
56,188,51396,5,2,1:2:0:0:
196,188,51720,1,10,0:2:0:0:
56,188,52044,2,0,L|56:88,1,75,2|0,1:2|1:2,0:0:0:0:
132,116,52369,1,10,0:2:0:0:
356,344,52693,6,0,L|356:180,1,150,0|8,1:2|0:2,0:0:0:0:
204,200,53342,2,0,L|112:200,1,75,0|0,1:2|1:2,0:0:0:0:
129,200,53666,1,8,0:2:0:0:
368,232,53990,6,0,L|196:232,1,150,2|8,1:2|0:2,0:0:0:0:
368,232,54639,2,0,L|460:232,2,75,2|0|8,1:2|1:2|0:2,0:0:0:0:
218,232,55288,6,0,L|390:232,1,150,2|8,1:2|0:2,0:0:0:0:
220,232,55936,2,0,L|132:232,1,75,2|0,1:2|1:2,0:0:0:0:
145,232,56261,1,8,0:2:0:0:
376,184,56585,5,2,1:2:0:0:
244,184,56909,1,10,0:2:0:0:
376,184,57234,2,0,L|464:184,2,75,2|0|10,1:2|1:2|0:2,0:0:0:0:
194,335,57720,6,0,P|166:296|210:201,1,150,4|0,1:2|1:2,0:0:0:0:
272,216,58207,1,10,0:2:0:0:
420,216,58531,2,0,L|420:120,1,75,2|0,3:2|3:2,0:0:0:0:
352,136,58855,2,0,L|280:102,1,75,0|0,3:2|3:2,0:0:0:0:
103,325,59180,6,0,P|71:273|122:193,1,150,6|8,1:2|0:2,0:0:0:0:
256,188,59828,1,2,1:2:0:0:
181,188,59990,1,0,1:2:0:0:
106,188,60152,1,8,0:2:0:0:
256,188,60477,6,0,P|288:152|228:64,1,150,2|8,1:2|0:2,0:0:0:0:
100,72,61126,2,0,L|16:72,2,75,2|0|8,1:2|1:2|0:2,0:0:0:0:
328,336,61774,5,2,1:2:0:0:
188,336,62098,1,10,0:2:0:0:
328,336,62423,2,0,L|412:336,2,75,2|0|10,1:2|1:2|0:2,0:0:0:0:
100,280,63071,6,0,B|100:112,1,150,0|8,1:2|0:2,0:0:0:0:
250,130,63720,1,0,1:2:0:0:
175,130,63882,1,2,1:2:0:0:
100,130,64044,1,8,0:2:0:0:
320,352,64369,6,0,B|480:352,1,150,2|8,1:2|0:2,0:0:0:0:
320,352,65017,2,0,L|320:264,2,75,2|0|8,1:2|1:2|0:2,0:0:0:0:
168,348,65666,6,0,L|0:348,1,150,2|8,1:2|0:2,0:0:0:0:
168,348,66315,1,2,1:2:0:0:
168,280,66477,1,0,1:2:0:0:
168,216,66639,1,8,0:2:0:0:
400,356,66963,6,0,P|408:300|328:244,1,150,0|10,1:2|0:2,0:0:0:0:
192,236,67612,2,0,L|84:236,1,75,2|0,1:2|1:2,0:0:0:0:
117,236,67936,1,10,0:2:0:0:
340,336,68261,5,6,3:2:0:0:
401,298,68423,1,0,3:2:0:0:
398,227,68585,1,2,3:2:0:0:
334,195,68747,1,0,3:2:0:0:
260,200,68909,1,2,3:2:0:0:
192,168,69071,1,2,3:2:0:0:
188,92,69234,1,8,3:3:0:0:
252,49,69396,1,8,3:3:0:0:
432,280,69558,6,0,P|472:216|416:164,1,150,2|8,1:2|0:2,0:0:0:0:
280,160,70207,1,2,1:2:0:0:
355,160,70369,1,0,1:2:0:0:
430,160,70531,1,8,0:2:0:0:
280,160,70855,6,0,P|240:108|296:40,1,150,2|8,1:2|0:2,0:0:0:0:
428,36,71504,2,0,L|512:68,2,75,2|0|8,1:2|1:2|0:2,0:0:0:0:
204,200,72153,5,2,1:2:0:0:
342,142,72477,1,10,0:2:0:0:
476,204,72801,2,0,L|476:116,1,75,2|0,1:2|1:2,0:0:0:0:
400,132,73126,1,10,0:2:0:0:
172,348,73450,6,0,L|172:180,1,150,0|8,1:2|0:2,0:0:0:0:
328,196,74098,2,0,L|412:196,1,75,0|0,1:2|1:2,0:0:0:0:
403,196,74423,1,8,0:2:0:0:
168,208,74747,6,0,B|92:208|92:208|92:104,1,150,2|8,1:2|0:2,0:0:0:0:
242,134,75396,1,2,1:2:0:0:
167,134,75558,1,0,1:2:0:0:
92,134,75720,1,8,0:2:0:0:
242,134,76044,6,0,B|324:136|324:136|324:40,1,150,2|8,1:2|0:2,0:0:0:0:
172,76,76693,1,2,1:2:0:0:
247,76,76855,1,0,1:2:0:0:
322,76,77017,1,8,0:2:0:0:
96,252,77342,6,0,L|228:180,2,150,2|10|2,1:2|0:2|1:2,0:0:0:0:
96,177,78153,1,0,1:2:0:0:
167,180,78315,1,10,0:2:0:0:
350,179,78477,6,0,P|390:127|347:57,1,150,4|0,1:2|1:2,0:0:0:0:
278,72,78963,1,2,3:2:0:0:
124,79,79288,1,2,3:2:0:0:
56,111,79450,1,4,3:3:0:0:
56,111,79612,1,4,3:3:0:0:
124,79,79774,1,4,3:3:0:0:
304,84,79936,6,0,L|480:84,1,150,6|8,1:2|0:2,0:0:0:0:
304,84,80585,2,0,L|220:84,1,75,2|0,1:2|1:2,0:0:0:0:
229,84,80909,1,8,0:2:0:0:
384,76,81234,6,0,L|384:232,1,150,2|8,1:2|0:2,0:0:0:0:
236,220,81882,1,2,1:2:0:0:
311,220,82044,1,0,1:2:0:0:
386,220,82206,1,8,0:2:0:0:
160,336,82531,6,0,L|0:336,2,150,2|10|2,1:2|0:2|1:2,0:0:0:0:
236,336,83342,1,0,1:2:0:0:
312,336,83504,1,10,0:2:0:0:
84,336,83828,6,0,L|84:172,1,150,0|8,1:2|0:2,0:0:0:0:
236,144,84477,1,0,1:2:0:0:
311,144,84639,1,2,1:2:0:0:
311,144,84801,1,8,0:2:0:0:
88,352,85126,6,0,P|48:312|108:232,1,150,0|8,1:2|0:2,0:0:0:0:
232,220,85774,1,2,1:2:0:0:
307,220,85936,1,0,1:2:0:0:
382,220,86098,1,8,0:2:0:0:
152,92,86423,6,0,L|152:268,1,150,2|8,1:2|0:2,0:0:0:0:
301,242,87071,1,2,1:2:0:0:
226,242,87233,1,0,1:2:0:0:
152,242,87396,1,8,0:2:0:0:
380,256,87720,6,0,P|396:196|356:104,1,150,0|10,1:2|0:2,0:0:0:0:
223,117,88369,2,0,L|124:116,2,75,0|0|8,1:2|1:2|0:2,0:0:0:0:
448,156,89017,6,0,L|284:156,2,150,4|8|4,1:2|0:2|1:2,0:0:0:0:
508,188,89828,1,8,1:2:0:0:
442,152,89990,1,8,1:2:0:0:
259,45,90153,5,8,1:2:0:0:
