osu file format v14

[General]
AudioFilename: audio.MP3
AudioLeadIn: 0
PreviewTime: 48801
Countdown: 0
SampleSet: Soft
StackLeniency: 0.7
Mode: 2
LetterboxInBreaks: 0
WidescreenStoryboard: 1

[Editor]
DistanceSpacing: 1.1
BeatDivisor: 6
GridSize: 4
TimelineZoom: 1.5

[Metadata]
Title:forever we can make it! (TV Size)
TitleUnicode:forever we can make it! (TV Size)
Artist:THYME
ArtistUnicode:THYME
Creator:Kukkai
Version:Rain
Source:To LOVEる -とらぶる-
Tags:to love ru trouble anime op season 1 Opening Japanese rock j-rock
BeatmapID:2288605
BeatmapSetID:1095030

[Difficulty]
HPDrainRate:5
CircleSize:4
OverallDifficulty:9
ApproachRate:9
SliderMultiplier:1.9
SliderTickRate:2

[Events]
//Background and Video events
0,0,"bg.jpg",0,0
//Break Periods
//Storyboard Layer 0 (Background)
//Storyboard Layer 1 (Fail)
//Storyboard Layer 2 (Pass)
//Storyboard Layer 3 (Foreground)
//Storyboard Layer 4 (Overlay)
//Storyboard Sound Samples

[TimingPoints]
802,324.324324324324,4,2,1,70,1,0
1653,297.029702970297,4,2,1,70,1,0
2099,324.324324324324,4,2,1,70,1,0
7288,-100,4,2,1,60,0,0
26423,-100,4,2,2,60,0,0
26747,-100,4,2,1,60,0,0
28044,-100,4,2,2,65,0,0
37126,-100,4,2,1,65,0,0
41017,-100,4,2,2,65,0,0
48801,-100,4,2,1,75,0,1
58207,-100,4,2,2,75,0,1
59180,-100,4,2,1,75,0,1
64369,-100,4,2,1,75,0,0
69558,-100,4,2,1,75,0,1
78963,-100,4,2,2,75,0,1
79936,-100,4,2,1,75,0,1
89017,-100,4,2,1,75,0,0

[Colours]
Combo1 : 143,207,204
Combo2 : 243,160,187
Combo3 : 243,199,139
Combo4 : 125,140,193
Combo5 : 184,136,116

[HitObjects]
48,208,1653,5,8,1:2:0:0:
144,208,1801,1,8,1:2:0:0:
48,208,1950,1,8,1:2:0:0:
288,164,2099,6,0,L|500:164,1,190,6|8,1:2|0:2,0:0:0:0:
384,160,2585,1,0,0:2:0:0:
244,296,2747,2,0,L|244:200,1,95,2|0,1:2|1:2,0:0:0:0:
384,160,3071,2,0,L|484:160,1,95,8|0,0:2|0:2,0:0:0:0:
248,276,3396,6,0,L|48:276,1,190,2|8,1:2|0:2,0:0:0:0:
152,276,3882,1,0,1:2:0:0:
296,276,4044,2,0,L|392:276,2,95,2|0|8,0:2|1:2|0:2,0:0:0:0:
152,192,4531,6,0,L|40:192,2,95,2|0|0,0:2|1:2|0:2,0:0:0:0:
380,100,5017,2,0,L|148:100,1,190,10|0,0:2|1:2,0:0:0:0:
284,100,5504,1,0,1:2:0:0:
56,344,5666,2,0,L|176:344,1,95,8|0,0:2|0:2,0:0:0:0:
56,344,5990,6,0,L|56:232,1,95,0|0,1:2|0:2,0:0:0:0:
280,236,6315,2,0,L|280:104,1,95,8|0,0:2|1:2,0:0:0:0:
184,144,6639,1,0,0:2:0:0:
412,56,6801,1,8,1:2:0:0:
508,56,6963,1,8,1:2:0:0:
412,56,7126,1,8,1:2:0:0:
184,304,7288,6,0,L|400:304,1,190,6|10,1:2|0:2,0:0:0:0:
232,304,7774,2,0,L|232:204,1,95,2|0,0:2|1:2,0:0:0:0:
384,332,8098,1,2,1:2:0:0:
480,328,8261,2,0,L|480:228,1,95,10|2,0:2|0:2,0:0:0:0:
256,184,8585,5,2,1:2:0:0:
400,184,8747,2,0,L|528:184,1,95,2|8,0:2|0:2,0:0:0:0:
352,184,9071,2,0,L|128:184,1,190,2|2,1:2|1:2,0:0:0:0:
304,188,9558,2,0,L|420:188,1,95,10|0,0:2|0:2,0:0:0:0:
168,304,9882,6,0,L|168:176,1,95,2|0,1:2|0:2,0:0:0:0:
400,200,10207,2,0,L|400:88,1,95,10|0,0:2|0:2,0:0:0:0:
258,93,10531,1,2,1:2:0:0:
400,64,10693,2,0,L|496:64,1,95,2|8,1:2|0:2,0:0:0:0:
272,304,11017,6,0,L|176:304,2,95,2|0|0,0:2|1:2|0:2,0:0:0:0:
415,304,11504,1,8,0:2:0:0:
272,304,11666,2,0,L|272:164,1,95,0|0,1:2|0:2,0:0:0:0:
368,208,11990,1,0,1:2:0:0:
140,216,12153,2,0,L|28:216,1,95,8|0,0:2|0:2,0:0:0:0:
272,209,12477,6,0,P|332:153|256:96,1,190,6|10,1:2|0:2,0:0:0:0:
124,96,12963,2,0,L|239:96,1,95,2|0,0:2|1:2,0:0:0:0:
380,188,13288,1,2,1:2:0:0:
475,188,13450,1,10,0:2:0:0:
475,188,13612,1,2,0:2:0:0:
256,344,13774,5,2,1:2:0:0:
400,344,13936,2,0,L|400:240,1,95,2|8,0:2|0:2,0:0:0:0:
256,249,14261,2,0,L|468:249,1,190,2|2,1:2|1:2,0:0:0:0:
303,246,14747,2,0,L|175:246,1,95,10|2,0:2|0:2,0:0:0:0:
440,190,15071,6,0,L|440:82,1,95,2|0,1:2|0:2,0:0:0:0:
212,96,15396,2,0,L|100:96,1,95,10|0,0:2|0:2,0:0:0:0:
259,96,15720,1,2,1:2:0:0:
116,96,15882,2,0,L|116:208,1,95,2|8,1:2|0:2,0:0:0:0:
344,188,16207,6,0,L|444:188,2,95,2|0|0,0:2|1:2|0:2,0:0:0:0:
201,188,16693,1,8,0:2:0:0:
344,188,16855,2,0,L|344:68,1,95,0|0,1:2|0:2,0:0:0:0:
200,90,17180,1,0,1:2:0:0:
430,92,17342,2,0,L|322:92,1,95,8|0,0:2|0:2,0:0:0:0:
108,316,17666,6,0,L|312:316,1,190,6|10,1:2|0:2,0:0:0:0:
152,316,18153,2,0,L|150:212,1,95,2|0,0:2|1:2,0:0:0:0:
304,220,18477,2,0,L|428:220,2,95,2|10|2,1:2|0:2|0:2,0:0:0:0:
76,220,18963,5,2,1:2:0:0:
224,220,19126,2,0,L|356:220,1,95,2|8,0:2|0:2,0:0:0:0:
176,140,19450,2,0,L|176:32,1,95,2|0,1:2|0:2,0:0:0:0:
318,43,19774,1,2,1:2:0:0:
176,44,19936,2,0,L|56:44,1,95,10|2,0:2|0:2,0:0:0:0:
308,356,20261,6,0,L|408:356,1,95,2|2,1:2|0:2,0:0:0:0:
260,280,20585,2,0,L|152:280,1,95,10|2,0:2|0:2,0:0:0:0:
384,196,20909,1,2,1:2:0:0:
244,196,21071,2,0,L|244:80,1,95,2|8,1:2|1:2,0:0:0:0:
478,187,21396,6,0,L|478:63,1,95,2|0,0:2|1:2,0:0:0:0:
284,320,21882,2,0,L|176:320,1,95,10|0,0:2|1:2,0:0:0:0:
332,321,22207,1,2,0:2:0:0:
188,320,22369,2,0,L|80:320,2,95,2|8|2,1:2|0:2|0:2,0:0:0:0:
416,208,22855,6,0,L|184:208,1,190,4|8,1:2|0:2,0:0:0:0:
136,212,23342,1,0,0:2:0:0:
278,215,23504,2,0,L|278:99,1,95,0|0,1:2|1:2,0:0:0:0:
44,116,23828,6,0,L|272:116,1,190,8|0,0:2|1:2,0:0:0:0:
328,112,24315,1,0,0:2:0:0:
104,344,24477,1,8,0:2:0:0:
200,344,24639,2,0,L|200:220,1,95,0|0,1:2|0:2,0:0:0:0:
104,248,24963,1,0,1:2:0:0:
344,152,25126,6,0,L|120:152,1,190,8|0,0:2|1:2,0:0:0:0:
154,152,25612,1,0,0:2:0:0:
384,284,25774,2,0,P|436:260|372:176,1,190,8|0,0:2|1:2,0:0:0:0:
284,176,26261,1,0,1:2:0:0:
56,176,26423,2,0,L|56:60,1,95,10|0,0:2|0:2,0:0:0:0:
320,360,26747,6,0,L|320:248,1,95,4|8,1:2|1:1,0:0:0:0:
160,268,27071,2,0,L|288:268,1,95,8|8,1:1|1:1,0:0:0:0:
92,272,27396,2,0,L|92:172,1,95,8|8,1:1|1:1,0:0:0:0:
235,149,27720,1,8,1:1:0:0:
92,177,27882,1,8,1:1:0:0:
372,112,28044,5,6,1:2:0:0:
240,112,28207,1,0,1:2:0:0:
372,112,28369,2,0,P|424:184|352:264,1,190,2|4,1:2|0:2,0:0:0:0:
240,260,28855,1,0,0:2:0:0:
335,260,29017,1,2,0:2:0:0:
430,260,29179,1,0,0:2:0:0:
188,184,29342,5,2,1:2:0:0:
320,180,29504,1,0,1:2:0:0:
188,184,29666,2,0,P|132:144|196:64,1,190,2|6,1:2|0:2,0:0:0:0:
324,64,30153,2,0,L|428:64,2,95,0|2|0,0:2|0:2|0:2,0:0:0:0:
100,316,30639,5,2,1:2:0:0:
100,240,30801,1,0,1:2:0:0:
232,240,30963,2,0,L|36:240,2,190,2|6|2,1:2|0:2|0:2,0:0:0:0:
137,240,31774,1,0,0:2:0:0:
360,240,31936,5,2,1:2:0:0:
360,240,32098,1,0,1:2:0:0:
228,240,32261,2,0,L|112:240,1,95,2|0,1:2|1:2,0:0:0:0:
364,164,32585,2,0,L|364:56,1,95,12|0,0:2|1:2,0:0:0:0:
312,72,32828,1,0,1:2:0:0:
260,72,32909,1,8,0:2:0:0:
392,72,33071,1,0,0:2:0:0:
172,320,33234,5,2,1:2:0:0:
304,320,33396,1,0,1:2:0:0:
172,320,33558,2,0,B|72:320|72:320|72:208,1,190,2|6,1:2|0:2,0:0:0:0:
204,228,34044,2,0,L|204:128,1,95,0|2,0:2|0:2,0:0:0:0:
112,140,34369,1,0,0:2:0:0:
336,72,34531,5,2,1:2:0:0:
204,72,34693,1,0,1:2:0:0:
336,72,34855,2,0,B|432:72|432:72|328:72,1,190,2|6,1:2|0:2,0:0:0:0:
204,72,35342,2,0,L|88:72,2,95,0|2|0,0:2|0:2|0:2,0:0:0:0:
428,328,35828,5,2,1:2:0:0:
428,328,35990,1,0,1:2:0:0:
296,328,36153,2,0,L|104:328,2,190,2|6|2,1:2|0:2|0:2,0:0:0:0:
392,332,36963,1,0,0:2:0:0:
172,240,37126,5,6,1:2:0:0:
72,240,37288,2,0,P|72:172|180:112,1,190,2|2,0:2|0:2,0:0:0:0:
400,360,37774,2,0,L|400:232,1,95,4|2,1:2|0:2,0:0:0:0:
352,268,38017,1,2,0:2:0:0:
304,268,38098,1,2,0:2:0:0:
204,268,38261,1,2,0:2:0:0:
424,196,38423,6,0,L|424:84,1,95,6|2,1:2|0:2,0:0:0:0:
200,208,38747,2,0,P|148:164|224:84,1,190,6|0,1:2|0:2,0:0:0:0:
304,80,39234,1,2,0:2:0:0:
351,80,39315,1,2,0:2:0:0:
399,80,39396,1,2,0:2:0:0:
496,80,39558,1,2,0:2:0:0:
272,344,39720,6,0,L|152:344,1,95,6|2,1:2|0:2,0:0:0:0:
404,236,40044,2,0,L|404:360,1,95,6|4,1:2|0:3,0:0:0:0:
368,330,40261,1,4,0:3:0:0:
333,330,40315,1,4,0:3:0:0:
298,330,40369,1,4,0:3:0:0:
180,332,40531,1,8,0:3:0:0:
322,332,40693,1,8,0:3:0:0:
180,332,40855,1,8,0:3:0:0:
404,248,41017,5,6,1:2:0:0:
404,248,41180,1,0,1:2:0:0:
272,248,41342,2,0,L|64:248,2,190,2|6|2,1:2|0:2|0:2,0:0:0:0:
272,248,42153,1,0,0:2:0:0:
44,152,42315,5,2,1:2:0:0:
44,152,42477,1,0,1:2:0:0:
144,152,42639,1,2,1:2:0:0:
44,152,42801,1,0,1:2:0:0:
268,328,42963,2,0,L|268:208,1,95,14|0,0:2|1:2,0:0:0:0:
136,236,43288,2,0,L|136:120,1,95,8|0,0:2|1:2,0:0:0:0:
368,356,43612,6,0,P|432:336|384:228,1,190,4|2,1:2|0:2,0:0:0:0:
316,236,44098,1,0,1:2:0:0:
88,236,44261,2,0,P|36:196|120:120,1,190,12|2,1:2|0:2,0:0:0:0:
192,116,44747,1,0,0:2:0:0:
416,48,44909,6,0,L|308:48,2,95,2|8|2,1:2|0:2|0:2,0:0:0:0:
180,352,45396,2,0,L|180:244,1,95,0|8,1:2|0:2,0:0:0:0:
324,256,45720,2,0,L|324:152,1,95,0|0,1:2|0:2,0:0:0:0:
184,160,46044,1,8,0:2:0:0:
416,72,46207,6,0,L|184:72,1,190,4|2,1:2|0:2,0:0:0:0:
320,72,46693,1,0,1:2:0:0:
92,276,46855,2,0,L|296:276,1,190,12|2,0:2|0:2,0:0:0:0:
376,276,47342,1,0,0:2:0:0:
148,272,47504,6,0,P|88:256|152:188,1,190,0|2,1:2|1:2,0:0:0:0:
288,184,47990,2,0,L|288:80,1,95,0|2,1:2|1:2,0:0:0:0:
144,96,48315,2,0,L|60:96,1,47.5,0|0,3:2|3:2,0:0:0:0:
256,352,48477,1,2,3:2:0:0:
308,328,48558,1,0,3:2:0:0:
305,283,48639,1,0,3:2:0:0:
250,269,48720,1,0,3:2:0:0:
88,280,48801,6,0,P|24:252|108:196,1,190,6|8,1:2|0:2,0:0:0:0:
180,184,49288,1,0,0:2:0:0:
408,184,49450,2,0,L|408:68,1,95,2|0,1:2|1:2,0:0:0:0:
264,96,49774,2,0,L|152:96,1,95,8|0,0:2|0:2,0:0:0:0:
400,364,50098,6,0,P|460:332|384:268,1,190,2|8,1:2|0:2,0:0:0:0:
304,268,50585,1,0,0:2:0:0:
76,204,50747,2,0,L|184:204,1,95,2|0,1:2|1:2,0:0:0:0:
312,204,51071,2,0,L|312:92,1,95,8|0,0:2|0:2,0:0:0:0:
80,352,51396,6,0,L|80:240,1,95,2|0,1:2|0:2,0:0:0:0:
300,256,51720,2,0,L|300:132,1,95,10|0,0:2|0:2,0:0:0:0:
164,164,52044,1,2,1:2:0:0:
300,161,52207,1,0,1:2:0:0:
72,224,52369,2,0,L|72:348,1,95,10|0,0:2|0:2,0:0:0:0:
300,92,52693,6,0,L|396:92,1,95,0|0,1:2|0:2,0:0:0:0:
148,96,53017,2,0,L|148:212,1,95,8|0,0:2|1:2,0:0:0:0:
196,188,53261,1,0,1:2:0:0:
244,188,53342,1,0,1:2:0:0:
340,188,53504,1,0,1:2:0:0:
108,232,53666,2,0,L|4:232,1,95,8|0,0:2|0:2,0:0:0:0:
240,100,53990,6,0,L|464:100,1,190,2|8,1:2|0:2,0:0:0:0:
328,100,54477,1,0,0:2:0:0:
100,352,54639,2,0,L|100:244,1,95,2|0,1:2|1:2,0:0:0:0:
244,256,54963,2,0,L|344:256,1,95,8|0,0:2|0:2,0:0:0:0:
108,200,55288,6,0,P|40:176|44:64,1,190,2|8,1:2|0:2,0:0:0:0:
132,68,55774,1,0,0:2:0:0:
356,360,55936,2,0,L|356:252,1,95,2|0,1:2|1:2,0:0:0:0:
212,268,56261,2,0,L|96:268,1,95,8|0,0:2|0:2,0:0:0:0:
356,272,56585,6,0,L|356:164,1,95,2|0,1:2|0:2,0:0:0:0:
136,184,56909,2,0,L|136:68,1,95,10|0,0:2|0:2,0:0:0:0:
356,92,57234,1,2,1:2:0:0:
212,89,57396,2,0,L|328:89,1,95,0|10,1:2|0:2,0:0:0:0:
80,360,57720,6,0,P|80:288|204:252,1,190,4|0,1:2|1:2,0:0:0:0:
400,252,58207,2,0,L|496:252,1,95,10|0,0:2|0:2,0:0:0:0:
268,180,58531,2,0,L|144:180,1,95,2|0,3:2|3:2,0:0:0:0:
220,180,58774,1,0,3:2:0:0:
384,180,58855,1,0,3:2:0:0:
432,160,58936,1,0,3:2:0:0:
431,115,59017,1,0,3:2:0:0:
381,95,59098,1,0,3:2:0:0:
208,360,59180,6,0,P|124:344|76:236,1,190,6|8,1:2|0:2,0:0:0:0:
172,264,59666,1,0,0:2:0:0:
400,264,59828,2,0,L|280:264,1,95,2|0,1:2|1:2,0:0:0:0:
448,264,60153,2,0,L|448:164,1,95,8|0,0:2|0:2,0:0:0:0:
220,84,60477,6,0,L|440:84,1,190,2|8,1:2|0:2,0:0:0:0:
316,84,60963,1,0,0:2:0:0:
80,320,61126,2,0,L|80:220,1,95,2|0,1:2|1:2,0:0:0:0:
224,228,61450,2,0,L|124:228,1,95,8|0,0:2|0:2,0:0:0:0:
424,188,61774,6,0,L|424:72,1,95,2|0,1:2|0:2,0:0:0:0:
204,92,62098,2,0,L|204:200,1,95,10|0,0:2|0:2,0:0:0:0:
328,188,62423,1,2,1:2:0:0:
196,184,62585,1,0,1:2:0:0:
440,184,62747,2,0,L|440:88,1,95,10|0,0:2|0:2,0:0:0:0:
220,344,63071,6,0,L|116:344,1,95,0|0,1:2|0:2,0:0:0:0:
372,264,63396,2,0,L|372:152,1,95,8|0,0:2|1:2,0:0:0:0:
320,172,63639,1,0,1:2:0:0:
268,172,63720,1,0,1:2:0:0:
164,176,63882,1,2,1:2:0:0:
408,92,64044,2,0,L|504:92,1,95,8|2,0:2|0:2,0:0:0:0:
272,256,64369,6,0,L|72:256,1,190,2|8,1:2|0:2,0:0:0:0:
176,256,64855,1,0,0:2:0:0:
404,260,65017,1,2,1:2:0:0:
492,228,65179,1,0,1:2:0:0:
492,140,65341,1,8,0:2:0:0:
396,114,65503,1,0,0:2:0:0:
168,48,65666,6,0,L|364:48,1,190,2|8,1:2|0:2,0:0:0:0:
452,48,66153,1,0,0:2:0:0:
224,176,66315,2,0,L|112:176,2,95,2|0|8,1:2|1:2|0:2,0:0:0:0:
368,176,66801,6,0,L|488:176,2,95,2|0|0,0:2|1:2|0:2,0:0:0:0:
140,352,67288,2,0,L|140:240,1,95,10|0,0:2|0:2,0:0:0:0:
284,256,67612,2,0,L|284:144,1,95,2|0,1:2|1:2,0:0:0:0:
48,160,67936,2,0,L|184:160,1,95,10|0,0:2|0:2,0:0:0:0:
376,160,68261,6,0,L|376:40,1,95,6|0,3:2|3:2,0:0:0:0:
328,68,68504,1,0,3:2:0:0:
160,316,68585,1,2,3:2:0:0:
114,322,68666,1,0,3:2:0:0:
80,292,68747,1,0,3:2:0:0:
81,246,68828,1,0,3:2:0:0:
117,217,68909,1,2,3:2:0:0:
162,227,68990,1,0,3:2:0:0:
320,172,69071,6,0,L|384:172,2,47.5,2|0|8,3:2|3:2|3:3,0:0:0:0:
204,172,69396,1,8,3:3:0:0:
432,68,69558,6,0,L|196:68,1,190,2|8,1:2|0:2,0:0:0:0:
136,72,70044,1,0,0:2:0:0:
364,280,70207,1,2,1:2:0:0:
360,176,70369,1,0,1:2:0:0:
256,176,70531,1,8,0:2:0:0:
152,176,70693,1,0,0:2:0:0:
384,360,70855,6,0,P|440:332|368:260,1,190,2|8,1:2|0:2,0:0:0:0:
276,260,71342,1,0,0:2:0:0:
48,172,71504,1,2,1:2:0:0:
152,172,71666,1,0,1:2:0:0:
256,172,71828,1,8,0:2:0:0:
256,172,71990,1,0,0:2:0:0:
36,348,72153,6,0,L|36:236,1,95,2|0,1:2|0:2,0:0:0:0:
256,260,72477,2,0,L|368:260,1,95,10|0,0:2|0:2,0:0:0:0:
220,260,72801,1,2,1:2:0:0:
351,260,72963,1,0,1:2:0:0:
131,253,73126,2,0,L|132:144,1,95,10|0,0:2|0:2,0:0:0:0:
356,192,73450,6,0,L|356:64,1,95,0|0,1:2|0:2,0:0:0:0:
136,344,73774,2,0,L|40:344,1,95,8|0,0:2|0:2,0:0:0:0:
88,344,74017,1,0,0:0:0:0:
136,344,74098,2,0,L|16:344,1,95,0|0,1:2|1:2,0:0:0:0:
264,304,74423,2,0,L|372:304,1,95,8|0,0:2|0:2,0:0:0:0:
140,304,74747,6,0,B|140:208|140:208|264:208,1,190,2|8,1:2|0:2,0:0:0:0:
336,212,75234,1,0,0:2:0:0:
116,168,75396,2,0,L|116:56,1,95,2|0,1:2|1:2,0:0:0:0:
256,72,75720,2,0,L|136:72,1,95,8|0,0:2|0:2,0:0:0:0:
392,296,76044,6,0,L|188:296,1,190,2|8,1:2|0:2,0:0:0:0:
96,296,76531,1,0,0:2:0:0:
324,196,76693,2,0,L|324:96,1,95,2|0,1:2|1:2,0:0:0:0:
184,96,77017,2,0,L|184:0,1,95,8|0,0:2|0:2,0:0:0:0:
408,24,77342,6,0,L|512:24,1,95,2|0,1:2|0:2,0:0:0:0:
276,32,77666,2,0,L|276:140,1,95,10|0,0:2|0:2,0:0:0:0:
504,128,77990,1,2,1:2:0:0:
360,128,78153,2,0,L|456:128,1,95,0|10,1:2|0:2,0:0:0:0:
228,360,78477,6,0,P|172:340|240:264,1,190,4|0,1:2|1:2,0:0:0:0:
456,268,78963,2,0,L|456:168,1,95,2|0,3:2|3:2,0:0:0:0:
224,168,79288,2,0,L|124:168,1,95,2|4,3:2|3:3,0:0:0:0:
176,168,79531,1,4,3:3:0:0:
328,104,79612,1,4,3:3:0:0:
376,104,79693,1,4,3:3:0:0:
328,104,79774,1,4,3:3:0:0:
280,104,79855,1,4,3:3:0:0:
124,344,79936,6,0,P|64:320|136:244,1,190,6|8,1:2|0:2,0:0:0:0:
212,244,80423,1,0,0:2:0:0:
436,168,80585,1,2,1:2:0:0:
331,169,80747,1,0,1:2:0:0:
226,167,80909,1,8,0:2:0:0:
226,71,81071,1,0,0:2:0:0:
472,364,81234,6,0,P|492:304|392:240,1,190,2|8,1:2|0:2,0:0:0:0:
298,240,81720,1,0,0:2:0:0:
66,240,81882,1,2,1:2:0:0:
66,144,82044,1,0,1:2:0:0:
171,144,82207,1,8,0:2:0:0:
66,144,82369,1,0,0:2:0:0:
308,360,82531,6,0,L|416:360,1,95,2|0,1:2|0:2,0:0:0:0:
183,177,82855,2,0,L|83:177,1,95,10|0,0:2|0:2,0:0:0:0:
212,176,83180,1,2,1:2:0:0:
88,177,83342,1,0,1:2:0:0:
308,176,83504,2,0,L|308:64,1,95,10|0,0:2|0:2,0:0:0:0:
88,360,83828,6,0,P|32:328|112:256,1,190,0|8,1:2|0:2,0:0:0:0:
192,252,84315,1,0,0:2:0:0:
336,256,84477,2,0,L|336:140,1,95,0|2,1:2|1:2,0:0:0:0:
116,164,84801,2,0,L|8:164,1,95,8|2,0:2|0:2,0:0:0:0:
264,356,85126,6,0,L|480:356,1,190,0|8,1:2|0:2,0:0:0:0:
360,356,85612,1,0,0:2:0:0:
132,360,85774,1,2,1:2:0:0:
32,332,85936,1,0,1:2:0:0:
29,242,86098,1,8,0:2:0:0:
127,206,86260,1,0,0:2:0:0:
360,104,86423,6,0,L|152:104,1,190,2|8,1:2|0:2,0:0:0:0:
76,104,86909,1,0,0:2:0:0:
304,248,87071,2,0,L|420:248,2,95,2|0|8,1:2|1:2|0:2,0:0:0:0:
160,248,87558,6,0,L|64:248,2,95,2|0|0,0:2|1:2|0:2,0:0:0:0:
388,252,88044,2,0,L|388:136,1,95,10|0,0:2|0:2,0:0:0:0:
248,164,88369,2,0,L|344:164,1,95,0|0,1:2|1:2,0:0:0:0:
112,164,88693,2,0,L|112:44,1,95,8|0,0:2|0:2,0:0:0:0:
352,76,89017,6,0,L|416:76,2,63.3333333333333,4|0|8,1:2|1:0|0:2,0:0:0:0:
176,76,89342,2,0,L|80:76,2,63.3333333333333,8|8|8,0:2|0:2|0:2,0:0:0:0:
364,244,89666,1,4,1:2:0:0:
269,244,89828,2,0,L|373:244,1,95,8|8,1:2|1:2,0:0:0:0:
132,168,90153,5,8,1:2:0:0:
