osu file format v14

[General]
AudioFilename: audio.MP3
AudioLeadIn: 0
PreviewTime: 48801
Countdown: 0
SampleSet: Soft
StackLeniency: 0.7
Mode: 2
LetterboxInBreaks: 0
WidescreenStoryboard: 0

[Editor]
DistanceSpacing: 1.1
BeatDivisor: 6
GridSize: 4
TimelineZoom: 1.8

[Metadata]
Title:forever we can make it! (TV Size)
TitleUnicode:forever we can make it! (TV Size)
Artist:THYME
ArtistUnicode:THYME
Creator:Kukkai
Version:Overdose
Source:To LOVEる -とらぶる-
Tags:to love ru trouble anime op season 1 Opening Japanese rock j-rock
BeatmapID:2288583
BeatmapSetID:1095030

[Difficulty]
HPDrainRate:6
CircleSize:4
OverallDifficulty:9.4
ApproachRate:9.4
SliderMultiplier:2
SliderTickRate:2

[Events]
//Background and Video events
0,0,"bg.jpg",0,0
//Break Periods
//Storyboard Layer 0 (Background)
//Storyboard Layer 1 (Fail)
//Storyboard Layer 2 (Pass)
//Storyboard Layer 3 (Foreground)
//Storyboard Layer 4 (Overlay)
//Storyboard Sound Samples

[TimingPoints]
802,324.324324324324,4,2,1,70,1,0
1653,297.029702970297,4,2,1,70,1,0
2099,324.324324324324,4,2,1,70,1,0
7288,-100,4,2,1,60,0,0
26423,-100,4,2,2,60,0,0
26747,-100,4,2,1,60,0,0
28044,-100,4,2,2,65,0,0
37126,-100,4,2,1,65,0,0
40531,-90.9090909090909,4,2,1,65,0,0
41017,-100,4,2,2,65,0,0
48801,-83.3333333333333,4,2,1,75,0,1
58207,-83.3333333333333,4,2,2,75,0,1
59180,-83.3333333333333,4,2,1,75,0,1
64369,-100,4,2,1,75,0,0
69558,-83.3333333333333,4,2,1,75,0,1
78963,-83.3333333333333,4,2,2,75,0,1
79936,-83.3333333333333,4,2,1,75,0,1
89017,-83.3333333333333,4,2,1,75,0,0

[Colours]
Combo1 : 143,207,204
Combo2 : 243,160,187
Combo3 : 243,199,139
Combo4 : 125,140,193
Combo5 : 184,136,116

[HitObjects]
312,288,1653,5,8,1:2:0:0:
172,288,1801,1,8,1:2:0:0:
312,288,1950,1,8,1:2:0:0:
52,200,2099,5,6,1:2:0:0:
172,204,2261,1,0,0:2:0:0:
292,196,2423,2,0,L|292:92,1,100,8|0,0:2|0:2,0:2:0:0:
64,308,2747,1,2,1:2:0:0:
204,308,2909,1,0,1:2:0:0:
64,308,3071,2,0,L|64:204,1,100,8|0,0:2|0:2,0:2:0:0:
296,80,3396,5,2,1:2:0:0:
176,80,3558,1,0,0:2:0:0:
296,76,3720,1,8,0:2:0:0:
416,76,3882,1,0,1:2:0:0:
184,180,4044,2,0,L|60:180,2,100,2|0|8,0:2|1:2|0:2,0:2:0:0:
324,180,4531,1,2,0:2:0:0:
444,184,4693,6,0,L|444:56,1,100,0|0,1:2|0:2,0:2:0:0:
164,348,5017,2,0,L|376:348,1,200,10|0,0:2|1:2,0:2:0:0:
224,348,5504,1,0,1:2:0:0:
448,280,5666,2,0,L|448:160,1,100,8|0,0:2|0:2,0:2:0:0:
308,184,5990,6,0,L|456:184,1,100,0|0,1:2|0:2,0:2:0:0:
176,128,6315,1,8,0:2:0:0:
316,128,6477,2,0,L|316:240,1,100,0|0,1:2|0:2,0:2:0:0:
92,292,6801,1,8,1:2:0:0:
312,296,6963,1,8,1:2:0:0:
92,292,7126,1,8,1:2:0:0:
360,172,7288,6,0,L|116:172,1,200,6|10,1:2|0:2,0:2:0:0:
300,172,7774,1,2,0:2:0:0:
160,172,7936,2,0,L|160:56,1,100,0|2,1:2|1:2,1:2:0:0:
300,72,8261,2,2,L|192:72,1,100,10|2,0:2|0:2,0:2:0:0:
432,72,8585,5,2,1:2:0:0:
200,348,8747,2,0,L|200:232,1,100,2|8,0:2|0:2,0:2:0:0:
340,248,9071,2,0,L|440:248,1,100,2|0,1:2|0:2,0:2:0:0:
300,248,9396,1,2,1:2:0:0:
440,248,9558,2,0,L|440:132,1,100,10|0,0:2|0:2,0:2:0:0:
208,156,9882,6,0,L|104:156,1,100,2|0,1:2|0:2,0:2:0:0:
352,52,10207,2,0,L|456:52,1,100,10|0,0:2|0:2,0:2:0:0:
224,264,10531,1,2,1:2:0:0:
364,264,10693,2,0,L|364:140,1,100,2|8,1:2|0:2,0:2:0:0:
136,172,11017,6,0,L|12:172,2,100,2|0|0,0:2|1:2|0:2,0:2:0:0:
276,172,11504,1,8,0:2:0:0:
136,172,11666,2,0,L|136:56,1,100,0|0,1:2|0:2,0:2:0:0:
276,76,11990,1,0,1:2:0:0:
136,72,12153,2,0,L|28:72,1,100,8|0,0:2|0:2,0:2:0:0:
288,364,12477,6,0,P|344:340|280:256,1,200,6|10,1:2|0:2,0:2:0:0:
144,260,12963,2,0,L|144:128,1,100,2|0,0:2|1:2,0:2:0:0:
284,160,13288,1,2,1:2:0:0:
144,164,13450,2,2,L|248:164,1,100,10|2,0:2|0:2,0:2:0:0:
24,168,13774,5,2,1:2:0:0:
248,360,13936,2,0,L|248:240,1,100,2|8,0:2|0:2,0:2:0:0:
108,276,14261,2,0,L|236:276,1,100,2|0,1:2|0:2,0:2:0:0:
348,276,14585,1,2,1:2:0:0:
208,276,14747,2,0,L|96:276,1,100,10|2,0:2|0:2,0:2:0:0:
360,176,15071,6,0,L|360:72,1,100,2|0,1:2|0:2,0:2:0:0:
128,84,15396,2,0,L|-4:84,1,100,10|0,0:2|0:2,0:2:0:0:
280,268,15720,1,2,1:2:0:0:
140,268,15882,2,0,L|140:152,1,100,2|8,1:2|0:2,0:2:0:0:
376,160,16207,6,0,L|480:160,2,100,2|0|0,0:2|1:2|0:2,0:2:0:0:
236,160,16693,1,8,0:2:0:0:
376,156,16855,2,0,L|376:272,1,100,0|0,1:2|0:2,0:2:0:0:
236,260,17180,1,0,1:2:0:0:
376,260,17342,2,0,L|488:260,1,100,8|0,0:2|0:2,0:2:0:0:
228,360,17666,6,0,P|164:336|240:264,1,200,6|10,1:2|0:2,0:2:0:0:
364,260,18153,2,0,L|476:260,1,100,2|0,0:2|1:2,0:2:0:0:
324,260,18477,1,2,1:2:0:0:
464,256,18639,2,0,L|464:124,1,100,10|2,0:2|0:2,0:2:0:0:
244,172,18963,5,2,1:2:0:0:
464,164,19126,2,0,L|464:56,1,100,2|8,0:2|0:2,0:2:0:0:
224,168,19450,2,0,L|224:28,1,100,2|0,1:2|0:2,0:2:0:0:
364,68,19774,2,2,L|480:68,2,100,2|10|2,1:2|0:2|0:2,0:2:0:0:
140,240,20261,5,2,1:2:0:0:
260,244,20423,1,2,0:2:0:0:
140,240,20585,1,10,0:2:0:0:
20,240,20747,1,2,0:2:0:0:
256,168,20909,1,2,1:2:0:0:
32,168,21071,2,0,L|32:44,1,100,2|8,1:2|1:2,1:2:0:0:
132,72,21396,1,2,0:2:0:0:
352,60,21558,6,0,L|148:60,1,200,0|10,1:2|0:2,0:2:0:0:
292,60,22044,2,0,L|292:196,1,100,0|2,1:2|0:2,0:2:0:0:
152,160,22369,1,2,1:2:0:0:
292,160,22531,2,0,L|408:160,1,100,8|2,0:2|0:2,0:2:0:0:
172,340,22855,6,0,L|380:340,1,200,4|8,1:2|0:2,0:2:0:0:
372,340,23342,1,0,0:2:0:0:
232,340,23504,1,0,1:2:0:0:
372,340,23666,1,0,1:2:0:0:
144,280,23828,2,0,L|264:280,1,100,8|0,0:2|0:2,0:2:0:0:
104,280,24153,6,0,L|104:168,1,100,0|0,1:2|0:2,0:2:0:0:
328,168,24477,1,8,0:2:0:0:
188,168,24639,2,0,L|188:52,1,100,0|0,1:2|0:2,0:2:0:0:
328,64,24963,1,0,1:2:0:0:
104,352,25126,2,0,L|104:240,1,100,8|0,0:2|0:2,0:2:0:0:
244,256,25450,6,0,L|356:256,1,100,0|0,1:2|0:2,0:2:0:0:
120,212,25774,2,0,P|48:168|136:128,1,200,8|0,0:2|1:2,0:2:0:0:
256,112,26261,1,0,1:2:0:0:
28,48,26423,2,0,L|144:48,1,100,10|0,0:2|0:2,0:2:0:0:
384,344,26747,6,0,L|504:344,1,100,4|8,1:2|1:1,1:2:0:0:
256,268,27071,2,8,L|404:268,1,100,8|8,1:1|1:1,1:1:0:0:
120,200,27396,2,8,L|4:200,1,100,8|8,1:1|1:1,1:1:0:0:
240,196,27720,1,8,1:1:0:0:
20,196,27882,1,8,1:1:0:0:
272,120,28044,5,6,1:2:0:0:
132,124,28207,1,0,1:2:0:0:
368,356,28369,2,0,P|416:320|348:272,1,150,2|0,1:2|0:2,0:2:0:0:
208,276,28693,2,0,L|208:160,1,100,4|0,0:2|0:2,0:2:0:0:
308,176,29017,2,0,L|420:176,1,100,2|0,0:2|0:2,0:2:0:0:
184,104,29342,5,2,1:2:0:0:
324,104,29504,1,0,1:2:0:0:
100,352,29666,2,0,P|56:308|120:256,1,150,2|0,1:2|0:2,0:2:0:0:
272,252,29990,2,0,L|376:252,1,100,6|0,0:2|0:2,0:2:0:0:
272,252,30315,2,0,L|152:252,1,100,2|0,0:2|0:2,0:2:0:0:
404,160,30639,5,2,1:2:0:0:
264,160,30801,1,0,1:2:0:0:
488,360,30963,2,0,P|488:296|408:264,1,150,2|0,1:2|0:2,0:2:0:0:
248,272,31288,2,0,P|192:236|268:152,1,200,6|2,0:2|0:2,0:2:0:0:
360,148,31774,1,0,0:2:0:0:
136,88,31936,5,2,1:2:0:0:
276,88,32098,1,0,1:2:0:0:
52,352,32261,2,0,L|44:224,1,100,2|0,1:2|1:2,0:2:0:0:
276,248,32585,1,12,0:2:0:0:
136,252,32747,2,0,L|136:176,1,50,0|0,1:2|1:2,1:2:0:0:
316,188,32909,2,0,L|432:188,1,100,8|0,0:2|0:2,0:2:0:0:
188,120,33234,5,2,1:2:0:0:
328,120,33396,1,0,1:2:0:0:
108,316,33558,2,0,B|8:316|8:316|64:316,1,150,2|0,1:2|0:2,0:2:0:0:
200,248,33882,2,0,L|316:248,1,100,6|0,0:2|0:2,0:2:0:0:
200,248,34207,2,0,L|84:248,1,100,2|0,0:2|0:2,0:2:0:0:
320,156,34531,5,2,1:2:0:0:
180,156,34693,1,0,1:2:0:0:
400,88,34855,2,0,B|500:88|500:88|444:88,1,150,2|0,1:2|0:2,0:2:0:0:
292,356,35180,2,2,L|292:248,1,100,6|0,0:2|0:2,0:2:0:0:
412,256,35504,2,0,L|412:156,1,100,2|0,0:2|0:2,0:2:0:0:
184,156,35828,5,2,1:2:0:0:
324,156,35990,1,0,1:2:0:0:
104,344,36153,2,0,P|52:304|124:264,1,150,2|0,1:2|0:0,0:0:0:0:
300,96,36477,2,0,L|96:96,1,200,6|2,0:2|0:2,0:2:0:0:
100,96,36963,1,0,0:2:0:0:
360,372,37126,5,6,1:2:0:0:
460,376,37288,2,0,P|480:272|444:156,1,200,2|2,0:2|0:2,0:2:0:0:
232,232,37774,2,0,L|120:232,1,100,4|2,1:2|0:2,0:2:0:0:
180,232,38017,1,2,0:2:0:0:
232,232,38098,1,2,0:2:0:0:
128,232,38261,1,2,0:2:0:0:
348,160,38423,6,2,L|232:160,1,100,6|2,1:2|0:2,0:2:0:0:
468,264,38747,2,0,P|500:208|392:140,1,200,6|0,1:2|0:2,0:2:0:0:
272,132,39234,2,2,L|204:132,2,50,2|2|2,0:2|0:2|0:2,0:2:0:0:
372,132,39558,1,2,0:2:0:0:
152,216,39720,6,2,L|36:216,1,100,6|2,1:2|0:2,0:2:0:0:
276,212,40044,1,6,1:2:0:0:
384,208,40207,1,4,0:3:0:0:
420,208,40261,1,4,0:3:0:0:
456,208,40315,1,4,0:3:0:0:
420,208,40369,1,4,0:3:0:0:
152,180,40531,6,8,L|36:180,2,110.000003356934,8|8|8,0:3|0:3|0:3,0:3:0:0:
376,120,41017,5,6,1:2:0:0:
236,124,41180,1,0,1:2:0:0:
456,356,41342,2,0,P|488:304|400:268,1,150,2|0,1:2|0:2,0:2:0:0:
276,256,41666,2,0,L|276:152,1,100,6|0,0:2|0:2,0:2:0:0:
384,152,41990,2,0,L|488:152,1,100,2|0,0:2|0:2,0:2:0:0:
256,88,42315,5,2,1:2:0:0:
396,84,42477,1,0,1:2:0:0:
164,204,42639,2,0,L|56:204,1,100,2|0,1:2|1:2,0:2:0:0:
284,128,42963,2,2,L|152:128,1,100,14|0,0:2|1:2,0:2:0:0:
416,164,43288,2,2,L|416:44,1,100,8|0,0:2|1:2,0:2:0:0:
188,356,43612,6,0,P|88:336|44:232,1,200,4|2,1:2|0:2,0:2:0:0:
144,252,44098,1,0,1:2:0:0:
368,260,44261,2,0,P|432:248|488:116,1,200,12|2,1:2|0:2,0:2:0:0:
392,144,44747,1,0,0:2:0:0:
168,284,44909,5,2,1:2:0:0:
288,284,45071,1,8,0:2:0:0:
48,216,45234,1,2,0:2:0:0:
328,216,45396,2,0,L|328:96,1,100,0|8,1:2|0:2,0:2:0:0:
104,216,45720,1,0,1:2:0:0:
204,216,45882,1,0,0:2:0:0:
52,220,46044,1,8,0:2:0:0:
292,216,46207,6,0,L|504:216,1,200,4|2,1:2|0:2,0:2:0:0:
392,216,46693,1,0,1:2:0:0:
152,224,46855,2,0,P|84:204|164:140,1,200,12|2,0:2|0:2,0:2:0:0:
244,132,47342,1,0,0:2:0:0:
468,56,47504,6,0,L|240:56,1,200,0|2,1:2|1:2,0:2:0:0:
496,352,47990,2,0,L|496:232,1,100,0|2,1:2|1:2,0:2:0:0:
272,264,48315,2,0,L|200:264,1,50,0|0,3:2|3:2,3:2:0:0:
364,200,48477,2,0,L|436:200,1,50,2|0,3:2|3:2,3:2:0:0:
364,200,48639,2,0,L|280:200,1,50,0|0,3:2|3:2,3:2:0:0:
128,88,48801,6,0,L|376:88,1,239.999992675781,6|8,1:2|0:2,0:2:0:0:
488,88,49288,1,0,0:2:0:0:
244,240,49450,1,2,1:2:0:0:
364,240,49612,1,0,1:2:0:0:
244,240,49774,1,8,0:2:0:0:
124,240,49936,1,0,0:2:0:0:
384,128,50098,6,0,L|140:128,1,239.999992675781,2|8,1:2|0:2,0:2:0:0:
24,132,50585,1,0,0:2:0:0:
264,264,50747,1,2,1:2:0:0:
144,264,50909,1,0,1:2:0:0:
264,264,51071,1,8,0:2:0:0:
384,264,51234,1,0,0:2:0:0:
160,220,51396,6,0,L|32:220,1,119.999996337891,2|0,1:2|0:2,0:2:0:0:
352,204,51720,2,0,L|352:64,1,119.999996337891,10|0,0:2|0:2,0:2:0:0:
132,84,52044,1,2,1:2:0:0:
252,84,52207,1,0,1:2:0:0:
32,84,52369,2,0,L|32:224,1,119.999996337891,10|0,0:2|0:2,0:2:0:0:
300,344,52693,6,0,L|424:344,1,119.999996337891,0|0,1:2|0:2,0:2:0:0:
172,252,53017,1,8,0:2:0:0:
292,252,53180,2,0,L|292:176,1,59.9999981689454,0|0,1:2|1:2,1:2:0:0:
232,196,53342,1,0,1:2:0:0:
360,196,53504,1,0,1:2:0:0:
136,100,53666,2,0,L|12:100,1,119.999996337891,8|0,0:2|0:2,0:2:0:0:
256,260,53990,6,0,L|16:260,1,239.999992675781,2|8,1:2|0:2,0:2:0:0:
136,260,54477,1,0,0:2:0:0:
396,176,54639,1,2,1:2:0:0:
276,176,54801,1,0,1:2:0:0:
156,176,54963,1,8,0:2:0:0:
276,176,55126,1,0,0:2:0:0:
52,112,55288,6,0,L|300:112,1,239.999992675781,2|8,1:2|0:2,0:2:0:0:
412,108,55774,1,0,0:2:0:0:
176,268,55936,1,2,1:2:0:0:
296,268,56098,1,0,1:2:0:0:
176,268,56261,1,8,0:2:0:0:
176,268,56423,1,0,0:2:0:0:
408,172,56585,6,0,L|272:172,1,119.999996337891,2|0,1:2|0:2,0:2:0:0:
68,176,56909,2,0,L|68:48,1,119.999996337891,10|0,0:2|0:2,0:2:0:0:
300,64,57234,1,2,1:2:0:0:
180,64,57396,1,0,1:2:0:0:
416,64,57558,1,10,0:2:0:0:
176,356,57720,6,0,L|432:356,1,239.999992675781,4|0,1:2|1:2,0:2:0:0:
156,252,58207,1,10,0:2:0:0:
276,252,58369,1,0,0:2:0:0:
40,188,58531,2,0,L|112:188,1,59.9999981689454,2|0,3:2|3:2,3:2:0:0:
260,184,58693,2,0,L|260:92,1,59.9999981689454,0|0,3:2|3:2,3:2:0:0:
208,124,58855,2,0,L|140:76,1,59.9999981689454,0|0,3:2|3:2,3:2:0:0:
300,56,59017,2,0,L|404:56,1,59.9999981689454,0|0,3:2|3:2,3:2:0:0:
156,360,59180,6,0,P|72:304|172:236,1,239.999992675781,6|8,1:2|0:2,0:2:0:0:
268,228,59666,1,0,0:2:0:0:
492,132,59828,1,2,1:2:0:0:
372,132,59990,1,0,1:2:0:0:
252,132,60153,1,8,0:2:0:0:
132,132,60315,1,0,0:2:0:0:
368,360,60477,6,0,P|436:340|356:252,1,239.999992675781,2|8,1:2|0:2,0:2:0:0:
240,256,60963,1,0,0:2:0:0:
16,184,61126,1,2,1:2:0:0:
136,184,61288,1,0,1:2:0:0:
16,184,61450,1,8,0:2:0:0:
16,184,61612,1,0,0:2:0:0:
272,120,61774,6,0,L|396:120,1,119.999996337891,2|0,1:2|0:2,0:2:0:0:
152,360,62098,2,0,L|152:212,1,119.999996337891,10|0,0:2|0:2,0:2:0:0:
376,236,62423,1,2,1:2:0:0:
256,236,62585,1,0,1:2:0:0:
484,180,62747,2,0,L|484:48,1,119.999996337891,10|0,0:2|0:2,0:2:0:0:
200,64,63071,6,0,L|64:64,1,119.999996337891,0|0,1:2|0:2,0:2:0:0:
356,336,63396,1,8,0:2:0:0:
236,336,63558,2,0,L|168:336,2,59.9999981689454,0|0|0,1:2|1:2|1:2,1:2:0:0:
356,336,63882,1,2,1:2:0:0:
128,280,64044,2,0,L|24:204,1,119.999996337891,8|2,0:2|0:2,0:2:0:0:
252,168,64369,6,0,B|352:168|352:168|212:168,1,200,2|8,1:2|0:2,0:2:0:0:
152,168,64855,1,0,0:2:0:0:
372,72,65017,1,2,1:2:0:0:
248,72,65180,1,0,1:2:0:0:
372,72,65342,1,8,0:2:0:0:
492,72,65504,1,0,0:2:0:0:
260,256,65666,6,0,P|200:240|268:160,1,200,2|8,1:2|0:2,0:2:0:0:
356,156,66153,1,0,0:2:0:0:
136,104,66315,1,2,1:2:0:0:
256,104,66477,1,0,1:2:0:0:
376,100,66639,1,8,0:2:0:0:
152,204,66801,6,0,L|44:204,2,100,2|0|0,0:2|1:2|0:2,0:2:0:0:
376,204,67288,2,0,L|376:80,1,100,10|0,0:2|0:2,0:2:0:0:
256,112,67612,1,2,1:2:0:0:
376,108,67774,1,0,1:2:0:0:
152,60,67936,2,0,L|16:60,1,100,10|0,0:2|0:2,0:2:0:0:
352,332,68261,5,6,3:2:0:0:
408,332,68342,1,0,3:0:0:0:
408,332,68423,1,0,3:0:0:0:
352,332,68504,1,0,3:0:0:0:
192,276,68585,5,2,3:2:0:0:
192,276,68666,1,0,3:0:0:0:
248,276,68747,1,0,3:0:0:0:
248,276,68828,1,0,3:0:0:0:
88,228,68909,5,2,3:2:0:0:
36,228,68990,1,0,3:2:0:0:
184,108,69071,1,2,3:2:0:0:
236,108,69153,1,0,3:2:0:0:
184,108,69234,1,8,3:3:0:0:
40,112,69396,1,8,3:3:0:0:
264,232,69558,5,2,1:2:0:0:
384,232,69720,1,0,0:2:0:0:
264,232,69882,1,8,0:2:0:0:
144,232,70044,1,0,0:2:0:0:
368,136,70207,1,2,1:2:0:0:
248,136,70369,1,0,1:2:0:0:
368,136,70531,1,8,0:2:0:0:
488,140,70693,1,0,0:2:0:0:
264,280,70855,5,2,1:2:0:0:
144,280,71017,1,0,0:2:0:0:
264,276,71180,1,8,0:2:0:0:
384,276,71342,1,0,0:2:0:0:
148,188,71504,1,2,1:2:0:0:
268,188,71666,1,0,1:2:0:0:
148,188,71828,1,8,0:2:0:0:
28,188,71990,1,0,0:2:0:0:
264,120,72153,6,0,L|264:252,1,119.999996337891,2|0,1:2|0:2,0:2:0:0:
32,64,72477,2,0,L|176:64,1,119.999996337891,10|0,0:2|0:2,0:2:0:0:
376,64,72801,2,0,L|248:64,1,119.999996337891,2|0,1:2|1:2,1:2:0:0:
488,68,73126,2,0,L|488:192,1,119.999996337891,10|0,0:2|0:2,0:2:0:0:
244,296,73450,5,0,1:2:0:0:
364,300,73612,1,0,0:2:0:0:
140,208,73774,1,8,0:2:0:0:
20,208,73936,1,0,0:2:0:0:
140,208,74098,1,0,1:2:0:0:
20,208,74261,1,0,1:2:0:0:
256,136,74423,1,8,0:2:0:0:
136,136,74585,1,0,0:2:0:0:
360,272,74747,5,2,1:2:0:0:
480,276,74909,1,0,0:2:0:0:
360,272,75071,1,8,0:2:0:0:
240,272,75234,1,0,0:2:0:0:
464,184,75396,1,2,1:2:0:0:
344,184,75558,1,0,1:2:0:0:
224,184,75720,1,8,0:2:0:0:
344,184,75882,1,0,0:2:0:0:
112,96,76044,5,2,1:2:0:0:
232,96,76207,1,0,0:2:0:0:
352,96,76369,1,8,0:2:0:0:
472,96,76531,1,0,0:2:0:0:
244,232,76693,1,2,1:2:0:0:
364,232,76855,1,0,1:2:0:0:
244,232,77017,1,8,0:2:0:0:
124,236,77180,1,0,0:2:0:0:
348,360,77342,6,0,L|348:224,1,119.999996337891,2|0,1:2|0:2,0:2:0:0:
120,208,77666,2,0,L|120:80,1,119.999996337891,10|0,0:2|0:2,0:2:0:0:
344,96,77990,1,2,1:2:0:0:
224,96,78153,1,0,1:2:0:0:
468,68,78315,1,10,0:2:0:0:
220,336,78477,6,0,L|220:208,1,119.999996337891,4|0,1:2|0:2,0:2:0:0:
340,224,78801,1,0,1:2:0:0:
96,184,78963,2,0,L|96:108,1,59.9999981689454,2|0,3:2|3:2,3:2:0:0:
160,124,79126,2,0,L|160:36,1,59.9999981689454,0|0,3:2|3:2,3:2:0:0:
100,64,79288,2,0,L|20:64,1,59.9999981689454,2|0,3:2|3:2,3:2:0:0:
240,68,79450,2,4,L|320:68,1,59.9999981689454,4|4,3:3|3:3,3:3:0:0:
124,28,79612,2,4,L|124:104,1,59.9999981689454,4|4,3:3|3:3,3:3:0:0:
300,120,79774,2,4,L|384:120,1,59.9999981689454,4|4,3:3|3:3,3:3:0:0:
208,216,79936,5,6,1:2:0:0:
88,216,80098,1,0,0:2:0:0:
208,216,80261,1,8,0:2:0:0:
328,220,80423,1,0,0:2:0:0:
104,132,80585,1,2,1:2:0:0:
224,132,80747,1,0,1:2:0:0:
104,132,80909,1,8,0:2:0:0:
104,132,81071,1,0,0:2:0:0:
328,64,81234,5,2,1:2:0:0:
208,60,81396,1,0,0:2:0:0:
88,60,81558,1,8,0:2:0:0:
208,56,81720,1,0,0:2:0:0:
432,332,81882,1,2,1:2:0:0:
312,332,82044,1,0,1:2:0:0:
432,332,82207,1,8,0:2:0:0:
432,332,82369,1,0,0:2:0:0:
188,248,82531,6,0,L|40:248,1,119.999996337891,2|0,1:2|0:2,0:2:0:0:
312,240,82855,2,0,L|448:240,1,119.999996337891,10|0,0:2|0:2,0:2:0:0:
200,140,83180,1,2,1:2:0:0:
320,140,83342,1,0,1:2:0:0:
84,144,83504,2,0,L|84:276,1,119.999996337891,10|0,0:2|0:2,0:2:0:0:
356,276,83828,6,0,L|112:276,1,239.999992675781,0|8,1:2|0:2,0:2:0:0:
116,276,84315,1,0,0:2:0:0:
236,276,84477,1,0,1:2:0:0:
116,276,84639,1,2,1:2:0:0:
348,220,84801,2,0,L|468:220,1,119.999996337891,8|2,0:2|0:2,0:2:0:0:
212,112,85126,6,0,L|476:112,1,239.999992675781,0|8,1:2|0:2,0:2:0:0:
452,112,85612,1,0,0:2:0:0:
228,256,85774,1,2,1:2:0:0:
348,256,85936,1,0,1:2:0:0:
228,256,86098,1,8,0:2:0:0:
108,256,86261,1,0,0:2:0:0:
348,160,86423,6,0,L|92:160,1,239.999992675781,2|8,1:2|0:2,0:2:0:0:
108,160,86909,1,0,0:2:0:0:
336,360,87071,2,0,L|496:360,2,119.999996337891,2|0|8,1:2|1:2|0:2,0:2:0:0:
112,244,87558,1,2,0:2:0:0:
232,244,87720,5,0,1:2:0:0:
352,244,87882,1,0,0:2:0:0:
92,340,88044,2,0,L|92:184,1,119.999996337891,10|0,0:2|0:2,0:2:0:0:
212,228,88369,1,0,1:2:0:0:
92,220,88531,1,0,1:2:0:0:
328,168,88693,2,0,L|472:168,1,119.999996337891,8|0,0:2|0:2,0:2:0:0:
192,344,89017,6,0,L|296:344,2,79.9999975585938,4|0|8,1:2|1:0|0:2,1:0:0:0:
392,256,89342,2,8,L|488:256,2,79.9999975585938,8|8|8,0:2|0:2|0:2,0:2:0:0:
188,256,89666,1,4,1:2:0:0:
316,252,89828,1,8,1:2:0:0:
64,160,89990,1,8,1:2:0:0:
360,160,90153,1,8,1:2:0:0:
