osu file format v14

[General]
AudioFilename: audio.MP3
AudioLeadIn: 0
PreviewTime: 48801
Countdown: 0
SampleSet: Soft
StackLeniency: 0.7
Mode: 2
LetterboxInBreaks: 0
WidescreenStoryboard: 1

[Editor]
DistanceSpacing: 1.1
BeatDivisor: 6
GridSize: 4
TimelineZoom: 1.5

[Metadata]
Title:forever we can make it! (TV Size)
TitleUnicode:forever we can make it! (TV Size)
Artist:THYME
ArtistUnicode:THYME
Creator:Kukkai
Version:Cup
Source:To LOVEる -とらぶる-
Tags:to love ru trouble anime op season 1 Opening Japanese rock j-rock
BeatmapID:3281744
BeatmapSetID:1095030

[Difficulty]
HPDrainRate:2
CircleSize:2.5
OverallDifficulty:6
ApproachRate:6
SliderMultiplier:1.3
SliderTickRate:1

[Events]
//Background and Video events
0,0,"bg.jpg",0,0
//Break Periods
//Storyboard Layer 0 (Background)
//Storyboard Layer 1 (Fail)
//Storyboard Layer 2 (Pass)
//Storyboard Layer 3 (Foreground)
//Storyboard Layer 4 (Overlay)
//Storyboard Sound Samples

[TimingPoints]
802,324.324324324324,4,2,1,70,1,0
1653,297.029702970297,4,2,1,70,1,0
2099,324.324324324324,4,2,1,70,1,0
7288,-111.111111111111,4,2,1,60,0,0
26423,-111.111111111111,4,2,2,60,0,0
26747,-111.111111111111,4,2,1,60,0,0
28044,-111.111111111111,4,2,2,65,0,0
37126,-111.111111111111,4,2,1,65,0,0
41017,-111.111111111111,4,2,2,65,0,0
48801,-100,4,2,1,75,0,1
58207,-100,4,2,2,75,0,1
59180,-100,4,2,1,75,0,1
64369,-100,4,2,1,75,0,0
69558,-100,4,2,1,75,0,1
78963,-100,4,2,2,75,0,1
79936,-100,4,2,1,75,0,1
89017,-100,4,2,1,75,0,0

[Colours]
Combo1 : 143,207,204
Combo2 : 243,160,187
Combo3 : 243,199,139
Combo4 : 125,140,193
Combo5 : 184,136,116

[HitObjects]
256,164,1653,6,0,L|340:164,2,65,8|8|8,1:2|1:2|1:2,0:0:0:0:
196,164,2099,6,0,L|56:164,1,130,6|8,1:2|0:2,0:0:0:0:
196,160,2747,2,0,L|276:160,2,65,2|0|8,1:2|1:2|0:2,0:0:0:0:
64,156,3396,5,2,1:2:0:0:
192,156,3720,2,0,L|268:156,1,65,8|0,0:2|1:2,0:0:0:0:
388,152,4207,2,0,L|388:236,1,65,0|8,1:2|0:2,0:0:0:0:
232,300,4693,6,0,L|100:300,1,130,0|10,1:2|0:2,0:0:0:0:
232,296,5342,2,0,L|308:296,2,65,0|0|8,1:2|1:2|0:2,0:0:0:0:
104,300,5990,6,0,L|104:168,1,130,0|8,1:2|0:2,0:0:0:0:
168,168,6477,1,0,1:2:0:0:
308,172,6801,2,0,L|308:92,1,65,8|8,1:2|1:2,0:0:0:0:
242,107,7126,1,8,1:2:0:0:
168,104,7288,6,0,L|36:104,1,116.999996429443,6|10,1:2|0:2,0:0:0:0:
108,108,7774,1,2,0:2:0:0:
224,112,8098,2,0,L|224:184,1,58.4999982147217,2|10,1:2|0:2,0:0:0:0:
352,180,8585,5,2,1:2:0:0:
412,180,8747,2,0,L|412:304,1,116.999996429443,2|2,0:2|1:2,0:0:0:0:
288,228,9396,2,0,L|208:228,1,58.4999982147217,2|10,1:2|0:2,0:0:0:0:
384,252,9882,6,0,L|384:112,1,116.999996429443,2|10,1:2|0:2,0:0:0:0:
268,140,10531,2,0,L|348:140,1,58.4999982147217,2|2,1:2|1:2,0:0:0:0:
208,140,11017,6,0,P|140:160|96:208,1,116.999996429443,2|0,0:2|0:0,0:0:0:0:
164,256,11504,1,8,0:2:0:0:
224,252,11666,2,0,L|360:252,1,116.999996429443,0|0,1:2|1:2,0:0:0:0:
400,252,12153,1,8,0:2:0:0:
236,224,12477,6,0,L|236:92,1,116.999996429443,6|10,1:2|0:2,0:0:0:0:
296,104,12963,1,2,0:2:0:0:
412,100,13288,2,0,L|336:100,1,58.4999982147217,2|10,1:2|0:2,0:0:0:0:
236,96,13774,5,2,1:2:0:0:
176,96,13936,2,0,L|316:96,1,116.999996429443,2|2,0:2|1:2,0:0:0:0:
412,100,14585,2,0,L|412:164,1,58.4999982147217,2|10,1:2|0:2,0:0:0:0:
276,296,15071,6,0,L|140:296,1,116.999996429443,2|10,1:2|0:2,0:0:0:0:
276,296,15720,2,0,L|352:296,1,58.4999982147217,2|2,1:2|1:2,0:0:0:0:
216,292,16207,6,0,P|184:256|224:192,1,116.999996429443,2|0,0:2|0:0,0:0:0:0:
273,288,16693,1,8,0:2:0:0:
332,284,16855,2,0,P|356:244|312:176,1,116.999996429443,0|0,1:2|1:2,0:0:0:0:
272,180,17342,1,8,0:2:0:0:
116,124,17666,6,0,L|260:124,1,116.999996429443,6|10,1:2|0:2,0:0:0:0:
292,124,18153,2,0,L|164:124,1,116.999996429443,2|2,0:2|1:2,0:0:0:0:
116,124,18639,1,10,0:2:0:0:
232,124,18963,5,2,1:2:0:0:
292,124,19126,2,0,L|292:260,1,116.999996429443,2|2,0:2|1:2,0:0:0:0:
176,240,19774,2,0,L|96:240,1,58.4999982147217,2|10,1:2|0:2,0:0:0:0:
268,184,20261,6,0,L|400:184,2,116.999996429443,2|10|2,1:2|0:2|1:2,0:0:0:0:
208,184,21071,2,0,P|188:120|224:64,1,116.999996429443,2|2,1:2|0:2,0:0:0:0:
268,76,21558,5,0,1:2:0:0:
384,76,21882,2,0,P|412:136|380:196,1,116.999996429443,10|2,0:2|0:2,0:0:0:0:
336,184,22369,1,2,1:2:0:0:
276,184,22531,1,8,0:2:0:0:
428,348,22855,6,0,L|428:208,1,116.999996429443,4|8,1:2|0:2,0:0:0:0:
312,232,23504,1,0,1:2:0:0:
252,232,23666,1,0,1:2:0:0:
192,232,23828,1,8,0:2:0:0:
312,232,24153,5,0,1:2:0:0:
428,231,24477,2,0,L|428:152,1,58.4999982147217,8|0,0:2|1:2,0:0:0:0:
312,168,24963,2,0,L|384:168,1,58.4999982147217,0|8,1:2|0:2,0:0:0:0:
216,100,25450,6,0,L|72:100,1,116.999996429443,0|8,1:2|0:2,0:0:0:0:
216,100,26098,2,0,L|296:100,2,58.4999982147217,0|0|10,1:2|1:2|0:2,0:0:0:0:
80,108,26747,5,4,1:2:0:0:
80,173,26909,1,8,1:1:0:0:
80,238,27071,1,8,1:1:0:0:
140,236,27234,1,8,1:1:0:0:
200,236,27396,1,8,1:1:0:0:
140,236,27558,1,8,1:1:0:0:
82,236,27720,1,8,1:1:0:0:
232,148,28044,6,0,L|312:148,2,58.4999982147217,6|0|2,1:2|1:2|1:2,0:0:0:0:
104,148,28693,2,0,L|104:268,1,116.999996429443,4|2,0:2|0:2,0:0:0:0:
256,272,29342,5,2,1:2:0:0:
314,272,29504,1,0,1:2:0:0:
373,272,29666,1,2,1:2:0:0:
244,272,29990,2,0,L|244:132,1,116.999996429443,6|2,0:2|0:2,0:0:0:0:
396,84,30639,5,2,1:2:0:0:
337,84,30801,1,0,1:2:0:0:
279,84,30963,1,2,1:2:0:0:
152,84,31288,2,0,L|292:84,1,116.999996429443,6|2,0:2|0:2,0:0:0:0:
116,192,31936,6,0,L|52:192,2,58.4999982147217,2|0|2,1:2|1:2|1:2,0:0:0:0:
244,192,32585,2,0,L|380:192,1,116.999996429443,12|8,0:2|0:2,0:0:0:0:
208,112,33234,5,2,1:2:0:0:
148,112,33396,1,0,1:2:0:0:
148,112,33558,1,2,1:2:0:0:
276,112,33882,2,0,L|396:112,1,116.999996429443,6|2,0:2|0:2,0:0:0:0:
240,288,34531,5,2,1:2:0:0:
180,288,34693,1,0,1:2:0:0:
120,288,34855,1,2,1:2:0:0:
248,288,35180,2,0,L|108:288,1,116.999996429443,6|2,0:2|0:2,0:0:0:0:
284,216,35828,5,2,1:2:0:0:
344,216,35990,1,0,1:2:0:0:
344,156,36153,1,2,1:2:0:0:
216,156,36477,2,0,L|76:156,1,116.999996429443,6|2,0:2|0:2,0:0:0:0:
252,352,37126,6,0,B|516:356,1,233.999992858887,6|4,1:2|1:2,0:0:0:0:
249,76,38423,2,0,L|121:76,1,116.999996429443,6|6,1:2|1:2,0:0:0:0:
132,76,39720,5,6,1:2:0:0:
284,80,40044,2,0,L|408:80,1,116.999996429443,6|4,1:2|0:3,0:0:0:0:
460,80,40531,1,8,0:3:0:0:
400,80,40693,1,8,0:3:0:0:
248,304,41017,5,6,1:2:0:0:
188,304,41180,1,0,1:2:0:0:
188,244,41342,1,2,1:2:0:0:
304,244,41666,1,6,0:2:0:0:
304,244,41990,1,2,0:2:0:0:
152,196,42315,5,2,1:2:0:0:
152,196,42477,1,0,1:2:0:0:
212,196,42639,1,2,1:2:0:0:
336,124,42963,1,14,0:2:0:0:
216,128,43288,1,8,0:2:0:0:
368,316,43612,6,0,L|368:192,1,116.999996429443,4|2,1:2|0:2,0:0:0:0:
252,316,44261,2,0,L|112:316,1,116.999996429443,12|2,1:2|0:2,0:0:0:0:
288,240,44909,6,0,P|300:188|276:104,1,116.999996429443,2|2,1:2|0:2,0:0:0:0:
228,128,45396,1,0,1:2:0:0:
112,132,45720,2,0,L|112:264,1,116.999996429443,0|8,1:2|0:2,0:0:0:0:
184,248,46207,6,0,L|316:248,1,116.999996429443,4|2,1:2|0:2,0:0:0:0:
416,256,46855,2,0,L|416:112,1,116.999996429443,12|2,0:2|0:2,0:0:0:0:
260,152,47504,6,0,L|116:152,1,116.999996429443,0|2,1:2|1:2,0:0:0:0:
84,152,47990,1,0,1:2:0:0:
200,152,48315,2,0,L|276:152,2,58.4999982147217,0|2|0,3:2|3:2|3:2,0:0:0:0:
120,156,48801,6,0,L|120:296,1,130,6|8,1:2|0:2,0:0:0:0:
252,288,49450,2,0,L|392:288,1,130,2|8,1:2|0:2,0:0:0:0:
252,288,50098,6,0,L|112:288,1,130,2|8,1:2|0:2,0:0:0:0:
252,288,50747,2,0,L|252:136,1,130,2|8,1:2|0:2,0:0:0:0:
96,92,51396,6,0,L|236:92,2,130,2|10|2,1:2|0:2|1:2,0:0:0:0:
32,92,52207,1,0,1:2:0:0:
96,92,52369,1,10,0:2:0:0:
232,92,52693,6,0,L|368:92,1,130,0|8,1:2|0:2,0:0:0:0:
232,96,53342,2,0,L|152:96,2,65,0|0|8,1:2|1:2|0:2,0:0:0:0:
392,336,53990,6,0,L|392:200,1,130,2|8,1:2|0:2,0:0:0:0:
264,216,54639,2,0,L|112:216,1,130,2|8,1:2|0:2,0:0:0:0:
264,216,55288,6,0,L|412:216,1,130,2|8,1:2|0:2,0:0:0:0:
260,200,55936,2,0,L|260:360,1,130,2|8,1:2|0:2,0:0:0:0:
428,136,56585,6,0,L|272:136,2,130,2|10|2,1:2|0:2|1:2,0:0:0:0:
492,136,57396,1,0,1:2:0:0:
428,136,57558,1,10,0:2:0:0:
364,136,57720,1,4,1:2:0:0:
240,132,58044,6,0,L|240:56,1,65,0|10,1:2|0:2,0:0:0:0:
372,64,58531,2,0,L|456:64,2,65,2|0|0,3:2|3:2|3:2,0:0:0:0:
200,232,59180,6,0,L|200:76,1,130,6|8,1:2|0:2,0:0:0:0:
330,228,59828,2,0,L|474:228,1,130,2|8,1:2|0:2,0:0:0:0:
330,232,60477,6,0,L|178:232,1,130,2|8,1:2|0:2,0:0:0:0:
330,176,61126,2,0,L|330:316,1,130,2|8,1:2|0:2,0:0:0:0:
160,288,61774,6,0,L|16:288,2,130,2|10|2,1:2|0:2|1:2,0:0:0:0:
224,288,62585,1,0,1:2:0:0:
290,288,62747,1,10,0:2:0:0:
152,284,63071,6,0,L|152:136,1,130,0|8,1:2|0:2,0:0:0:0:
284,160,63720,1,0,1:2:0:0:
219,160,63882,1,2,1:2:0:0:
152,154,64044,1,8,0:2:0:0:
320,268,64369,6,0,L|460:268,1,130,2|8,1:2|0:2,0:0:0:0:
320,264,65017,2,0,L|184:264,1,130,2|8,1:2|0:2,0:0:0:0:
60,264,65666,6,0,L|216:264,1,130,2|8,1:2|0:2,0:0:0:0:
320,280,66315,2,0,L|320:124,1,130,2|8,1:2|0:2,0:0:0:0:
256,152,66801,6,0,L|104:152,1,130,2|0,0:2|0:2,0:0:0:0:
192,152,67288,1,10,0:2:0:0:
320,148,67612,1,2,1:2:0:0:
192,148,67936,1,10,0:2:0:0:
320,148,68261,6,0,L|412:148,2,65,6|0|2,3:2|3:2|3:2,0:0:0:0:
192,148,68909,2,0,L|108:148,1,65,2|2,3:2|3:2,0:0:0:0:
127,148,69234,1,8,3:3:0:0:
292,296,69558,6,0,L|440:296,1,130,2|8,1:2|0:2,0:0:0:0:
292,292,70207,2,0,L|160:292,1,130,2|8,1:2|0:2,0:0:0:0:
292,292,70855,6,0,L|436:292,1,130,2|8,1:2|0:2,0:0:0:0:
292,292,71504,2,0,L|292:144,1,130,2|8,1:2|0:2,0:0:0:0:
460,148,72153,6,0,L|324:148,2,130,2|10|2,1:2|0:2|1:2,0:0:0:0:
460,148,72963,1,0,1:2:0:0:
396,148,73126,1,10,0:2:0:0:
264,176,73450,6,0,L|120:176,1,130,0|8,1:2|0:2,0:0:0:0:
264,176,74098,1,0,1:2:0:0:
329,176,74260,1,0,1:2:0:0:
394,176,74422,1,8,0:2:0:0:
236,304,74747,6,0,L|96:304,1,130,2|8,1:2|0:2,0:0:0:0:
236,304,75396,2,0,L|380:304,1,130,2|8,1:2|0:2,0:0:0:0:
236,300,76044,6,0,L|84:300,1,130,2|8,1:2|0:2,0:0:0:0:
236,300,76693,2,0,L|236:156,1,130,2|8,1:2|0:2,0:0:0:0:
68,208,77342,6,0,L|212:208,2,130,2|10|2,1:2|0:2|1:2,0:0:0:0:
68,208,78153,1,0,1:2:0:0:
134,208,78315,1,10,0:2:0:0:
198,208,78477,1,4,1:2:0:0:
328,48,78801,6,0,L|328:128,1,65,0|2,1:2|3:2,0:0:0:0:
196,120,79288,2,0,L|100:120,2,65,2|4|4,3:2|3:3|3:3,0:0:0:0:
352,336,79936,6,0,L|492:336,1,130,6|8,1:2|0:2,0:0:0:0:
352,336,80585,2,0,L|208:336,1,130,2|8,1:2|0:2,0:0:0:0:
92,336,81234,6,0,L|240:336,1,130,2|8,1:2|0:2,0:0:0:0:
92,336,81882,2,0,L|92:180,1,130,2|8,1:2|0:2,0:0:0:0:
248,208,82531,6,0,L|392:208,2,130,2|10|2,1:2|0:2|1:2,0:0:0:0:
184,208,83342,1,0,1:2:0:0:
120,208,83504,1,10,0:2:0:0:
248,208,83828,6,0,L|248:56,1,130,0|8,1:2|0:2,0:0:0:0:
116,80,84477,2,0,L|40:80,2,65,0|2|8,1:2|1:2|0:2,0:0:0:0:
272,80,85126,6,0,L|416:80,1,130,0|8,1:2|0:2,0:0:0:0:
272,80,85774,2,0,L|112:80,1,130,2|8,1:2|0:2,0:0:0:0:
272,92,86423,6,0,L|272:240,1,130,2|8,1:2|0:2,0:0:0:0:
144,224,87071,2,0,L|288:224,1,130,2|8,1:2|0:2,0:0:0:0:
339,223,87558,6,0,L|207:223,1,130,2|0,0:2|0:2,0:0:0:0:
144,224,88044,1,10,0:2:0:0:
24,232,88369,2,0,L|24:144,1,65,0|0,1:2|1:2,0:0:0:0:
88,172,88693,1,8,0:2:0:0:
244,324,89017,6,0,L|400:324,2,130,4|8|4,1:2|0:2|1:2,0:0:0:0:
164,256,89828,1,8,1:2:0:0:
99,256,89990,1,8,1:2:0:0:
164,256,90153,1,8,1:2:0:0:
