osu file format v14

[General]
AudioFilename: audio.mp3
AudioLeadIn: 0
PreviewTime: 48720
Countdown: 0
SampleSet: Soft
StackLeniency: 0.2
Mode: 0
LetterboxInBreaks: 0
WidescreenStoryboard: 1

[Editor]
DistanceSpacing: 1.1
BeatDivisor: 4
GridSize: 16
TimelineZoom: 1.850002

[Metadata]
Title:forever we can make it! (TV Size)
TitleUnicode:forever we can make it! (TV Size)
Artist:THYME
ArtistUnicode:THYME
Creator:Kudosu
Version:Normal
Source:To LOVEる -とらぶる-
Tags:to love ru trouble opening op 1 sayaka kamiyama japanese rock j-rock anime kowari soop so0p
BeatmapID:2598844
BeatmapSetID:1250456

[Difficulty]
HPDrainRate:4
CircleSize:3.5
OverallDifficulty:4
ApproachRate:5.5
SliderMultiplier:1
SliderTickRate:1

[Events]
//Background and Video events
0,0,"to love ru bg.jpg",0,0
//Break Periods
//Storyboard Layer 0 (Background)
//Storyboard Layer 1 (Fail)
//Storyboard Layer 2 (Pass)
//Storyboard Layer 3 (Foreground)
//Storyboard Layer 4 (Overlay)
//Storyboard Sound Samples

[TimingPoints]
802,324.324324324324,4,2,1,70,1,0
1653,297.029702970297,4,2,1,70,1,0
2099,324.324324324324,4,2,1,70,1,0
7288,-111.111111111111,4,2,1,55,0,0
17666,-111.111111111111,4,2,1,60,0,0
28045,-111.111111111111,4,2,1,55,0,0
37126,-111.111111111111,4,2,1,65,0,0
41018,-111.111111111111,4,2,1,55,0,0
43612,-111.111111111111,4,2,1,65,0,0
47504,-111.111111111111,4,2,1,75,0,0
48801,-100,4,2,1,75,0,0

[Colours]
Combo1 : 248,235,165
Combo2 : 241,120,120
Combo3 : 184,216,239
Combo4 : 243,150,194

[HitObjects]
126,52,1653,6,0,L|76:59,2,50,8|8|8,0:0|0:0|0:0,0:0:0:0:
171,62,2099,6,0,P|192:131|174:163,1,100,6|8,1:2|0:0,0:0:0:0:
109,221,2747,2,0,P|97:268|120:312,1,100,2|8,1:2|0:0,0:0:0:0:
211,351,3396,2,0,L|260:343,1,50,2|0,1:2|0:0,0:0:0:0:
298,311,3720,2,0,L|408:328,1,100,8|2,0:0|0:0,0:0:0:0:
477,201,4531,1,2,0:0:0:0:
477,201,4693,6,0,P|430:189|386:212,1,100,0|10,1:0|2:0,0:0:0:0:
296,166,5342,2,0,L|311:67,1,100,0|8,1:0|2:0,0:0:0:0:
279,28,5829,2,0,B|214:9|203:53|130:38,1,150,2|8,0:0|0:0,0:0:0:0:
31,149,6801,2,0,L|48:259,1,100,8|8,2:0|2:0,0:0:0:0:
86,278,7288,6,0,P|123:261|185:278,1,89.9999972534181,6|10,1:2|0:0,0:0:0:0:
203,298,7774,1,2,0:0:0:0:
280,344,8099,2,0,L|324:336,1,44.999998626709,2|10,1:2|2:2,0:0:0:0:
415,359,8585,1,2,1:2:0:0:
415,359,8747,2,0,L|430:264,1,89.9999972534181,2|2,0:0|1:2,0:0:0:0:
342,244,9396,2,0,L|297:251,1,44.999998626709,2|10,1:2|2:2,0:0:0:0:
218,207,9883,6,0,L|233:112,1,89.9999972534181,2|10,1:2|0:0,0:0:0:0:
179,45,10531,1,2,1:2:0:0:
179,45,10693,2,0,L|267:30,1,89.9999972534181,2|2,1:2|0:0,0:0:0:0:
306,54,11180,1,0,1:0:0:0:
379,106,11504,2,0,P|443:119|474:101,2,89.9999972534181,8|2|8,2:0|0:3|2:0,0:0:0:0:
299,148,12477,6,0,L|309:211,1,44.999998626709,6|2,1:2|0:0,0:0:0:0:
280,229,12801,1,10,0:0:0:0:
280,229,12964,1,2,0:0:0:0:
205,178,13288,2,0,L|160:185,1,44.999998626709,2|10,1:2|2:2,0:0:0:0:
80,144,13774,2,0,P|60:189|82:240,1,89.9999972534181,2|8,1:2|2:0,0:0:0:0:
99,261,14261,1,2,1:2:0:0:
178,302,14585,2,0,L|241:291,1,44.999998626709,2|10,1:2|2:2,0:0:0:0:
308,320,15072,6,0,P|312:256|285:222,1,89.9999972534181,2|10,1:2|0:0,0:0:0:0:
224,197,15720,1,2,1:2:0:0:
224,197,15883,2,0,L|208:102,1,89.9999972534181,2|2,1:2|0:0,0:0:0:0:
241,75,16369,2,0,L|329:89,2,89.9999972534181,0|8|0,1:0|2:0|0:1,0:0:0:0:
165,25,17342,1,8,2:2:0:0:
120,103,17666,6,0,L|21:85,1,89.9999972534181,6|10,1:2|0:0,0:0:0:0:
0,120,18153,2,0,P|-13:169|3:211,1,89.9999972534181,2|2,0:0|1:2,0:0:0:0:
32,234,18639,1,10,2:2:0:0:
110,278,18964,1,2,1:2:0:0:
110,278,19126,2,0,L|94:372,1,89.9999972534181,2|2,0:0|1:2,0:0:0:0:
184,383,19774,2,0,L|228:375,1,44.999998626709,2|10,1:2|2:2,0:0:0:0:
275,298,20261,6,0,P|323:288|376:305,2,89.9999972534181,2|10|2,1:2|0:2|1:2,0:0:0:0:
234,277,21072,2,0,L|218:182,1,89.9999972534181,2|2,1:2|0:0,0:0:0:0:
254,159,21558,1,0,1:0:0:0:
322,100,21883,2,0,P|364:87|407:101,1,89.9999972534181,10|2,2:0|0:0,0:0:0:0:
445,124,22369,1,2,1:2:0:0:
503,192,22693,1,2,0:0:0:0:
503,192,22856,6,0,L|487:286,2,89.9999972534181,4|10|2,1:2|0:0|1:2,0:0:0:0:
445,124,23829,1,10,2:0:0:0:
445,124,23991,2,0,P|386:111|343:129,1,89.9999972534181,2|0,0:0|0:0,0:0:0:0:
321,144,24477,1,10,2:0:0:0:
250,88,24801,2,0,L|265:-6,1,89.9999972534181,2|10,0:0|2:0,0:0:0:0:
174,6,25450,6,0,L|126:-1,1,44.999998626709,2|2,1:2|0:2,0:0:0:0:
92,24,25774,1,10,0:0:0:0:
41,98,26099,2,0,L|48:145,1,44.999998626709,2|2,1:2|1:2,0:0:0:0:
80,173,26423,1,14,2:0:0:0:
148,230,26747,6,0,P|161:272|141:323,1,89.9999972534181,12|8,1:2|0:0,0:0:0:0:
220,367,27396,1,8,0:0:0:0:
309,353,27720,1,10,0:0:0:0:
399,350,28045,6,0,L|409:286,1,44.999998626709,6|2,1:2|1:2,0:0:0:0:
377,270,28369,1,2,1:2:0:0:
296,229,28693,2,0,B|248:221|248:221|214:232|214:232|151:222,1,134.999995880127,8|2,0:0|0:0,0:0:0:0:
130,193,29342,2,0,L|119:129,1,44.999998626709,2|2,1:2|1:2,0:0:0:0:
152,113,29666,1,2,1:2:0:0:
222,56,29991,2,0,B|289:42|294:85|365:70,1,134.999995880127,8|2,0:0|0:0,0:0:0:0:
393,94,30639,6,0,P|446:79|484:95,1,89.9999972534181,6|2,1:2|1:2,0:0:0:0:
512,173,31288,1,10,0:0:0:0:
459,246,31612,2,0,L|414:239,1,44.999998626709,2|2,0:0|0:0,0:0:0:0:
381,209,31937,1,0,1:0:0:0:
294,231,32261,2,0,L|286:278,1,44.999998626709,2|2,0:0|1:2,0:0:0:0:
256,308,32585,2,0,P|187:293|157:306,1,89.9999972534181,8|10,0:0|0:0,0:0:0:0:
80,292,33234,6,0,L|72:247,1,44.999998626709,2|2,1:2|1:2,0:0:0:0:
103,214,33558,1,2,1:2:0:0:
69,130,33883,2,0,P|105:107|192:135,1,134.999995880127,8|2,0:0|0:0,0:0:0:0:
222,160,34531,2,0,L|266:152,1,44.999998626709,2|2,1:2|1:2,0:0:0:0:
300,183,34856,1,2,1:2:0:0:
375,133,35180,2,0,B|383:82|383:82|372:48|372:48|379:0,1,134.999995880127,8|2,0:0|0:0,0:0:0:0:
424,0,35829,6,0,L|513:14,1,89.9999972534181,2|2,1:2|1:2,0:0:0:0:
462,88,36477,1,8,0:0:0:0:
512,163,36801,2,0,L|501:226,1,44.999998626709,2|2,0:0|0:0,0:0:0:0:
459,207,37126,6,0,B|472:286|472:286|477:289|477:289|493:396,2,179.999994506836,14|14|10,0:0|0:0|0:2,0:0:0:0:
393,146,38747,1,10,0:2:0:0:
256,311,39720,5,10,0:0:0:0:
173,347,40045,2,0,L|128:339,1,44.999998626709,10|10,0:0|0:0,0:0:0:0:
86,324,40369,2,0,L|34:332,2,44.999998626709,8|8|8,0:0|0:3|0:3,0:0:0:0:
88,234,41018,6,0,P|95:161|84:147,1,89.9999972534181,6|2,1:2|1:2,0:0:0:0:
136,75,41666,2,0,L|230:90,1,89.9999972534181,10|2,0:0|0:0,0:0:0:0:
299,38,42315,2,0,P|372:31|386:42,1,89.9999972534181,2|2,1:2|1:2,0:0:0:0:
415,67,42801,1,2,0:0:0:0:
467,140,43126,2,0,L|456:203,1,44.999998626709,2|10,1:2|0:0,0:0:0:0:
377,219,43612,6,0,P|370:292|381:306,1,89.9999972534181,6|2,1:2|0:3,0:0:0:0:
302,351,44261,2,0,L|207:335,1,89.9999972534181,10|2,2:2|0:3,0:0:0:0:
124,352,44910,2,0,L|107:246,1,89.9999972534181,2|2,1:2|0:0,0:0:0:0:
134,225,45396,1,2,1:2:0:0:
202,166,45720,2,0,L|296:181,1,89.9999972534181,2|8,1:2|0:0,0:0:0:0:
336,175,46207,6,0,L|321:86,1,89.9999972534181,6|2,1:2|0:3,0:0:0:0:
358,4,46856,2,0,P|313:-5|260:9,1,89.9999972534181,10|2,2:2|0:3,0:0:0:0:
190,48,47504,5,14,0:0:0:0:
100,44,47829,1,14,0:0:0:0:
142,129,48153,1,8,2:0:0:0:
142,129,48315,2,0,L|126:223,1,89.9999972534181,8|8,0:0|0:0,0:0:0:0:
156,258,48801,6,0,B|208:249|208:249|213:251|213:251|260:243,1,100,4|8,1:2|0:0,0:0:0:0:
329,311,49450,2,0,L|392:300,1,50,2|0,1:2|1:0,0:0:0:0:
428,300,49774,1,8,2:0:0:0:
502,232,50099,2,0,P|513:163|492:133,1,100,2|8,1:2|0:0,0:0:0:0:
406,101,50747,2,0,L|356:108,1,50,2|0,1:2|1:0,0:0:0:0:
315,137,51072,1,8,2:0:0:0:
222,98,51396,6,0,L|239:-12,1,100,2|10,1:2|2:2,0:0:0:0:
140,26,52045,2,0,L|76:15,1,50,2|0,1:2|1:0,0:0:0:0:
46,41,52369,2,0,P|25:85|49:148,1,100,10|0,2:0|1:0,0:0:0:0:
119,189,53018,1,8,2:0:0:0:
201,133,53342,2,0,L|264:143,1,50,0|0,1:0|1:0,0:0:0:0:
299,151,53666,1,8,2:0:0:0:
380,209,53991,6,0,L|362:319,1,100,2|8,1:2|0:0,0:0:0:0:
270,341,54639,2,0,L|206:330,1,50,2|0,1:2|1:0,0:0:0:0:
170,329,54964,1,8,2:0:0:0:
77,366,55288,2,0,L|61:267,1,100,2|8,1:2|0:0,0:0:0:0:
0,190,55937,2,0,L|10:126,1,50,2|0,1:2|1:0,0:0:0:0:
46,109,56261,1,8,2:0:0:0:
126,49,56585,6,0,P|201:39|226:57,1,100,2|10,1:2|2:2,0:0:0:0:
287,122,57234,2,0,L|336:114,1,50,2|0,1:2|1:0,0:0:0:0:
381,134,57558,1,10,2:0:0:0:
381,134,57720,2,0,L|363:244,1,100,6|0,1:2|1:0,0:0:0:0:
395,273,58207,1,8,2:0:0:0:
340,357,58531,2,0,B|302:325|260:328|260:328|234:356|199:359,1,150,0|8,1:0|2:0,0:0:0:0:
168,324,59180,6,0,L|185:213,1,100,4|8,1:2|0:0,0:0:0:0:
157,128,59829,2,0,L|107:135,1,50,2|0,1:2|1:0,0:0:0:0:
58,141,60153,1,8,2:0:0:0:
99,50,60477,2,0,P|168:32|210:48,1,100,2|8,1:2|0:0,0:0:0:0:
273,100,61126,2,0,L|322:92,1,50,2|0,1:2|1:0,0:0:0:0:
367,114,61450,1,8,2:0:0:0:
466,105,61774,6,0,L|448:215,1,100,2|10,1:2|2:2,0:0:0:0:
359,246,62423,2,0,L|366:295,1,50,2|0,1:2|1:0,0:0:0:0:
330,330,62747,2,0,P|262:308|224:321,1,100,10|0,2:0|1:0,0:0:0:0:
144,354,63396,1,8,2:0:0:0:
61,307,63720,1,0,1:0:0:0:
61,307,63882,2,0,L|71:243,1,50,2|8,1:2|2:0,0:0:0:0:
33,221,64207,1,2,0:0:0:0:
33,221,64369,6,0,L|15:110,1,100,0|8,1:2|0:0,0:0:0:0:
99,64,65018,2,0,L|162:74,1,50,2|0,1:2|1:0,0:0:0:0:
197,81,65342,1,8,2:0:0:0:
271,147,65666,2,0,L|255:245,1,100,2|8,1:2|0:0,0:0:0:0:
336,305,66315,2,0,L|439:290,1,100,2|8,1:2|2:0,0:0:0:0:
467,252,66801,1,2,0:0:0:0:
467,252,66964,5,0,1:2:0:0:
412,168,67288,2,0,L|313:182,1,100,10|2,2:2|1:2,0:0:0:0:
215,159,67937,1,10,2:0:0:0:
129,212,68261,2,0,P|111:256|132:308,1,100,2|10,1:2|2:0,0:0:0:0:
220,340,68910,1,10,0:0:0:0:
220,340,69072,2,0,P|270:322|321:337,1,100,10|10,0:3|0:3,0:0:0:0:
361,316,69558,6,0,B|369:263|369:263|367:258|367:258|375:211,1,100,4|8,1:2|0:0,0:0:0:0:
462,170,70207,2,0,L|451:106,1,50,2|0,1:2|1:0,0:0:0:0:
446,71,70531,1,8,2:0:0:0:
363,14,70856,2,0,P|288:-1|255:14,1,100,2|8,1:2|0:0,0:0:0:0:
224,96,71504,2,0,L|234:159,1,50,2|0,1:2|1:0,0:0:0:0:
223,194,71829,1,8,2:0:0:0:
305,249,72153,6,0,P|319:308|293:353,1,100,2|10,1:2|2:2,0:0:0:0:
204,325,72801,2,0,L|155:333,1,50,2|0,1:2|1:0,0:0:0:0:
113,304,73126,2,0,L|128:205,1,100,10|0,2:0|1:0,0:0:0:0:
68,125,73774,1,8,2:0:0:0:
151,69,74099,2,0,L|214:79,1,50,0|0,1:0|1:0,0:0:0:0:
250,82,74423,1,8,2:0:0:0:
347,61,74747,6,0,L|329:171,1,100,2|8,1:2|0:0,0:0:0:0:
388,243,75396,2,0,L|437:235,1,50,2|0,1:2|1:0,0:0:0:0:
479,262,75720,1,8,2:0:0:0:
424,346,76045,2,0,P|356:358|321:336,1,100,2|8,1:2|0:0,0:0:0:0:
274,262,76693,2,0,L|284:198,1,50,2|0,1:2|1:0,0:0:0:0:
263,166,77018,1,8,2:0:0:0:
197,90,77342,6,0,B|150:75|150:75|91:91,1,100,2|10,1:2|2:2,0:0:0:0:
22,150,77991,2,0,L|32:213,1,50,2|0,1:2|1:0,0:0:0:0:
68,230,78315,1,10,2:0:0:0:
68,230,78477,2,0,L|50:340,1,100,6|0,1:2|1:0,0:0:0:0:
86,365,78964,1,8,2:0:0:0:
172,314,79288,2,0,B|254:297|248:352|328:335,1,150,0|8,1:0|2:0,0:0:0:0:
359,310,79937,6,0,L|343:211,1,100,4|8,1:2|0:0,0:0:0:0:
430,162,80585,2,0,L|440:98,1,50,2|0,1:2|1:0,0:0:0:0:
402,76,80910,1,8,2:0:0:0:
319,19,81234,2,0,P|267:2|211:22,1,100,2|8,1:2|0:0,0:0:0:0:
163,92,81883,2,0,L|170:141,1,50,2|0,1:2|1:0,0:0:0:0:
182,189,82207,1,8,2:0:0:0:
268,239,82531,6,0,P|287:280|270:339,1,100,2|10,1:2|2:2,0:0:0:0:
184,290,83180,2,0,L|134:297,1,50,2|0,1:2|1:0,0:0:0:0:
87,280,83504,2,0,L|104:169,1,100,10|0,2:0|1:0,0:0:0:0:
46,98,84153,1,8,2:0:0:0:
137,57,84477,1,0,1:0:0:0:
137,57,84639,2,0,L|200:67,1,50,2|8,1:2|2:0,0:0:0:0:
228,101,84964,1,2,0:0:0:0:
228,101,85126,6,0,L|326:85,1,100,0|8,1:2|0:0,0:0:0:0:
407,146,85774,2,0,L|396:209,1,50,2|0,1:2|1:0,0:0:0:0:
427,236,86099,1,8,2:0:0:0:
347,296,86423,2,0,L|220:275,1,100,2|8,1:2|0:0,0:0:0:0:
148,293,87072,2,0,L|165:182,1,100,2|8,1:2|2:0,0:0:0:0:
214,180,87558,1,2,0:0:0:0:
214,180,87720,5,0,1:2:0:0:
160,95,88045,2,0,L|61:110,1,100,10|2,2:2|1:2,0:0:0:0:
21,202,88693,1,10,2:0:0:0:
118,226,89018,2,0,L|135:336,2,100,2|8|2,1:3|0:0|1:3,0:0:0:0:
151,188,89829,6,0,L|214:198,2,50,8|8|8,0:0|0:0|0:0,0:0:0:0:
