osu file format v14

[General]
AudioFilename: audio.mp3
AudioLeadIn: 0
PreviewTime: 48720
Countdown: 0
SampleSet: Soft
StackLeniency: 0.7
Mode: 0
LetterboxInBreaks: 0
WidescreenStoryboard: 1

[Editor]
Bookmarks: 22862,48807,69564
DistanceSpacing: 1.1
BeatDivisor: 4
GridSize: 8
TimelineZoom: 1.850002

[Metadata]
Title:forever we can make it! (TV Size)
TitleUnicode:forever we can make it! (TV Size)
Artist:THYME
ArtistUnicode:THYME
Creator:Kudosu
Version:Kudowari's Expert
Source:To LOVEる -とらぶる-
Tags:to love ru trouble opening op 1 sayaka kamiyama japanese rock j-rock anime kowari soop so0p
BeatmapID:2598843
BeatmapSetID:1250456

[Difficulty]
HPDrainRate:5.7
CircleSize:4
OverallDifficulty:8.5
ApproachRate:9.2
SliderMultiplier:1.8
SliderTickRate:1

[Events]
//Background and Video events
0,0,"to love ru bg.jpg",0,0
//Break Periods
//Storyboard Layer 0 (Background)
//Storyboard Layer 1 (Fail)
//Storyboard Layer 2 (Pass)
//Storyboard Layer 3 (Foreground)
//Storyboard Layer 4 (Overlay)
//Storyboard Sound Samples

[TimingPoints]
802,324.324324324324,4,2,1,70,1,0
1653,297.029702970297,4,2,1,70,1,0
2099,324.324324324324,4,2,1,70,1,0
2099,-100,4,2,1,70,0,0
7288,-125,4,2,1,55,0,0
17666,-111.111111111111,4,2,1,60,0,0
28045,-125,4,2,1,55,0,0
37126,-125,4,2,1,65,0,0
37288,-95.2380952380952,4,2,1,65,0,0
40531,-133.333333333333,4,2,1,65,0,0
41018,-125,4,2,1,55,0,0
43612,-111.111111111111,4,2,1,65,0,0
47504,-95.2380952380952,4,2,1,75,0,0
48801,-90.9090909090909,4,2,1,75,0,1
67936,-90.9090909090909,4,2,1,75,0,0
69558,-90.9090909090909,4,2,1,75,0,1
89017,-90.9090909090909,4,2,1,75,0,0

[Colours]
Combo1 : 248,235,165
Combo2 : 241,120,120
Combo3 : 184,216,239
Combo4 : 243,150,194

[HitObjects]
158,268,1653,5,8,0:0:0:0:
332,156,1801,1,8,0:0:0:0:
107,87,1950,1,8,0:0:0:0:
282,272,2099,6,0,P|315:220|439:239,1,180,6|8,1:2|0:0,0:0:0:0:
270,90,2585,1,0,0:0:0:0:
401,14,2747,2,0,P|381:77|373:120,1,90,2|0,1:2|1:0,0:0:0:0:
512,247,3072,1,8,0:0:0:0:
480,91,3234,1,0,0:0:0:0:
328,225,3396,6,0,P|238:193|151:175,1,180,2|8,1:2|0:0,0:0:0:0:
2,309,3883,1,0,1:0:0:0:
39,149,4045,2,0,P|61:215|70:256,1,90,2|0,0:0|1:0,0:0:0:0:
145,63,4369,1,8,0:0:0:0:
2,22,4531,1,2,0:0:0:0:
155,175,4693,6,0,P|208:159|238:122,1,90,0|0,1:0|0:0,0:0:0:0:
407,181,5018,2,0,P|416:120|364:61,1,135,10|0,2:0|0:0,0:0:0:0:
340,61,5342,1,0,1:0:0:0:
482,238,5504,1,0,1:0:0:0:
307,192,5666,1,8,2:0:0:0:
486,43,5829,6,0,P|447:109|436:145,1,90,0|0,0:0|1:0,0:0:0:0:
415,340,6153,1,0,0:0:0:0:
304,166,6315,1,8,0:0:0:0:
504,250,6477,1,0,1:0:0:0:
290,348,6639,1,0,0:0:0:0:
417,123,6801,5,8,2:0:0:0:
482,376,6964,1,8,2:0:0:0:
305,188,7126,1,8,2:0:0:0:
280,363,7288,6,0,P|228:375|152:294,1,144,6|10,1:2|0:0,0:0:0:0:
69,231,7774,2,0,P|58:285|50:321,1,72,2|0,0:0|1:0,0:0:0:0:
180,216,8099,1,2,1:2:0:0:
180,216,8261,2,0,P|172:180|165:145,1,72,10|2,2:2|0:0,0:0:0:0:
254,2,8585,5,2,1:2:0:0:
97,32,8747,2,0,P|152:48|185:61,1,72,2|8,0:0|2:0,0:0:0:0:
370,101,9072,2,0,P|324:92|256:171,1,144,2|2,1:2|1:2,0:0:0:0:
363,258,9558,2,0,P|353:199|343:171,1,72,10|0,2:2|0:0,0:0:0:0:
293,346,9883,6,0,P|342:356|384:368,1,72,2|0,1:2|0:0,0:0:0:0:
512,282,10207,2,0,P|477:290|441:297,1,72,10|0,0:0|0:0,0:0:0:0:
308,148,10531,1,2,1:2:0:0:
465,207,10693,1,2,1:2:0:0:
346,274,10856,1,8,2:0:0:0:
377,65,11018,6,0,P|394:117|402:151,1,72,2|0,0:0|1:0,0:0:0:0:
234,264,11342,1,0,0:0:0:0:
285,120,11504,1,8,2:0:0:0:
397,242,11666,2,0,P|333:220|304:214,1,72,0|2,1:0|0:3,0:0:0:0:
179,145,11991,1,0,1:0:0:0:
179,145,12072,1,0,1:0:0:0:
179,145,12153,2,0,B|223:133|261:119,1,72,8|0,2:0|0:0,0:0:0:0:
42,60,12477,6,0,P|75:181|83:224,1,144,6|10,1:2|0:0,0:0:0:0:
166,326,12964,2,0,P|179:271|188:243,1,72,2|0,0:0|1:0,0:0:0:0:
251,141,13288,1,2,1:2:0:0:
251,141,13450,2,0,P|199:155|159:172,1,72,10|2,2:2|0:0,0:0:0:0:
358,190,13774,5,2,1:2:0:0:
303,312,13937,2,0,P|282:258|274:221,1,72,2|8,0:0|2:0,0:0:0:0:
448,146,14261,2,0,P|362:148|324:80,1,144,2|2,1:2|1:2,0:0:0:0:
443,39,14747,2,0,P|498:53|523:62,1,72,10|2,2:2|0:0,0:0:0:0:
328,107,15072,6,0,P|318:52|310:22,1,72,2|0,1:2|0:0,0:0:0:0:
448,146,15396,2,0,P|439:181|434:216,1,72,10|0,0:0|0:0,0:0:0:0:
457,369,15720,1,2,1:2:0:0:
338,252,15883,1,2,1:2:0:0:
502,289,16045,1,8,2:0:0:0:
357,363,16207,6,0,P|299:348|258:342,1,72,2|0,0:0|1:0,0:0:0:0:
159,273,16531,1,0,0:0:0:0:
159,273,16612,1,0,0:0:0:0:
159,273,16693,2,0,P|201:261|237:254,1,72,8|0,2:0|1:0,0:0:0:0:
335,164,17018,1,2,0:1:0:0:
170,64,17180,1,0,1:0:0:0:
243,162,17342,2,0,P|255:102|262:61,1,72,8|0,2:2|0:0,0:0:0:0:
72,0,17666,6,0,P|82:88|103:174,1,161.999995056153,6|10,1:2|0:0,0:0:0:0:
266,52,18153,2,0,P|195:66|154:79,1,80.9999975280763,2|0,0:0|1:0,0:0:0:0:
37,236,18477,1,2,1:2:0:0:
201,187,18639,1,10,2:2:0:0:
27,88,18801,1,2,0:0:0:0:
138,297,18964,5,2,1:2:0:0:
138,297,19126,2,0,P|175:273|229:275,1,80.9999975280763,2|8,0:0|2:0,0:0:0:0:
375,202,19450,2,0,P|311:183|281:126,1,121.499996292114,2|0,1:2|0:0,0:0:0:0:
286,101,19774,1,2,1:2:0:0:
467,194,19937,1,10,2:2:0:0:
312,294,20099,1,2,0:0:0:0:
382,105,20261,6,0,P|395:51|403:12,1,80.9999975280763,2|2,1:2|0:0,0:0:0:0:
472,227,20585,2,0,P|480:266|490:305,1,80.9999975280763,10|2,0:2|0:0,0:0:0:0:
273,384,20910,1,2,1:2:0:0:
345,196,21072,1,2,1:2:0:0:
382,326,21234,1,8,2:2:0:0:
230,211,21396,5,2,1:2:0:0:
230,211,21477,1,0,1:0:0:0:
230,211,21558,2,0,P|181:197|128:189,1,80.9999975280763,0|0,1:0|0:0,0:0:0:0:
38,321,21883,2,0,P|87:307|140:299,1,80.9999975280763,10|0,2:0|1:0,0:0:0:0:
183,78,22207,1,2,0:0:0:0:
42,223,22369,1,2,1:2:0:0:
0,13,22531,1,8,2:0:0:0:
148,179,22693,5,2,1:2:0:0:
148,179,22774,1,0,1:0:0:0:
148,179,22856,2,0,P|172:139|294:127,1,161.999995056153,4|10,1:2|0:0,0:0:0:0:
364,91,23342,1,0,0:0:0:0:
250,281,23504,2,0,P|246:241|239:202,1,80.9999975280763,0|0,1:0|1:0,0:0:0:0:
342,285,23829,1,8,2:0:0:0:
177,337,23991,6,0,P|137:330|96:324,1,80.9999975280763,0|0,0:0|1:0,0:0:0:0:
28,224,24315,1,0,0:0:0:0:
160,163,24477,2,0,P|152:201|144:258,1,80.9999975280763,8|0,2:0|1:0,0:0:0:0:
54,60,24801,2,0,P|62:99|69:140,1,80.9999975280763,0|0,0:0|1:0,0:0:0:0:
250,190,25126,2,0,P|297:154|357:158,1,121.499996292114,8|0,2:0|0:0,0:0:0:0:
440,102,25450,6,0,P|447:141|458:180,1,80.9999975280763,0|0,1:2|0:0,0:0:0:0:
312,322,25774,2,0,P|317:281|326:242,1,80.9999975280763,8|0,0:0|0:0,0:0:0:0:
294,123,26099,1,0,1:0:0:0:
410,287,26261,1,0,1:0:0:0:
170,203,26423,2,0,P|211:198|250:189,1,80.9999975280763,12|0,2:0|0:0,0:0:0:0:
104,384,26747,5,12,1:2:0:0:
12,186,26910,1,8,0:0:0:0:
188,306,27072,1,8,0:0:0:0:
202,65,27234,1,8,0:0:0:0:
86,273,27396,5,8,0:0:0:0:
355,185,27558,1,10,0:0:0:0:
103,100,27720,1,10,0:0:0:0:
284,352,27883,1,10,0:0:0:0:
450,164,28045,6,0,P|443:123|437:84,1,72,6|2,1:2|1:2,0:0:0:0:
271,215,28369,2,0,P|341:208|398:250,1,144,2|8,1:2|0:0,0:0:0:0:
223,106,28856,1,2,0:0:0:0:
223,106,29018,2,0,P|231:62|234:34,1,72,2|2,0:0|0:0,0:0:0:0:
97,0,29342,6,0,P|103:35|108:71,1,72,2|2,1:2|1:2,0:0:0:0:
0,155,29666,2,0,B|51:164|51:164|82:154|82:154|140:166,1,144,2|8,1:2|0:0,0:0:0:0:
245,211,30153,1,2,0:0:0:0:
245,211,30315,2,0,P|277:227|312:226,1,72,2|2,0:0|0:0,0:0:0:0:
426,302,30639,6,0,P|417:218|474:164,2,144,6|2|8,1:2|1:2|0:0,0:0:0:0:
297,100,31612,2,0,P|305:56|308:28,1,72,2|2,0:0|0:0,0:0:0:0:
200,140,31936,6,0,P|208:176|212:211,1,72,0|8,1:0|2:0,0:0:0:0:
61,287,32261,1,2,0:0:0:0:
110,195,32423,1,2,1:2:0:0:
276,348,32585,2,0,L|204:336,1,72,8|2,0:0|1:2,0:0:0:0:
188,347,32829,1,2,0:0:0:0:
188,347,32910,1,10,0:0:0:0:
325,256,33072,1,2,0:0:0:0:
399,384,33234,6,0,L|411:312,1,72,2|2,1:2|1:2,0:0:0:0:
340,153,33558,2,0,B|280:134|255:189|196:168,1,144,2|8,1:2|0:0,0:0:0:0:
84,126,34045,1,2,0:0:0:0:
84,126,34207,2,0,P|90:155|95:197,1,72,2|2,0:0|0:0,0:0:0:0:
171,72,34531,6,0,P|175:36|182:0,1,72,2|2,1:2|1:2,0:0:0:0:
290,222,34856,2,0,P|346:180|416:187,1,144,2|8,1:2|0:0,0:0:0:0:
448,298,35342,1,2,0:0:0:0:
448,298,35504,2,0,L|353:282,1,72,2|2,0:0|0:0,0:0:0:0:
201,320,35829,6,0,P|190:233|175:161,2,144,2|2|8,1:2|1:2|0:0,0:0:0:0:
267,119,36801,2,0,P|272:78|282:24,1,72,2|2,0:0|0:0,0:0:0:0:
76,197,37126,5,14,0:0:0:0:
223,289,37288,2,0,B|294:277|294:277|337:295|337:295|416:282,1,188.999994232178,2|2,0:0|0:0,0:0:0:0:
78,362,37774,1,14,0:0:0:0:
245,204,37937,1,2,0:0:0:0:
245,204,38018,1,2,0:0:0:0:
245,204,38099,1,2,0:0:0:0:
54,112,38261,1,2,0:0:0:0:
334,66,38423,6,0,P|326:112|320:159,1,94.499997116089,10|2,0:2|0:0,0:0:0:0:
99,37,38747,2,0,P|150:31|192:22,1,94.499997116089,10|0,0:2|0:0,0:0:0:0:
259,296,39720,6,0,P|253:247|244:202,1,94.499997116089,10|2,0:2|0:0,0:0:0:0:
429,74,40045,2,0,P|419:120|414:167,1,94.499997116089,10|8,0:2|0:0,0:0:0:0:
423,180,40288,1,8,0:0:0:0:
423,180,40369,1,8,0:0:0:0:
305,90,40531,6,0,P|297:40|312:15,2,67.5000025749208,8|8|8,0:0|0:3|0:3,0:0:0:0:
170,139,41018,6,0,P|113:97|43:104,2,144,6|2|10,1:2|1:2|0:0,0:0:0:0:
85,294,41991,2,0,P|81:258|75:223,1,72,2|0,0:0|0:0,0:0:0:0:
278,120,42315,6,0,P|271:155|267:191,1,72,2|0,1:2|1:2,0:0:0:0:
353,290,42639,1,2,1:2:0:0:
422,195,42801,1,2,0:0:0:0:
246,319,42964,2,0,P|210:314|174:308,1,72,10|2,0:0|1:2,0:0:0:0:
28,369,43288,1,10,0:0:0:0:
225,212,43450,1,2,0:0:0:0:
50,36,43612,6,0,P|63:110|77:209,1,161.999995056153,6|2,1:2|0:3,0:0:0:0:
7,262,44099,1,0,1:2:0:0:
164,124,44261,2,0,B|227:113|227:113|270:131|270:131|325:122,1,161.999995056153,10|2,2:2|0:3,0:0:0:0:
199,287,44910,6,0,L|212:207,1,80.9999975280763,2|8,1:2|2:2,0:0:0:0:
73,94,45234,1,2,0:0:0:0:
96,207,45396,1,0,1:0:0:0:
231,58,45558,1,8,2:3:0:0:
0,170,45720,2,0,P|13:244|27:343,1,161.999995056153,2|8,1:2|0:0,0:0:0:0:
309,128,46207,6,0,P|336:77|299:-20,1,161.999995056153,6|2,1:2|0:3,0:0:0:0:
437,59,46693,1,0,1:2:0:0:
229,210,46856,2,0,B|191:175|151:170|151:170|120:199|81:193,1,161.999995056153,10|2,2:2|0:3,0:0:0:0:
329,271,47504,6,0,P|377:262|426:256,1,94.499997116089,14|0,0:0|0:0,0:0:0:0:
105,154,47829,1,14,0:0:0:0:
311,29,47991,1,2,0:0:0:0:
251,178,48153,6,0,L|239:130,1,47.2499985580445,8|0,0:0|0:0,0:0:0:0:
459,203,48315,1,8,0:0:0:0:
459,203,48396,1,8,0:0:0:0:
459,203,48477,2,0,L|447:251,1,47.2499985580445,8|8,0:0|0:0,0:0:0:0:
285,384,48639,1,8,0:0:0:0:
285,384,48720,1,8,0:0:0:0:
285,384,48801,6,0,P|210:318|110:355,1,198.000006042481,4|8,1:2|0:0,0:0:0:0:
257,201,49288,1,8,2:3:0:0:
257,201,49369,1,8,0:0:0:0:
257,201,49450,1,2,1:2:0:0:
51,78,49612,1,8,2:3:0:0:
135,235,49774,2,0,P|155:158|163:117,1,99.0000030212403,8|0,2:0|0:0,0:0:0:0:
295,9,50099,6,0,P|328:162|347:228,1,198.000006042481,2|8,1:2|0:0,0:0:0:0:
415,74,50585,1,8,0:3:0:0:
415,74,50666,1,8,0:0:0:0:
415,74,50747,1,2,1:2:0:0:
240,187,50910,1,8,2:3:0:0:
423,290,51072,2,0,B|431:228|445:174,1,99.0000030212403,8|0,2:0|0:0,0:0:0:0:
279,321,51396,6,0,P|230:266|142:288,1,148.50000453186,2|0,1:2|0:0,0:0:0:0:
130,258,51720,2,0,B|151:320|161:366,1,99.0000030212403,10|0,2:2|0:0,0:0:0:0:
213,154,52045,1,2,1:2:0:0:
36,298,52207,1,8,2:3:0:0:
259,331,52369,1,10,2:0:0:0:
105,148,52531,5,8,0:3:0:0:
105,148,52612,1,8,0:3:0:0:
105,148,52693,2,0,P|47:132|-8:123,1,99.0000030212403,0|0,1:0|0:0,0:0:0:0:
241,72,53018,1,8,2:0:0:0:
134,273,53180,1,8,0:3:0:0:
134,273,53261,1,8,2:3:0:0:
134,273,53342,1,0,1:0:0:0:
69,31,53504,1,8,2:3:0:0:
258,196,53666,1,8,2:0:0:0:
9,256,53829,1,0,0:0:0:0:
194,58,53991,6,0,P|249:5|381:62,1,198.000006042481,2|8,1:2|0:0,0:0:0:0:
508,207,54477,1,8,0:3:0:0:
508,207,54558,1,8,0:0:0:0:
508,207,54639,1,2,1:2:0:0:
299,123,54801,1,8,2:3:0:0:
467,12,54964,2,0,P|446:88|439:124,1,99.0000030212403,8|0,2:0|0:0,0:0:0:0:
512,318,55288,6,0,P|393:290|298:273,1,198.000006042481,2|8,1:2|0:0,0:0:0:0:
188,111,55774,1,8,0:3:0:0:
188,111,55856,1,8,0:0:0:0:
188,111,55937,1,2,1:2:0:0:
371,202,56099,1,8,2:3:0:0:
209,322,56261,2,0,P|228:245|241:206,1,99.0000030212403,8|0,2:0|0:0,0:0:0:0:
119,27,56585,6,0,P|57:53|57:140,1,148.50000453186,2|0,1:2|0:0,0:0:0:0:
73,149,56910,2,0,P|151:131|188:125,1,99.0000030212403,10|0,2:2|0:0,0:0:0:0:
333,295,57234,1,2,1:2:0:0:
129,247,57396,1,8,2:3:0:0:
359,126,57558,1,10,2:0:0:0:
195,353,57720,6,0,P|153:291|27:326,1,198.000006042481,6|0,1:2|1:0,0:0:0:0:
213,210,58207,2,0,P|231:164|246:116,1,99.0000030212403,8|0,2:0|0:0,0:0:0:0:
66,178,58531,1,0,1:0:0:0:
148,14,58693,5,8,2:0:0:0:
148,14,58774,1,8,2:0:0:0:
148,14,58856,2,0,P|158:53|165:88,1,49.5000015106202,8|8,2:0|2:0,0:0:0:0:
338,201,59018,2,0,P|343:176|349:152,1,49.5000015106202,8|8,2:0|2:0,0:0:0:0:
466,93,59180,6,0,P|401:116|306:33,1,198.000006042481,4|8,1:2|0:0,0:0:0:0:
161,275,59666,1,8,0:3:0:0:
161,275,59747,1,8,0:0:0:0:
161,275,59829,1,2,1:2:0:0:
338,201,59991,1,8,2:3:0:0:
200,79,60153,2,0,P|217:132|233:203,1,99.0000030212403,8|0,2:0|0:0,0:0:0:0:
34,364,60477,6,0,P|61:269|78:171,1,198.000006042481,2|8,1:2|0:0,0:0:0:0:
241,15,60964,1,8,0:3:0:0:
241,15,61045,1,8,0:0:0:0:
241,15,61126,1,2,1:2:0:0:
172,228,61288,1,8,2:3:0:0:
24,68,61450,2,0,P|99:84|143:97,1,99.0000030212403,8|0,2:0|0:0,0:0:0:0:
272,249,61774,6,0,P|212:241|168:326,1,148.50000453186,2|0,1:2|0:0,0:0:0:0:
182,345,62099,2,0,P|266:327|301:323,1,99.0000030212403,10|0,2:2|0:0,0:0:0:0:
463,190,62423,1,2,1:2:0:0:
384,375,62585,1,8,2:3:0:0:
289,150,62747,1,10,2:0:0:0:
494,285,62910,5,8,0:3:0:0:
494,285,62991,1,8,0:3:0:0:
494,285,63072,2,0,P|421:271|378:266,1,99.0000030212403,0|0,1:0|0:0,0:0:0:0:
202,139,63396,1,8,2:0:0:0:
428,64,63558,1,8,0:3:0:0:
428,64,63639,1,8,2:3:0:0:
428,64,63720,1,0,1:0:0:0:
295,255,63883,1,8,2:3:0:0:
297,31,64045,2,0,P|317:98|329:149,1,99.0000030212403,8|2,2:0|0:0,0:0:0:0:
185,289,64369,6,0,P|134:226|17:242,1,198.000006042481,0|8,1:2|0:0,0:0:0:0:
213,142,64856,1,8,0:3:0:0:
213,142,64937,1,8,0:0:0:0:
213,142,65018,1,2,1:2:0:0:
90,316,65180,1,8,2:3:0:0:
48,109,65342,2,0,P|29:45|16:3,1,99.0000030212403,8|0,2:0|0:0,0:0:0:0:
172,211,65666,6,0,P|211:149|345:163,1,198.000006042481,2|8,1:2|0:0,0:0:0:0:
485,288,66153,1,8,0:3:0:0:
485,288,66234,1,8,0:0:0:0:
485,288,66315,1,2,1:2:0:0:
274,237,66477,1,8,2:3:0:0:
470,140,66639,1,8,2:0:0:0:
404,362,66801,5,8,2:3:0:0:
404,362,66883,1,8,2:3:0:0:
404,362,66964,2,0,P|392:290|385:237,1,99.0000030212403,0|0,1:2|0:0,0:0:0:0:
271,94,67288,2,0,P|263:142|255:191,1,99.0000030212403,10|0,2:2|0:0,0:0:0:0:
94,346,67612,1,2,1:2:0:0:
294,276,67774,1,8,2:3:0:0:
76,154,67937,1,10,2:0:0:0:
200,355,68099,5,8,0:3:0:0:
200,355,68180,1,8,0:3:0:0:
200,355,68261,2,0,L|189:294,1,49.5000015106202,2|8,1:2|0:3,0:0:0:0:
97,174,68423,1,8,0:0:0:0:
97,174,68504,1,8,0:0:0:0:
97,174,68585,2,0,L|86:235,1,49.5000015106202,10|8,2:0|0:3,0:0:0:0:
11,355,68747,2,0,L|84:339,1,49.5000015106202,8|8,0:3|0:3,0:0:0:0:
234,169,68910,5,10,0:0:0:0:
260,153,68991,1,8,0:0:0:0:
290,145,69072,1,10,0:3:0:0:
321,144,69153,1,8,0:2:0:0:
351,152,69234,1,8,0:2:0:0:
378,167,69315,1,8,0:3:0:0:
400,188,69396,1,10,0:3:0:0:
413,216,69477,1,8,0:3:0:0:
409,247,69558,6,0,P|397:196|523:136,1,198.000006042481,4|8,1:2|0:0,0:0:0:0:
318,285,70045,1,8,0:3:0:0:
318,285,70126,1,8,0:0:0:0:
318,285,70207,1,2,1:2:0:0:
439,110,70369,1,8,2:3:0:0:
281,19,70531,2,0,P|292:65|304:128,1,99.0000030212403,8|0,2:0|0:0,0:0:0:0:
0,165,70856,6,0,P|96:184|193:207,1,198.000006042481,2|8,1:2|0:0,0:0:0:0:
65,285,71342,1,8,0:3:0:0:
65,285,71423,1,8,0:0:0:0:
65,285,71504,1,2,1:2:0:0:
178,110,71666,1,8,2:3:0:0:
281,293,71829,2,0,B|219:301|165:315,1,99.0000030212403,8|0,2:0|0:0,0:0:0:0:
394,118,72153,6,0,P|376:190|362:263,1,148.50000453186,2|0,1:2|0:0,0:0:0:0:
410,337,72477,2,0,B|472:345|526:359,1,99.0000030212403,10|0,2:2|0:0,0:0:0:0:
282,168,72801,1,2,1:2:0:0:
497,82,72964,1,8,2:3:0:0:
361,275,73126,1,10,2:0:0:0:
318,78,73288,1,8,0:3:0:0:
318,78,73369,1,8,0:3:0:0:
318,78,73450,6,0,L|336:-31,1,99.0000030212403,0|0,1:0|0:0,0:0:0:0:
157,216,73774,1,8,2:0:0:0:
62,39,73937,1,8,0:3:0:0:
62,39,74018,1,8,2:3:0:0:
62,39,74099,1,0,1:0:0:0:
282,168,74261,1,8,2:3:0:0:
48,294,74423,1,8,2:0:0:0:
202,50,74585,1,0,0:0:0:0:
440,248,74747,6,0,B|336:215|355:298|236:266,1,198.000006042481,2|8,1:2|0:0,0:0:0:0:
46,170,75234,1,8,0:3:0:0:
46,170,75315,1,8,0:0:0:0:
46,170,75396,1,2,1:2:0:0:
161,355,75558,1,8,2:3:0:0:
282,168,75720,2,0,P|236:179|185:188,1,99.0000030212403,8|0,2:0|0:0,0:0:0:0:
429,15,76045,6,0,P|409:103|385:218,1,198.000006042481,2|8,1:2|0:0,0:0:0:0:
172,348,76530,1,8,0:3:0:0:
172,348,76612,1,8,0:0:0:0:
172,348,76693,1,2,1:2:0:0:
282,168,76855,1,8,2:3:0:0:
410,327,77017,2,0,P|333:308|294:295,1,99.0000030212403,8|0,2:0|0:0,0:0:0:0:
69,88,77342,6,0,P|84:152|102:244,1,148.50000453186,2|0,1:2|0:0,0:0:0:0:
83,252,77666,2,0,P|14:240|-38:234,1,99.0000030212403,10|0,2:2|0:0,0:0:0:0:
299,67,77991,1,2,1:2:0:0:
199,228,78153,1,8,2:3:0:0:
54,12,78315,1,10,2:0:0:0:
338,175,78477,6,0,P|305:110|156:130,1,198.000006042481,6|0,1:2|1:0,0:0:0:0:
453,268,78964,2,0,P|457:218|466:170,1,99.0000030212403,8|0,2:0|0:0,0:0:0:0:
314,321,79288,1,0,1:0:0:0:
232,218,79450,5,8,2:0:0:0:
232,218,79531,1,8,2:0:0:0:
232,218,79612,2,0,L|245:155,1,49.5000015106202,8|8,2:0|2:3,0:0:0:0:
78,214,79774,2,0,L|88:262,1,49.5000015106202,8|8,2:0|2:3,0:0:0:0:
21,356,79937,6,0,P|76:303|208:360,1,198.000006042481,4|8,1:2|0:0,0:0:0:0:
327,184,80423,1,8,0:3:0:0:
327,184,80504,1,8,0:0:0:0:
327,184,80585,1,2,1:2:0:0:
159,146,80747,1,8,2:3:0:0:
281,317,80910,2,0,P|329:304|377:296,1,99.0000030212403,8|0,2:0|0:0,0:0:0:0:
363,0,81234,6,0,P|344:83|322:204,1,198.000006042481,2|8,1:2|0:0,0:0:0:0:
447,115,81720,1,8,0:3:0:0:
447,115,81801,1,8,0:0:0:0:
447,115,81882,1,2,1:2:0:0:
248,30,82045,1,8,2:3:0:0:
416,232,82207,2,0,P|461:220|512:211,1,99.0000030212403,8|0,2:0|0:0,0:0:0:0:
316,303,82531,6,0,P|275:264|184:276,1,148.50000453186,2|0,1:2|0:0,0:0:0:0:
170,288,82856,2,0,P|182:333|193:397,1,99.0000030212403,10|0,2:2|0:0,0:0:0:0:
123,172,83180,1,2,1:2:0:0:
54,324,83342,1,8,2:3:0:0:
276,228,83504,1,10,2:0:0:0:
0,129,83666,1,8,0:3:0:0:
0,129,83747,1,8,0:3:0:0:
0,129,83829,6,0,P|10:172|24:246,1,99.0000030212403,0|0,1:0|0:0,0:0:0:0:
231,110,84153,1,8,2:0:0:0:
168,290,84315,1,8,0:3:0:0:
168,290,84396,1,8,2:3:0:0:
168,290,84477,1,0,1:0:0:0:
116,59,84639,1,8,2:3:0:0:
372,248,84801,2,0,L|262:224,1,99.0000030212403,8|2,2:0|0:0,0:0:0:0:
483,114,85126,6,0,B|466:191|466:191|481:235|481:235|466:306,1,198.000006042481,0|8,1:2|0:0,0:0:0:0:
375,123,85612,1,8,0:3:0:0:
375,123,85693,1,8,0:0:0:0:
375,123,85774,1,2,1:2:0:0:
508,278,85937,1,8,2:3:0:0:
294,369,86099,2,0,P|307:312|318:251,1,99.0000030212403,8|0,2:0|0:0,0:0:0:0:
192,155,86423,6,0,P|136:215|11:182,1,198.000006042481,2|8,1:2|0:0,0:0:0:0:
191,35,86910,1,8,0:3:0:0:
191,35,86991,1,8,0:0:0:0:
191,35,87072,1,2,1:2:0:0:
133,259,87234,1,8,2:3:0:0:
0,80,87396,1,8,2:0:0:0:
301,206,87558,1,8,0:3:0:0:
301,206,87639,1,8,0:3:0:0:
301,206,87720,6,0,P|346:195|397:185,1,99.0000030212403,0|0,1:2|0:0,0:0:0:0:
163,348,88045,2,0,P|112:335|45:323,1,99.0000030212403,10|0,2:2|0:0,0:0:0:0:
192,155,88369,1,2,1:2:0:0:
0,274,88531,1,8,2:3:0:0:
262,384,88693,2,0,L|240:282,1,99.0000030212403,10|0,2:0|0:0,0:0:0:0:
285,149,89017,6,0,P|337:109|402:100,1,132.00000402832,2|8,1:3|0:0,0:0:0:0:
444,12,89342,5,8,0:0:0:0:
444,12,89450,6,0,P|481:48|490:83,1,66.0000020141602,8|8,0:0|2:2,0:0:0:0:
500,146,89666,5,2,1:3:0:0:
234,57,89829,5,8,0:0:0:0:
413,208,89991,1,8,0:0:0:0:
130,295,90153,1,8,0:0:0:0:
