osu file format v14

[General]
AudioFilename: audio.mp3
AudioLeadIn: 0
PreviewTime: 75935
Countdown: 0
SampleSet: Soft
StackLeniency: 0.5
Mode: 0
LetterboxInBreaks: 0
WidescreenStoryboard: 0

[Editor]
DistanceSpacing: 1.6
BeatDivisor: 4
GridSize: 16
TimelineZoom: 1.2

[Metadata]
Title:NEVER SAY NEVER
TitleUnicode:NEVER SAY NEVER
Artist:THREE LIGHTS DOWN KINGS
ArtistUnicode:THREE LIGHTS DOWN KINGS
Creator:Akitoshi
Version:Insane
Source:デュラララ!!×2 承
Tags:Durarara!! x2 Shou Ending Corinn _kotachi_
BeatmapID:1419488
BeatmapSetID:664307

[Difficulty]
HPDrainRate:6
CircleSize:4
OverallDifficulty:7.5
ApproachRate:9
SliderMultiplier:1.5
SliderTickRate:1

[Events]
//Background and Video events
0,0,"durarara1.jpg",0,0
//Break Periods
2,160877,167499
//Storyboard Layer 0 (Background)
//Storyboard Layer 1 (Fail)
//Storyboard Layer 2 (Pass)
//Storyboard Layer 3 (Foreground)
//Storyboard Sound Samples

[TimingPoints]
4801,309.278350515464,4,2,5,75,1,0
9749,-142.857142857143,4,2,1,50,0,0
10986,-142.857142857143,4,2,5,50,0,0
11141,-142.857142857143,4,2,1,50,0,0
12223,-100,4,2,5,75,0,0
14388,-83.3333333333333,4,2,5,75,0,0
14620,-83.3333333333333,4,2,5,20,0,0
14697,-100,4,2,5,75,0,0
34491,-142.857142857143,4,2,5,50,0,0
51811,-125,4,2,5,60,0,0
54285,-111.111111111111,4,2,5,75,0,0
64182,-100,4,2,5,75,0,0
69130,-142.857142857143,4,2,5,50,0,0
70368,-142.857142857143,4,2,1,50,0,0
71605,-142.857142857143,4,2,5,50,0,0
72687,-142.857142857143,4,2,1,50,0,0
74079,-111.111111111111,4,2,5,75,0,0
75316,-100,4,2,5,75,0,0
76553,-90.9090909090909,4,2,5,90,0,1
79259,-90.9090909090909,4,2,5,20,0,1
79337,-90.9090909090909,4,2,5,90,0,1
82043,-90.9090909090909,4,2,5,20,0,1
82120,-90.9090909090909,4,2,5,90,0,1
85754,-90.9090909090909,4,2,5,20,0,1
85831,-90.9090909090909,4,2,5,90,0,1
87919,-90.9090909090909,4,2,5,20,0,1
87996,-90.9090909090909,4,2,5,90,0,1
91321,-90.9090909090909,4,2,5,90,0,1
91398,-90.9090909090909,4,2,5,90,0,1
91940,-90.9090909090909,4,2,5,20,0,1
92017,-90.9090909090909,4,2,5,90,0,1
96347,-142.857142857143,4,2,5,60,0,0
98821,-111.111111111111,4,2,5,75,0,0
101218,-111.111111111111,4,2,5,20,0,0
101295,-100,4,2,5,75,0,0
117687,-100,4,2,1,75,0,0
117842,-100,4,2,5,75,0,0
118615,-125,4,2,5,60,0,0
123563,-142.857142857143,4,2,5,60,0,0
128512,-111.111111111111,4,2,5,75,0,0
137172,-100,4,2,5,75,0,0
138409,-90.9090909090909,4,2,5,90,0,1
138950,-90.9090909090909,4,2,5,20,0,1
139027,-90.9090909090909,4,2,5,90,0,1
139878,-90.9090909090909,4,2,5,20,0,1
139955,-90.9090909090909,4,2,5,90,0,1
140806,-90.9090909090909,4,2,5,20,0,1
140883,-90.9090909090909,4,2,5,90,0,1
143280,-90.9090909090909,4,2,5,20,0,1
143357,-90.9090909090909,4,2,5,90,0,1
148538,-90.9090909090909,4,2,5,20,0,1
148615,-90.9090909090909,4,2,5,90,0,1
149775,-90.9090909090909,4,2,5,20,0,1
149852,-90.9090909090909,4,2,5,90,0,1
151940,-90.9090909090909,4,2,5,20,0,1
152017,-90.9090909090909,4,2,5,90,0,1
153177,-90.9090909090909,4,2,5,90,0,1
153254,-90.9090909090909,4,2,5,90,0,1
160368,-142.857142857143,4,2,5,90,0,1
160677,-100,4,2,5,75,0,0
169337,389.61038961039,4,2,5,50,1,0
170895,389.61038961039,4,2,5,75,1,0
170895,-90.9090909090909,4,2,5,75,0,0
177128,-83.3333333333333,4,2,5,75,0,0
183362,309.278350515464,4,2,1,60,1,0
184599,-66.6666666666667,4,2,5,90,0,0
186996,-66.6666666666667,4,2,5,20,0,0
187073,-66.6666666666667,4,2,5,90,0,0
191944,-66.6666666666667,4,2,5,20,0,0
192021,-66.6666666666667,4,2,5,90,0,0
194418,-66.6666666666667,4,2,5,20,0,0
194496,-64.5161290322581,4,2,5,75,0,0
195733,-62.5,4,2,5,90,0,0
196970,-166.666666666667,4,2,5,50,0,0
201454,-166.666666666667,4,2,1,50,0,0
201609,-166.666666666667,4,2,5,50,0,0
201918,-111.111111111111,4,2,5,75,0,0
204392,-142.857142857143,4,2,5,60,0,0
205320,-142.857142857143,4,2,5,20,0,0
205630,-100,4,2,5,75,0,0
206867,-142.857142857143,4,2,1,50,0,0
208104,-90.9090909090909,4,2,5,90,0,1
208645,-90.9090909090909,4,2,5,20,0,1
208722,-90.9090909090909,4,2,5,90,0,1
209573,-90.9090909090909,4,2,5,20,0,1
209650,-90.9090909090909,4,2,5,90,0,1
210501,-90.9090909090909,4,2,5,20,0,1
210578,-90.9090909090909,4,2,5,90,0,1
212975,-90.9090909090909,4,2,5,20,0,1
213052,-90.9090909090909,4,2,5,90,0,1
218233,-90.9090909090909,4,2,5,20,0,1
218310,-90.9090909090909,4,2,5,90,0,1
219470,-90.9090909090909,4,2,5,20,0,1
219547,-90.9090909090909,4,2,5,90,0,1
221635,-90.9090909090909,4,2,5,20,0,1
221712,-90.9090909090909,4,2,5,90,0,1
222872,-90.9090909090909,4,2,5,20,0,1
222949,-90.9090909090909,4,2,5,90,0,1
224727,-90.9090909090909,4,2,5,20,0,1
224805,-90.9090909090909,4,2,5,90,0,1
225423,-83.3333333333333,4,2,5,90,0,1
225655,-83.3333333333333,4,2,5,20,0,1
225733,-83.3333333333333,4,2,5,90,0,1
228130,-83.3333333333333,4,2,5,20,0,1
228207,-83.3333333333333,4,2,5,90,0,1
236789,-83.3333333333333,4,2,5,20,0,1
236867,-83.3333333333333,4,2,5,90,0,1
240191,-83.3333333333333,4,2,5,20,0,1
240269,-83.3333333333333,4,2,5,90,0,1
240810,-83.3333333333333,4,2,5,20,0,1
240887,-83.3333333333333,4,2,5,90,0,1
245217,-100,4,2,5,75,0,0
247691,-90.9090909090909,4,2,5,75,0,0
248929,-83.3333333333333,4,2,5,75,0,0
256351,-83.3333333333333,4,2,5,50,0,0
257588,-83.3333333333333,4,2,5,30,0,0
258825,-83.3333333333333,4,2,5,15,0,0
259444,-83.3333333333333,4,2,5,5,0,0

[Colours]
Combo1 : 255,128,255
Combo2 : 128,128,255
Combo3 : 10,98,245
Combo4 : 242,24,57

[HitObjects]
401,244,4801,6,0,L|313:252,1,75,6|0,0:0|0:0,0:0:0:0:
199,265,5110,1,8,0:0:0:0:
125,201,5264,2,0,B|115:168|116:161|119:123,1,75,2|0,0:0|0:0,0:0:0:0:
216,127,5574,2,0,B|225:93|228:87|249:56,1,75,2|0,0:0|0:0,0:0:0:0:
334,102,5883,6,0,B|357:76|364:74|398:57,1,75,2|0,0:0|0:0,0:0:0:0:
489,77,6192,1,2,0:0:0:0:
430,173,6347,1,8,0:0:0:0:
324,131,6502,1,0,1:0:0:0:
324,131,6579,1,0,1:0:0:0:
324,131,6656,1,8,0:0:0:0:
279,234,6811,1,8,3:0:0:0:
382,276,6965,2,0,L|373:361,1,75,4|0,3:0|0:0,0:0:0:0:
224,370,7275,6,0,L|215:285,1,75,6|0,0:0|0:0,0:0:0:0:
203,168,7584,1,8,0:0:0:0:
109,198,7739,2,0,B|77:198|68:197|36:181,1,75,2|0,0:0|0:0,0:0:0:0:
93,102,8048,2,0,B|69:79|64:72|53:38,1,75,2|0,0:0|0:0,0:0:0:0:
149,23,8357,6,0,L|241:26,1,75,2|0,0:0|0:0,0:0:0:0:
321,26,8666,1,2,0:0:0:0:
288,133,8821,1,8,0:0:0:0:
398,154,8976,1,0,1:0:0:0:
398,154,9053,1,0,1:0:0:0:
398,154,9130,2,0,L|390:241,1,75,8|8,0:0|3:0,0:0:0:0:
297,292,9440,2,0,L|289:205,1,75,4|0,3:0|0:0,0:0:0:0:
218,164,9749,6,0,B|164:188|113:155,1,104.999996795654,2|0,0:0|0:0,0:0:0:0:
41,137,10213,2,0,L|36:203,1,52.4999983978272,2|0,0:0|0:0,0:0:0:0:
2,260,10522,2,0,L|7:326,1,52.4999983978272,2|0,0:0|0:0,0:0:0:0:
71,355,10831,1,2,0:0:0:0:
146,323,10986,5,2,0:0:0:0:
146,323,11141,2,0,B|172:328|182:329|204:329,1,52.4999983978272,2|0,0:0|0:0,0:0:0:0:
270,298,11450,2,0,B|284:247|246:241|271:172,1,104.999996795654,2|0,0:0|0:0,0:0:0:0:
318,136,11914,2,0,L|375:141,1,52.4999983978272,2|0,0:0|0:0,0:0:0:0:
261,36,12223,6,0,L|160:46,1,75,6|0,0:0|0:0,0:0:0:0:
114,131,12532,2,0,L|214:141,1,75,6|0,0:0|0:0,0:0:0:0:
261,225,12842,2,0,L|160:235,1,75,6|0,0:0|0:0,0:0:0:0:
114,320,13151,2,0,L|214:330,1,75,6|0,0:0|0:0,0:0:0:0:
314,349,13460,5,6,0:0:0:0:
378,275,13615,2,0,B|391:241|396:222|394:194,1,75,2|0,0:0|0:0,0:0:0:0:
364,93,13924,1,4,3:0:0:0:
302,169,14079,1,0,0:0:0:0:
260,81,14233,1,2,0:0:0:0:
196,186,14388,2,0,L|208:332,1,134.999995880127,4|0,1:2|0:0,0:0:0:0:
213,350,14697,6,0,B|163:372|96:362|63:311,1,150,6|8,0:0|0:0,0:0:0:0:
28,222,15161,2,0,L|108:206,1,75,0|2,0:0|0:0,0:0:0:0:
196,186,15471,1,2,0:0:0:0:
130,95,15625,1,8,0:0:0:0:
231,46,15780,6,0,B|300:94|382:59,1,150,2|2,0:0|0:0,0:0:0:0:
476,107,16244,1,8,0:0:0:0:
433,210,16398,2,0,B|350:224|317:307,1,150,0|2,0:0|0:0,0:0:0:0:
261,190,16862,1,8,0:0:0:0:
261,190,17172,6,0,B|184:146|95:177,1,150,2|8,0:0|0:0,0:0:0:0:
32,246,17636,2,0,B|58:277|112:285,1,75,0|2,0:0|0:0,0:0:0:0:
208,291,17945,1,2,0:0:0:0:
285,209,18099,1,8,0:0:0:0:
179,162,18254,6,0,B|144:77|200:24,1,150,2|2,0:0|0:0,0:0:0:0:
312,19,18718,1,8,0:0:0:0:
360,120,18873,2,0,B|402:143|456:141|501:94,1,150,0|2,0:0|0:0,0:0:0:0:
416,26,19337,1,8,0:0:0:0:
416,26,19646,6,0,B|373:22|332:25,1,75,2|0,0:0|0:0,0:0:0:0:
228,24,19955,1,8,0:0:0:0:
269,128,20110,2,0,B|287:166|271:212,1,75,0|2,0:0|0:0,0:0:0:0:
213,277,20419,1,2,0:0:0:0:
178,169,20574,1,8,0:0:0:0:
290,227,20728,6,0,B|362:201|437:225,1,150,2|2,0:0|0:0,0:0:0:0:
491,126,21192,1,8,0:0:0:0:
438,26,21347,2,0,B|366:52|290:27,1,150,0|2,0:0|0:0,0:0:0:0:
214,110,21811,1,8,0:0:0:0:
214,110,22120,6,0,B|173:75|100:74|60:124,1,150,2|8,0:0|0:0,0:0:0:0:
123,262,22584,2,0,B|148:235|144:192,1,75,0|2,0:0|0:0,0:0:0:0:
39,195,22893,1,2,0:0:0:0:
71,357,23048,5,8,0:0:0:0:
71,357,23203,2,0,B|123:380|188:368|224:304,1,150,2|2,0:0|0:0,0:0:0:0:
261,229,23666,2,0,L|351:236,1,75,8|0,0:0|0:0,0:0:0:0:
490,270,23976,1,8,3:0:0:0:
490,270,24053,1,8,3:0:0:0:
490,270,24130,1,8,3:0:0:0:
490,270,24208,1,8,3:0:0:0:
490,270,24285,1,4,3:0:0:0:
490,270,24362,1,4,3:0:0:0:
490,270,24440,1,2,0:0:0:0:
490,270,24517,1,2,0:0:0:0:
490,270,24594,6,0,B|508:228|508:165|480:116,1,150,6|8,0:0|0:0,0:0:0:0:
378,85,25058,2,0,B|341:98|284:86,1,75,0|2,0:0|0:0,0:0:0:0:
218,40,25368,1,2,0:0:0:0:
209,151,25522,1,8,0:0:0:0:
111,93,25677,6,0,B|58:94|14:144|14:191,1,150,2|2,0:0|0:0,0:0:0:0:
59,292,26141,1,8,0:0:0:0:
118,198,26295,2,0,B|190:208|301:212,1,150,0|2,0:0|0:0,0:0:0:0:
378,192,26759,1,8,0:0:0:0:
378,192,27069,6,0,L|370:105,1,75,2|0,0:0|0:0,0:0:0:0:
289,39,27378,1,8,0:0:0:0:
198,105,27532,2,0,B|156:121|115:106,1,75,0|2,0:0|0:0,0:0:0:0:
34,69,27842,1,2,0:0:0:0:
11,178,27996,1,8,0:0:0:0:
82,265,28151,6,0,B|162:223|231:270,1,150,2|2,0:0|0:0,0:0:0:0:
306,343,28615,1,8,0:0:0:0:
401,282,28770,2,0,B|458:224|427:120,1,150,0|2,0:0|0:0,0:0:0:0:
401,34,29233,1,8,0:0:0:0:
401,34,29543,6,0,B|326:0|238:19,1,150,2|8,0:0|0:0,0:0:0:0:
156,72,30007,2,0,B|143:108|148:154,1,75,0|2,0:0|0:0,0:0:0:0:
189,233,30316,1,2,0:0:0:0:
285,174,30471,1,8,0:0:0:0:
290,285,30625,6,0,B|268:336|202:364|142:338,1,150,2|0,0:0|0:0,0:0:0:0:
82,268,31089,1,8,0:0:0:0:
189,233,31244,2,0,B|198:165|202:74,1,150,0|2,0:0|0:0,0:0:0:0:
299,27,31708,1,8,0:0:0:0:
299,27,32017,6,0,B|329:70|391:86|457:44,1,150,2|8,0:0|0:0,0:0:0:0:
489,154,32481,2,0,B|446:184|431:249|472:312,1,150,0|2,0:0|0:0,0:0:0:0:
367,353,32945,1,8,0:0:0:0:
367,353,33099,2,0,B|337:310|269:296|209:336,1,150,2|2,0:0|0:0,0:0:0:0:
133,377,33563,1,8,0:0:0:0:
127,249,33718,5,0,1:0:0:0:
127,249,33795,1,0,1:0:0:0:
127,249,33873,1,8,0:0:0:0:
220,309,34027,1,8,3:0:0:0:
288,219,34182,2,0,B|298:181|287:145,1,75,4|2,3:0|3:0,0:0:0:0:
268,60,34491,6,0,B|316:22|383:38,3,104.999996795654,2|2|2|2,0:0|0:0|0:0|0:0,0:0:0:0:
511,98,35728,6,0,B|463:136|396:120,3,104.999996795654,2|2|2|2,0:0|0:0|0:0|0:0,0:0:0:0:
341,264,36965,6,0,L|357:379,3,104.999996795654,2|2|2|2,0:0|0:0|0:0|0:0,0:0:0:0:
197,367,38203,6,0,L|213:252,3,104.999996795654,2|2|2|2,0:0|0:0|0:0|0:0,0:0:0:0:
118,135,39440,6,0,B|59:157|2:131,2,104.999996795654,6|2|2,0:0|0:0|0:0,0:0:0:0:
256,59,40368,1,2,0:0:0:0:
394,135,40677,2,0,B|453:157|510:131,2,104.999996795654,2|2|2,0:0|0:0|0:0,0:0:0:0:
256,59,41605,1,2,0:0:0:0:
118,135,41914,6,0,B|106:187|122:259,1,104.999996795654,2|2,0:0|0:0,0:0:0:0:
275,239,42532,2,0,B|287:187|271:115,1,104.999996795654,2|2,0:0|0:0,0:0:0:0:
159,26,43151,1,2,0:0:0:0:
33,120,43460,1,2,0:0:0:0:
100,262,43770,2,0,B|140:225|216:229,1,104.999996795654,2|2,0:0|0:0,0:0:0:0:
275,239,44233,1,8,0:0:0:0:
342,279,44388,6,0,L|466:269,2,104.999996795654,6|2|2,0:0|0:0|0:0,0:0:0:0:
214,371,45316,1,2,0:0:0:0:
100,262,45625,2,0,B|73:212|95:150,1,104.999996795654,2|2,0:0|0:0,0:0:0:0:
221,69,46244,2,0,L|290:62,1,52.4999983978272,2|2,0:0|3:0,0:0:0:0:
340,23,46553,2,0,L|409:30,1,52.4999983978272,2|2,0:0|3:0,0:0:0:0:
452,78,46862,6,0,B|481:125|468:181,2,104.999996795654,2|2|2,0:0|0:0|0:0,0:0:0:0:
300,33,47790,1,2,0:0:0:0:
181,136,48099,2,0,L|189:247,1,104.999996795654,2|2,0:0|0:0,0:0:0:0:
341,277,48718,2,0,L|348:172,1,104.999996795654,2|2,0:0|0:0,0:0:0:0:
353,93,49182,1,8,0:0:0:0:
300,33,49337,6,0,B|247:17|189:31,1,104.999996795654,6|2,0:0|0:0,0:0:0:0:
77,133,49955,2,0,B|130:149|188:135,1,104.999996795654,2|2,0:0|0:0,0:0:0:0:
300,33,50574,1,2,0:0:0:0:
445,93,50883,1,2,0:0:0:0:
484,245,51192,1,2,0:0:0:0:
369,353,51502,2,0,L|300:350,1,52.4999983978272,2|8,0:0|0:0,0:0:0:0:
245,294,51811,6,0,B|186:330|113:301,1,120,6|2,0:0|0:0,0:0:0:0:
51,261,52275,1,0,0:0:0:0:
97,184,52429,2,0,L|103:104,1,60,2|0,0:0|0:0,0:0:0:0:
181,81,52739,2,0,L|187:161,1,60,2|0,0:0|0:0,0:0:0:0:
258,212,53048,6,0,B|307:228|353:199,1,90,2|0,0:0|0:0,0:0:0:0:
366,182,53357,2,0,L|357:116,1,60,2|0,0:0|0:0,0:0:0:0:
346,33,53666,1,2,0:0:0:0:
456,80,53821,1,8,0:0:0:0:
346,33,53976,2,0,L|280:42,1,60,2|0,0:0|0:0,0:0:0:0:
179,112,54285,6,0,B|85:100|85:100|33:123,1,134.999995880127,6|2,0:0|0:0,0:0:0:0:
52,120,54904,1,8,0:0:0:0:
52,120,55058,2,0,L|58:209,1,67.4999979400635,2|0,0:0|0:0,0:0:0:0:
129,277,55368,6,0,B|168:290|201:275,1,67.4999979400635,2|0,0:0|0:0,0:0:0:0:
297,189,55677,2,0,B|258:176|225:191,1,67.4999979400635,2|0,0:0|0:0,0:0:0:0:
332,277,55986,2,0,B|371:290|404:275,1,67.4999979400635,2|8,0:0|0:0,0:0:0:0:
471,228,56295,1,2,0:0:0:0:
494,143,56450,1,0,0:0:0:0:
449,66,56605,1,0,0:0:0:0:
371,26,56759,6,0,B|336:14|299:23|314:34|276:48|228:33,1,134.999995880127,6|2,0:0|0:0,0:0:0:0:
243,40,57378,1,8,0:0:0:0:
243,40,57532,2,0,L|251:133,1,67.4999979400635,2|0,0:0|0:0,0:0:0:0:
216,218,57842,6,0,B|180:234|140:221,1,67.4999979400635,2|0,0:0|0:0,0:0:0:0:
34,153,58151,2,0,B|70:137|110:150,1,67.4999979400635,2|0,0:0|0:0,0:0:0:0:
18,240,58460,2,0,L|28:316,1,67.4999979400635,2|8,0:0|0:0,0:0:0:0:
109,366,58770,1,2,0:0:0:0:
201,326,58924,2,0,B|237:310|277:323,1,67.4999979400635
380,341,59233,6,0,B|415:280|386:210,1,134.999995880127,6|2,0:0|0:0,0:0:0:0:
390,215,59852,1,8,0:0:0:0:
390,215,60007,2,0,L|484:206,1,67.4999979400635,2|0,0:0|0:0,0:0:0:0:
401,123,60316,2,0,L|333:116,1,67.4999979400635,2|0,0:0|0:0,0:0:0:0:
274,34,60625,2,0,L|368:25,1,67.4999979400635,2|0,0:0|0:0,0:0:0:0:
442,18,60935,1,2,0:0:0:0:
508,93,61089,1,8,0:0:0:0:
508,93,61244,2,0,L|499:168,1,67.4999979400635,2|0,0:0|0:0,0:0:0:0:
443,244,61553,1,0,0:0:0:0:
331,202,61708,6,0,B|282:184|282:184|181:196,1,134.999995880127,6|2,0:0|0:0,0:0:0:0:
203,197,62326,1,8,0:0:0:0:
203,197,62481,2,0,B|185:167|196:125,1,67.4999979400635,2|0,0:0|0:0,0:0:0:0:
106,215,62790,2,0,B|124:245|113:287,1,67.4999979400635,2|0,0:0|0:0,0:0:0:0:
214,349,63099,2,0,B|198:313|211:273,1,67.4999979400635,2|0,0:0|0:0,0:0:0:0:
291,223,63409,1,2,0:0:0:0:
412,295,63563,5,8,3:0:0:0:
412,295,63641,1,8,3:0:0:0:
412,295,63718,1,8,3:0:0:0:
412,295,63795,1,8,3:0:0:0:
412,295,63873,1,4,3:0:0:0:
412,295,63950,1,4,3:0:0:0:
412,295,64027,1,2,0:0:0:0:
412,295,64105,1,2,0:0:0:0:
412,295,64182,6,0,B|458:225|413:143,2,150,6|8|2,0:0|0:0|0:0,0:0:0:0:
337,358,64955,1,2,0:0:0:0:
237,304,65110,2,0,B|218:271|226:226,1,75,8|0,0:0|0:0,0:0:0:0:
238,119,65419,6,0,B|195:113|165:132|165:132|131:107|76:116,1,150,2|8,0:0|0:0,0:0:0:0:
104,226,65883,1,0,0:0:0:0:
200,284,66038,1,2,0:0:0:0:
200,284,66192,2,0,B|214:324|194:370,2,75,2|8|0,0:0|0:0|0:0,0:0:0:0:
294,187,66656,6,0,B|355:248|451:215,2,150,6|8|2,0:0|0:0|0:0,0:0:0:0:
257,96,67429,1,2,0:0:0:0:
162,157,67584,2,0,L|60:147,1,75,8|0,0:0|0:0,0:0:0:0:
19,239,67893,5,2,0:0:0:0:
60,344,68048,1,0,0:0:0:0:
145,239,68203,1,8,0:0:0:0:
193,351,68358,1,8,0:0:0:0:
193,351,68435,1,8,0:0:0:0:
193,351,68512,1,8,0:0:0:0:
275,245,68666,2,0,B|287:209|274:167,2,75,8|0|2,3:0|0:0|0:0,0:0:0:0:
162,157,69130,5,6,0:0:0:0:
195,130,70368,5,2,0:0:0:0:
227,104,71605,5,6,0:0:0:0:
258,76,72687,5,2,0:0:0:0:
258,76,72764,1,2,0:0:0:0:
258,76,72842,2,0,B|332:131|421:69,2,157.499995193482,2|2|2,0:0|0:0|0:0,0:0:0:0:
78,137,74079,5,6,0:0:0:0:
78,137,74156,1,0,3:0:0:0:
78,137,74233,1,0,3:0:0:0:
78,137,74311,1,0,3:0:0:0:
78,137,74388,1,8,0:0:0:0:
78,137,74465,1,0,3:0:0:0:
78,137,74543,1,0,3:0:0:0:
78,137,74620,1,0,3:0:0:0:
78,137,74697,6,0,L|85:198,3,33.7499989700318,8|0|0|0,0:0|3:0|3:0|3:0,0:0:0:0:
110,189,75007,2,0,L|103:250,3,33.7499989700318,8|0|0|0,0:0|3:0|3:0|3:0,0:0:0:0:
97,259,75316,5,8,1:2:0:0:
116,281,75393,1,0,1:0:0:0:
141,297,75471,1,0,1:0:0:0:
169,306,75548,1,0,1:0:0:0:
198,309,75625,1,8,1:2:0:0:
228,305,75703,1,0,1:0:0:0:
256,295,75780,1,0,1:0:0:0:
280,277,75857,1,0,1:0:0:0:
295,250,75935,6,0,L|290:196,3,37.5,8|8|8|8,3:0|3:0|3:0|3:0,0:0:0:0:
204,175,76244,2,0,L|199:229,3,37.5,4|4|2|2,3:0|3:0|0:0|0:0,0:0:0:0:
169,306,76553,6,0,B|73:339|13:260,1,165.000005035401,6|8,0:0|0:0,0:0:0:0:
2,162,77017,1,0,0:0:0:0:
90,100,77172,2,0,B|111:67|106:20,1,82.5000025177003,2|2,0:0|0:0,0:0:0:0:
247,20,77481,2,0,B|242:66|263:99,1,82.5000025177003,8|0,0:0|0:0,0:0:0:0:
363,198,77790,6,0,B|268:169|207:243,1,165.000005035401,2|8,0:0|0:0,0:0:0:0:
155,327,78254,1,0,0:0:0:0:
104,231,78409,1,2,0:0:0:0:
47,321,78563,1,2,0:0:0:0:
127,205,78718,2,0,B|138:160|123:116,1,82.5000025177003,8|0,0:0|0:0,0:0:0:0:
217,17,79027,6,0,B|264:107|380:66,1,165.000005035401,2|8,0:0|0:0,0:0:0:0:
462,50,79491,1,0,0:0:0:0:
473,156,79646,2,0,B|435:183|427:223,1,82.5000025177003,2|2,0:0|0:0,0:0:0:0:
322,315,79955,2,0,B|314:274|276:247,1,82.5000025177003,8|0,0:0|0:0,0:0:0:0:
140,215,80264,6,0,B|130:172|130:172|147:105|147:105|138:54,1,165.000005035401,2|8,0:0|0:0,0:0:0:0:
138,54,80883,2,0,L|241:41,1,82.5000025177003,2|2,0:0|0:0,0:0:0:0:
335,150,81192,2,0,L|232:137,1,82.5000025177003,8|0,0:0|0:0,0:0:0:0:
103,137,81502,5,2,0:0:0:0:
28,213,81656,1,0,0:0:0:0:
70,313,81811,2,0,B|111:353|188:364|243:328,1,165.000005035401,8|2,0:0|0:0,0:0:0:0:
224,338,82275,1,2,0:0:0:0:
318,259,82429,2,0,B|359:240|416:251,1,82.5000025177003,8|0,0:0|0:0,0:0:0:0:
462,140,82739,6,0,B|370:163|302:83,1,165.000005035401,2|8,0:0|0:0,0:0:0:0:
250,6,83203,1,0,0:0:0:0:
180,87,83357,2,0,B|193:130|180:183,1,82.5000025177003,2|2,0:0|0:0,0:0:0:0:
62,241,83666,2,0,B|49:198|62:145,1,82.5000025177003,8|0,0:0|0:0,0:0:0:0:
151,303,83976,6,0,B|106:354|50:360|0:329,2,165.000005035401,2|8|2,0:0|0:0|0:0,0:0:0:0:
188,202,84749,1,2,0:0:0:0:
289,272,84904,2,0,B|305:311|298:364,1,82.5000025177003,8|0,0:0|0:0,0:0:0:0:
398,220,85213,6,0,B|382:181|389:128,1,82.5000025177003,2|0,0:0|0:0,0:0:0:0:
267,25,85522,2,0,B|207:50|207:50|129:37,1,123.75000377655,12|0,0:0|0:0,0:0:0:0:
118,54,85831,5,8,3:0:0:0:
102,83,85909,1,8,3:0:0:0:
98,115,85986,1,8,3:0:0:0:
108,146,86063,1,8,3:0:0:0:
129,171,86141,2,0,L|180:167,3,41.2500012588501,2|2|2|2,0:0|0:0|0:0|0:0,0:0:0:0:
231,111,86450,6,0,B|272:159|253:237|178:251,1,165.000005035401,6|8,0:0|0:0,0:0:0:0:
89,264,86914,1,0,0:0:0:0:
149,353,87069,2,0,L|251:368,1,82.5000025177003,2|2,0:0|0:0,0:0:0:0:
377,272,87378,2,0,L|295:284,1,82.5000025177003,8|0,0:0|0:0,0:0:0:0:
478,335,87687,6,0,B|511:285|495:212|453:179,1,165.000005035401,2|8,0:0|0:0,0:0:0:0:
358,143,88151,1,0,0:0:0:0:
450,59,88306,1,2,0:0:0:0:
332,22,88460,1,2,0:0:0:0:
370,157,88615,2,0,L|264:169,1,82.5000025177003,8|0,0:0|0:0,0:0:0:0:
148,183,88924,6,0,B|68:121|122:21,1,165.000005035401,2|8,0:0|0:0,0:0:0:0:
205,93,89388,1,0,0:0:0:0:
304,19,89543,1,2,0:0:0:0:
320,141,89697,1,2,0:0:0:0:
418,65,89852,2,0,B|447:103|442:148,1,82.5000025177003,8|0,0:0|0:0,0:0:0:0:
390,254,90161,6,0,B|304:209|216:250,1,165.000005035401,2|8,0:0|0:0,0:0:0:0:
231,244,90780,1,2,0:0:0:0:
169,332,90935,1,2,0:0:0:0:
78,225,91089,2,0,L|92:83,1,123.75000377655,8|0,0:0|0:0,0:0:0:0:
112,126,91398,6,0,L|102:230,1,82.5000025177003,2|0,0:0|0:0,0:0:0:0:
169,332,91708,2,0,B|253:379|346:306,1,165.000005035401,8|2,0:0|0:0,0:0:0:0:
324,321,92172,1,2,0:0:0:0:
440,243,92326,2,0,B|467:283|467:336,1,82.5000025177003,8|0,0:0|0:0,0:0:0:0:
313,218,92636,6,0,B|291:128|366:63,1,165.000005035401,2|8,0:0|0:0,0:0:0:0:
359,68,93099,1,0,0:0:0:0:
253,20,93254,2,0,B|212:45|153:36,1,82.5000025177003,2|2,0:0|0:0,0:0:0:0:
72,134,93563,2,0,B|120:132|166:170,1,82.5000025177003,8|0,0:0|0:0,0:0:0:0:
253,254,93873,6,0,B|299:235|344:254|331:270|375:290|432:262,2,165.000005035401,2|8|2,0:0|0:0|0:0,0:0:0:0:
287,342,94646,1,2,0:0:0:0:
344,223,94801,2,0,L|337:109,1,82.5000025177003,8|0,0:0|0:0,0:0:0:0:
225,58,95110,6,0,B|149:135|42:63,1,165.000005035401,2|8,0:0|0:0,0:0:0:0:
21,220,95574,1,8,0:0:0:0:
21,220,95651,1,8,0:0:0:0:
21,220,95728,2,0,B|67:228|86:266,1,82.5000025177003,8|8,0:0|0:0,0:0:0:0:
193,357,96038,2,0,B|212:318|258:310,1,82.5000025177003,4|0,3:0|0:0,0:0:0:0:
434,315,96347,6,0,B|448:248|448:248|421:194|421:194|435:106|435:106|390:153|337:145,1,314.999990386963,6|0,0:0|0:0,0:0:0:0:
349,146,97584,6,0,B|311:111|307:52|307:52|284:119|249:137|249:137|291:179|284:241,1,314.999990386963,6|0,0:0|0:0,0:0:0:0:
284,231,98821,5,6,0:0:0:0:
175,312,98976,2,0,L|84:303,1,67.4999979400635,2|0,0:0|0:0,0:0:0:0:
106,161,99285,1,2,0:0:0:0:
217,237,99440,2,0,L|308:228,1,67.4999979400635,2|0,0:0|0:0,0:0:0:0:
396,152,99749,2,0,L|305:143,1,67.4999979400635,4|0,0:0|0:0,0:0:0:0:
166,136,100058,5,8,0:0:0:0:
298,59,100213,1,8,0:0:0:0:
243,207,100368,1,2,0:0:0:0:
243,207,100445,1,2,0:0:0:0:
243,207,100522,1,8,0:0:0:0:
204,50,100677,2,0,L|116:44,1,67.4999979400635,8|2,0:0|0:0,0:0:0:0:
112,21,100909,1,2,0:0:0:0:
112,21,100986,2,0,L|24:27,1,67.4999979400635,8|0,0:0|0:0,0:0:0:0:
16,173,101295,6,0,B|53:250|153:231,1,150,6|8,0:0|0:0,0:0:0:0:
248,198,101759,2,0,L|255:113,1,75,0|2,0:0|0:0,0:0:0:0:
351,110,102069,1,2,0:0:0:0:
435,183,102223,1,8,0:0:0:0:
375,278,102378,6,0,B|307:331|229:291,1,150,2|2,0:0|0:0,0:0:0:0:
141,232,102842,1,8,0:0:0:0:
200,137,102996,2,0,B|268:84|346:124,1,150,0|2,0:0|0:0,0:0:0:0:
435,183,103460,1,8,0:0:0:0:
435,183,103770,6,0,B|476:114|445:39,1,150,2|8,0:0|0:0,0:0:0:0:
334,19,104233,2,0,B|297:39|252:35,1,75,0|2,0:0|0:0,0:0:0:0:
164,21,104543,1,2,0:0:0:0:
197,127,104697,1,8,0:0:0:0:
86,103,104852,6,0,B|24:168|87:265,1,150,2|2,0:0|0:0,0:0:0:0:
154,319,105316,1,8,0:0:0:0:
239,244,105471,2,0,B|304:182|401:245,1,150,0|2,0:0|0:0,0:0:0:0:
443,323,105935,1,8,0:0:0:0:
443,323,106244,6,0,L|346:333,1,75,2|0,0:0|0:0,0:0:0:0:
256,349,106553,1,8,0:0:0:0:
143,330,106708,2,0,L|69:323,1,75,0|2,0:0|0:0,0:0:0:0:
12,243,107017,1,2,0:0:0:0:
57,139,107172,1,8,0:0:0:0:
155,86,107326,6,0,B|215:149|315:105,1,150,2|2,0:0|0:0,0:0:0:0:
367,27,107790,1,8,0:0:0:0:
447,106,107945,2,0,B|510:166|466:266,1,150,0|2,0:0|0:0,0:0:0:0:
373,194,108409,1,8,0:0:0:0:
373,194,108718,6,0,B|336:155|276:150|237:180,1,150,2|8,0:0|0:0,0:0:0:0:
281,341,109182,2,0,B|301:306|296:269,1,75,0|2,0:0|0:0,0:0:0:0:
191,283,109491,1,2,0:0:0:0:
391,286,109646,5,8,0:0:0:0:
391,286,109801,2,0,B|439:274|483:225|458:148,1,150,2|2,0:0|0:0,0:0:0:0:
302,176,110264,2,0,B|339:204|387:190,1,75,8|0,0:0|0:0,0:0:0:0:
369,79,110574,1,8,3:0:0:0:
369,79,110651,1,8,3:0:0:0:
369,79,110728,1,8,3:0:0:0:
369,79,110806,1,8,3:0:0:0:
369,79,110883,1,4,3:0:0:0:
369,79,110960,1,4,3:0:0:0:
369,79,111038,1,2,0:0:0:0:
369,79,111115,1,2,0:0:0:0:
369,79,111192,6,0,B|299:21|216:69,1,150,6|8,0:0|0:0,0:0:0:0:
147,139,111656,2,0,B|107:159|64:140,1,75,0|2,0:0|0:0,0:0:0:0:
5,212,111965,1,2,0:0:0:0:
67,306,112120,1,8,0:0:0:0:
178,323,112275,6,0,B|255:273|335:317,1,150,2|2,0:0|0:0,0:0:0:0:
418,365,112739,1,8,0:0:0:0:
476,269,112893,2,0,B|511:184|454:113,1,150,0|2,0:0|0:0,0:0:0:0:
380,50,113357,1,8,0:0:0:0:
380,50,113666,6,0,B|353:77|353:117,1,75,2|0,0:0|0:0,0:0:0:0:
286,209,113976,1,8,0:0:0:0:
219,118,114130,2,0,B|219:77|192:50,1,75,0|2,0:0|0:0,0:0:0:0:
96,24,114440,1,2,0:0:0:0:
15,102,114594,1,8,0:0:0:0:
16,214,114749,6,0,B|63:291|155:266,1,150,2|2,0:0|0:0,0:0:0:0:
248,227,115213,1,8,0:0:0:0:
219,118,115368,2,0,B|266:41|358:66,1,150,0|2,0:0|0:0,0:0:0:0:
446,115,115831,1,8,0:0:0:0:
446,115,116141,6,0,L|440:273,1,150,2|8,0:0|0:0,0:0:0:0:
345,326,116605,2,0,B|320:295|327:234,1,75,0|2,0:0|0:0,0:0:0:0:
346,159,116914,1,2,0:0:0:0:
237,187,117069,1,8,0:0:0:0:
320,136,117223,1,0,0:0:0:0:
203,83,117378,6,0,L|117:90,1,75,2|8,0:0|0:0,0:0:0:0:
52,191,117687,2,0,L|138:198,1,75,2|2,0:0|0:0,0:0:0:0:
222,281,117996,1,8,0:0:0:0:
161,357,118151,1,8,3:0:0:0:
63,357,118306,1,4,3:0:0:0:
5,278,118460,1,4,3:0:0:0:
52,191,118615,6,0,L|47:123,1,60,6|2,0:0|0:0,0:0:0:0:
124,84,118924,2,0,B|206:161|290:75,1,180,8|2,0:0|0:0,0:0:0:0:
363,41,119543,2,0,B|381:68|368:125,1,60,8|0,0:0|0:0,0:0:0:0:
324,175,119852,6,0,B|306:202|319:259,1,60,2|2,0:0|0:0,0:0:0:0:
403,216,120161,1,8,0:0:0:0:
376,302,120316,2,0,B|311:351|244:296,1,120,2|2,0:0|0:0,0:0:0:0:
190,258,120780,2,0,L|122:252,1,60,8|0,0:0|0:0,0:0:0:0:
89,172,121089,6,0,L|157:166,1,60,2|2,0:0|0:0,0:0:0:0:
204,95,121398,2,0,B|293:30|386:100,1,180,8|2,0:0|0:0,0:0:0:0:
410,172,122017,2,0,L|469:177,1,60,8|0,0:0|0:0,0:0:0:0:
501,261,122326,6,0,L|441:266,1,60,2|2,0:0|0:0,0:0:0:0:
384,337,122636,1,8,0:0:0:0:
298,309,122790,2,0,B|248:267|248:189,1,120,2|2,0:0|0:0,0:0:0:0:
263,114,123254,1,8,0:0:0:0:
181,74,123409,1,2,0:0:0:0:
181,74,123486,1,2,0:0:0:0:
181,74,123563,5,2,0:0:0:0:
119,159,123718,1,2,0:0:0:0:
77,62,123873,1,8,0:0:0:0:
77,62,124337,5,2,0:0:0:0:
14,146,124491,1,8,0:0:0:0:
14,146,124801,5,2,0:0:0:0:
119,159,124955,1,2,0:0:0:0:
55,242,125110,1,8,0:0:0:0:
158,257,125264,1,2,0:0:0:0:
158,257,125574,5,2,0:0:0:0:
119,159,125728,1,8,0:0:0:0:
119,159,126038,5,2,0:0:0:0:
222,174,126192,1,2,0:0:0:0:
158,257,126347,1,8,0:0:0:0:
158,257,126811,5,2,0:0:0:0:
55,242,126965,1,8,0:0:0:0:
55,242,127275,5,2,0:0:0:0:
119,159,127429,1,2,0:0:0:0:
14,146,127584,1,8,0:0:0:0:
77,62,127739,1,2,0:0:0:0:
77,62,128048,5,2,0:0:0:0:
119,159,128203,1,8,0:0:0:0:
128,183,128280,1,8,3:0:0:0:
138,207,128357,1,8,3:0:0:0:
147,232,128434,1,8,3:0:0:0:
158,257,128512,6,0,B|218:208|298:238,1,134.999995880127,6|8,0:0|0:0,0:0:0:0:
360,301,128976,2,0,B|344:337|344:366,2,67.4999979400635,0|2|2,0:0|0:0|0:0,0:0:0:0:
433,231,129440,1,8,0:0:0:0:
508,163,129594,6,0,B|486:83|405:66,1,134.999995880127,2|2,0:0|0:0,0:0:0:0:
318,81,130058,2,0,B|297:50|302:5,1,67.4999979400635,8|0,0:0|0:0,0:0:0:0:
239,130,130368,2,0,B|205:113|187:72,1,67.4999979400635,2|0,0:0|0:0,0:0:0:0:
110,23,130677,2,0,B|96:53|63:70,1,67.4999979400635,8|0,0:0|0:0,0:0:0:0:
4,152,130986,6,0,L|15:235,1,67.4999979400635,2|0,0:0|0:0,0:0:0:0:
78,296,131295,1,8,0:0:0:0:
156,231,131450,2,0,B|219:189|292:225,1,134.999995880127,0|2,0:0|0:0,0:0:0:0:
356,293,131914,1,8,0:0:0:0:
451,259,132069,6,0,B|499:195|473:124,1,134.999995880127,2|2,0:0|0:0,0:0:0:0:
422,46,132532,2,0,L|349:54,1,67.4999979400635,8|0,0:0|0:0,0:0:0:0:
280,123,132842,2,0,L|207:115,1,67.4999979400635,2|2,0:0|0:0,0:0:0:0:
112,102,133151,1,8,0:0:0:0:
150,195,133306,1,0,0:0:0:0:
49,182,133460,6,0,B|2:142|2:79|38:32,2,134.999995880127,6|8|2,0:0|0:0|0:0,0:0:0:0:
150,195,134233,1,2,0:0:0:0:
224,263,134388,2,0,B|237:296|224:344,1,67.4999979400635,8|2,0:0|0:0,0:0:0:0:
133,367,134697,6,0,B|89:370|33:350|13:281,1,134.999995880127,0|8,0:0|0:0,0:0:0:0:
4,204,135161,2,0,B|34:181|90:188,1,67.4999979400635,0|2,0:0|0:0,0:0:0:0:
151,245,135471,1,2,0:0:0:0:
230,183,135625,2,0,B|244:148|223:95,1,67.4999979400635,8|0,0:0|0:0,0:0:0:0:
109,36,135935,5,12,0:0:0:0:
24,102,136089,1,2,0:0:0:0:
136,43,136244,5,8,0:0:0:0:
122,150,136398,1,2,0:0:0:0:
164,30,136553,5,8,0:0:0:0:
230,116,136707,1,2,0:0:0:0:
175,1,136862,5,8,0:0:0:0:
289,22,137016,1,2,0:0:0:0:
289,22,137094,1,2,0:0:0:0:
289,22,137172,6,0,L|371:30,1,75,8|0,0:0|0:0,0:0:0:0:
480,124,137481,1,8,0:0:0:0:
480,124,137558,1,0,3:0:0:0:
480,124,137636,1,0,3:0:0:0:
480,124,137713,1,0,3:0:0:0:
480,124,137790,2,0,L|474:182,3,37.5,8|0|0|0,0:0|3:0|3:0|3:0,0:0:0:0:
392,205,138099,2,0,L|398:263,3,37.5,8|0|0|0,0:0|3:0|3:0|3:0,0:0:0:0:
469,305,138409,6,0,B|387:257|303:309,1,165.000005035401,6|8,0:0|0:0,0:0:0:0:
222,363,138873,1,0,0:0:0:0:
123,320,139027,2,0,B|97:276|113:225,1,82.5000025177003,2|2,0:0|0:0,0:0:0:0:
208,139,139337,2,0,B|234:183|218:234,1,82.5000025177003,8|0,0:0|0:0,0:0:0:0:
120,77,139646,6,0,B|156:27|222:16|282:56,1,165.000005035401,2|8,0:0|0:0,0:0:0:0:
339,126,140110,1,0,0:0:0:0:
462,129,140264,1,2,0:0:0:0:
402,20,140419,1,2,0:0:0:0:
485,132,140574,2,0,L|473:224,1,82.5000025177003,8|0,0:0|0:0,0:0:0:0:
360,296,140883,6,0,B|289:232|193:272,1,165.000005035401,2|8,0:0|0:0,0:0:0:0:
103,298,141347,1,0,0:0:0:0:
122,192,141502,2,0,B|134:149|119:111,1,82.5000025177003,2|2,0:0|0:0,0:0:0:0:
231,27,141811,2,0,B|219:70|234:108,1,82.5000025177003,8|0,0:0|0:0,0:0:0:0:
319,220,142120,6,0,B|436:206|436:206|467:161,1,165.000005035401,2|8,0:0|0:0,0:0:0:0:
462,167,142739,2,0,B|497:187|512:231,1,82.5000025177003,2|2,0:0|0:0,0:0:0:0:
448,355,143048,2,0,B|413:335|398:291,1,82.5000025177003,8|0,0:0|0:0,0:0:0:0:
321,164,143357,5,2,0:0:0:0:
214,180,143512,1,0,0:0:0:0:
127,244,143666,2,0,B|34:221|39:116,1,165.000005035401,8|2,0:0|0:0,0:0:0:0:
38,122,144130,1,2,0:0:0:0:
120,29,144285,2,0,B|159:21|202:33,1,82.5000025177003,8|0,0:0|0:0,0:0:0:0:
285,124,144594,6,0,B|367:176|457:94,1,165.000005035401,2|8,0:0|0:0,0:0:0:0:
500,196,145058,1,0,0:0:0:0:
424,273,145213,2,0,B|408:311|416:354,1,82.5000025177003,2|2,0:0|0:0,0:0:0:0:
276,373,145522,2,0,B|281:332|262:292,1,82.5000025177003,8|0,0:0|0:0,0:0:0:0:
166,190,145831,6,0,B|119:175|82:189|95:200|54:221|2:196,2,165.000005035401,2|8|2,0:0|0:0|0:0,0:0:0:0:
267,151,146605,1,2,0:0:0:0:
263,292,146759,2,0,L|156:302,1,82.5000025177003,8|0,0:0|0:0,0:0:0:0:
360,365,147069,6,0,L|467:375,1,82.5000025177003,2|0,0:0|0:0,0:0:0:0:
503,219,147378,2,0,B|473:168|473:168|489:91,1,123.75000377655,12|0,0:0|0:0,0:0:0:0:
492,72,147687,5,8,3:0:0:0:
469,47,147764,1,8,3:0:0:0:
436,38,147842,1,8,3:0:0:0:
403,44,147919,1,8,3:0:0:0:
377,64,147996,2,0,L|382:119,3,41.2500012588501,4|4|2|2,3:0|3:0|0:0|0:0,0:0:0:0:
373,189,148306,6,0,B|287:243|208:172,1,165.000005035401,6|8,0:0|0:0,0:0:0:0:
158,93,148770,1,0,0:0:0:0:
84,150,148924,2,0,B|61:187|76:238,1,82.5000025177003,2|2,0:0|0:0,0:0:0:0:
210,261,149233,2,0,B|232:223|217:172,1,82.5000025177003,8|0,0:0|0:0,0:0:0:0:
124,327,149543,6,0,B|164:376|238:385|293:330,1,165.000005035401,2|8,0:0|0:0,0:0:0:0:
334,259,150007,1,0,0:0:0:0:
210,261,150161,1,2,0:0:0:0:
269,152,150316,1,2,0:0:0:0:
349,277,150471,2,0,L|457:268,1,82.5000025177003,8|0,0:0|0:0,0:0:0:0:
507,151,150780,6,0,B|507:103|473:47|401:41,1,165.000005035401,2|8,0:0|0:0,0:0:0:0:
303,76,151244,1,0,0:0:0:0:
284,199,151398,1,2,0:0:0:0:
399,152,151553,1,2,0:0:0:0:
280,61,151708,2,0,B|241:40|185:62,1,82.5000025177003,8|0,0:0|0:0,0:0:0:0:
90,158,152017,6,0,B|59:224|75:282|140:316,1,165.000005035401,2|8,0:0|0:0,0:0:0:0:
121,304,152636,1,2,0:0:0:0:
215,254,152790,1,2,0:0:0:0:
275,344,152945,2,0,L|437:332,1,123.75000377655,8|0,0:0|0:0,0:0:0:0:
375,311,153254,6,0,L|292:317,1,82.5000025177003,2|0,0:0|0:0,0:0:0:0:
183,228,153563,2,0,B|150:185|151:108|192:67,1,165.000005035401,8|2,0:0|0:0,0:0:0:0:
185,73,154027,1,2,0:0:0:0:
319,21,154182,2,0,L|333:119,1,82.5000025177003,8|0,0:0|0:0,0:0:0:0:
435,241,154491,6,0,B|510:196|496:80,1,165.000005035401,2|8,0:0|0:0,0:0:0:0:
497,98,154955,1,0,0:0:0:0:
401,28,155110,2,0,L|319:21,1,82.5000025177003,2|2,0:0|0:0,0:0:0:0:
269,152,155419,2,0,L|351:145,1,82.5000025177003,8|0,0:0|0:0,0:0:0:0:
486,183,155728,6,0,B|504:227|496:272|484:265|473:303|491:348,2,165.000005035401,2|8|2,0:0|0:0|0:0,0:0:0:0:
387,227,156502,1,2,0:0:0:0:
424,101,156656,2,0,B|462:74|505:82,1,82.5000025177003,8|0,0:0|0:0,0:0:0:0:
368,209,156965,6,0,B|295:147|197:194,1,165.000005035401,2|8,0:0|0:0,0:0:0:0:
91,257,157429,1,8,0:0:0:0:
91,257,157507,1,8,0:0:0:0:
91,257,157584,2,0,L|82:167,1,82.5000025177003,8|2,0:0|0:0,0:0:0:0:
222,104,157893,2,0,L|213:194,1,82.5000025177003,8|0,3:0|3:0,0:0:0:0:
333,313,158203,6,0,B|416:358|496:287,1,165.000005035401,6|2,0:0|0:0,0:0:0:0:
476,155,158666,2,0,B|393:110|313:181,1,165.000005035401,8|2,0:0|0:0,0:0:0:0:
216,264,159130,2,0,L|116:256,1,82.5000025177003,12|2,0:0|0:0,0:0:0:0:
39,152,159440,5,12,0:0:0:0:
80,53,159594,1,2,0:0:0:0:
171,159,159749,1,12,0:0:0:0:
212,60,159903,1,2,0:0:0:0:
312,181,160058,1,8,0:0:0:0:
312,181,160136,1,2,0:0:0:0:
312,181,160213,1,2,0:0:0:0:
312,181,160290,1,2,0:0:0:0:
312,181,160368,6,0,L|419:173,1,104.999996795654,4|6,3:0|0:0,0:0:0:0:
255,180,168099,6,0,B|216:162|167:179,1,75,6|0,0:0|0:0,0:0:0:0:
173,287,168409,2,0,B|212:305|261:288,1,75,2|0,0:0|0:0,0:0:0:0:
371,268,168718,1,8,1:2:0:0:
371,268,168795,1,0,1:0:0:0:
371,268,168873,1,0,1:0:0:0:
371,268,168950,1,0,1:0:0:0:
371,268,169027,1,8,1:2:0:0:
371,268,169105,1,0,1:0:0:0:
371,268,169182,1,0,1:0:0:0:
371,268,169259,1,0,1:0:0:0:
371,268,169337,5,4,0:0:0:0:
256,192,169434,12,0,170700,0:0:0:0:
371,268,170895,6,0,L|486:254,1,82.5000025177003,6|0,0:0|0:0,0:0:0:0:
295,235,171284,2,0,L|401:280,1,82.5000025177003,2|0,0:0|0:0,0:0:0:0:
245,169,171674,2,0,L|314:261,1,82.5000025177003,2|0,0:0|0:0,0:0:0:0:
235,87,172063,2,0,L|249:202,1,82.5000025177003,2|0,0:0|0:0,0:0:0:0:
370,267,172453,6,0,L|324:373,1,82.5000025177003,2|0,0:0|0:0,0:0:0:0:
360,185,172843,2,0,L|373:300,1,82.5000025177003,2|0,0:0|0:0,0:0:0:0:
310,119,173232,2,0,L|379:211,1,82.5000025177003,2|0,0:0|0:0,0:0:0:0:
235,87,173622,2,0,L|341:132,1,82.5000025177003,2|0,0:0|0:0,0:0:0:0:
182,225,174011,6,0,L|168:340,1,82.5000025177003,2|0,0:0|0:0,0:0:0:0:
150,149,174401,2,0,L|195:255,1,82.5000025177003,2|0,0:0|0:0,0:0:0:0:
84,100,174790,2,0,L|176:169,1,82.5000025177003,2|0,0:0|0:0,0:0:0:0:
2,91,175180,2,0,L|118:104,1,82.5000025177003,2|0,0:0|0:0,0:0:0:0:
182,225,175570,6,0,L|288:179,1,82.5000025177003,2|0,0:0|0:0,0:0:0:0:
100,216,175959,2,0,L|215:229,1,82.5000025177003,2|0,0:0|0:0,0:0:0:0:
34,166,176349,2,0,L|126:235,1,82.5000025177003,2|0,0:0|0:0,0:0:0:0:
2,91,176738,2,0,L|47:197,1,82.5000025177003,2|0,0:0|0:0,0:0:0:0:
99,321,177128,6,0,L|151:311,7,44.999998626709,10|0|0|0|10|0|0|0,0:0|3:0|3:0|3:0|0:0|3:0|3:0|3:0,0:0:0:0:
212,261,177907,6,0,L|264:271,7,44.999998626709,10|0|0|0|10|0|0|0,0:0|3:0|3:0|3:0|0:0|3:0|3:0|3:0,0:0:0:0:
342,277,178687,6,0,L|352:225,7,44.999998626709,10|0|0|0|10|0|0|0,0:0|3:0|3:0|3:0|0:0|3:0|3:0|3:0,0:0:0:0:
417,178,179466,6,0,L|407:126,7,44.999998626709,10|0|0|0|10|0|0|0,0:0|3:0|3:0|3:0|0:0|3:0|3:0|3:0,0:0:0:0:
340,80,180245,5,10,0:0:0:0:
321,105,180343,1,0,3:0:0:0:
293,120,180440,1,0,3:0:0:0:
261,123,180537,1,0,3:0:0:0:
229,120,180635,1,10,0:0:0:0:
200,106,180732,1,0,3:0:0:0:
177,83,180830,1,0,3:0:0:0:
163,54,180927,1,0,3:0:0:0:
156,23,181024,6,0,L|96:31,3,44.999998626709,10|0|0|0,0:0|3:0|3:0|3:0,0:0:0:0:
43,82,181414,2,0,L|19:137,3,44.999998626709,10|0|0|0,0:0|3:0|3:0|3:0,0:0:0:0:
2,206,181804,5,10,0:0:0:0:
20,231,181901,1,0,3:0:0:0:
44,251,181998,1,0,3:0:0:0:
72,264,182096,1,0,3:0:0:0:
103,268,182193,1,10,0:0:0:0:
134,266,182291,1,0,3:0:0:0:
164,258,182388,1,0,3:0:0:0:
191,243,182485,1,0,3:0:0:0:
210,218,182583,6,0,L|276:222,3,44.999998626709,10|0|0|0,0:0|3:0|3:0|3:0,0:0:0:0:
310,156,182972,2,0,L|376:152,3,44.999998626709,10|0|0|0,0:0|3:0|3:0|3:0,0:0:0:0:
426,208,183362,6,0,L|422:249,3,37.5,4|0|0|0,3:0|0:0|0:0|0:0,0:0:0:0:
396,260,183671,2,0,L|398:305,3,37.5
380,322,183980,5,4,0:0:0:0:
351,332,184057,1,0,0:0:0:0:
323,344,184135,1,2,3:0:0:0:
294,353,184212,1,2,3:0:0:0:
265,362,184289,2,0,L|95:335,1,150,4|6,0:0|0:0,0:0:0:0:
256,192,184676,12,0,186454,1:0:0:0:
267,187,186764,6,0,B|216:165|216:165|140:185|140:185|173:203,1,168.750006437302,0|0,1:0|0:0,0:0:0:0:
294,209,187073,6,0,L|466:196,1,168.750006437302,6|0,1:0|0:0,0:0:0:0:
496,112,187382,2,0,L|324:99,1,168.750006437302,2|0,1:0|0:0,0:0:0:0:
240,73,187691,2,0,B|189:85|189:85|145:139|145:139|140:185,1,168.750006437302,2|0,1:0|0:0,0:0:0:0:
165,273,188001,2,0,B|153:221|153:221|98:177|98:177|53:172,1,168.750006437302,2|0,1:0|0:0,0:0:0:0:
3,275,188310,6,0,B|68:264|68:264|105:284|105:284|181:270,1,168.750006437302,2|0,1:0|0:0,0:0:0:0:
239,222,188619,2,0,B|298:233|298:233|335:213|335:213|400:224,1,168.750006437302,2|0,1:0|0:0,0:0:0:0:
488,250,188929,2,0,B|508:192|508:192|484:24,1,225.000008583069,2|2,1:0|1:0,0:0:0:0:
484,29,189547,6,0,B|439:21|439:21|403:35|403:35|363:29|363:29|311:54,1,168.750006437302,2|0,1:0|0:0,0:0:0:0:
258,111,189856,2,0,B|218:91|218:91|178:97|178:97|142:83|142:83|97:91,1,168.750006437302,2|0,1:0|0:0,0:0:0:0:
48,170,190166,2,0,B|28:208|28:208|56:290|56:290|85:255,1,168.750006437302,2|0,1:0|0:0,0:0:0:0:
148,198,190475,2,0,B|188:183|188:183|265:222|265:222|227:246,1,168.750006437302,2|0,1:0|0:0,0:0:0:0:
167,306,190784,6,0,B|207:341|207:341|352:312,1,168.750006437302,2|0,1:0|0:0,0:0:0:0:
352,233,191093,2,0,B|392:198|392:198|537:227,1,168.750006437302,2|0,1:0|0:0,0:0:0:0:
473,306,191403,2,0,B|440:260|440:260|458:155|458:155|423:103,1,225.000008583069,2|2,1:0|1:0,0:0:0:0:
423,104,192021,6,0,B|367:111|367:111|318:85|318:85|249:91,1,168.750006437302,6|0,1:0|0:0,0:0:0:0:
213,168,192331,2,0,B|156:163|156:163|107:189|107:189|51:182,1,168.750006437302,2|0,1:0|0:0,0:0:0:0:
6,261,192640,2,0,B|17:306|17:306|77:345|77:345|128:338,1,168.750006437302,2|0,1:0|0:0,0:0:0:0:
216,318,192949,2,0,B|227:273|227:273|287:234|287:234|338:241,1,168.750006437302,2|0,1:0|0:0,0:0:0:0:
389,315,193258,6,0,B|358:278|358:278|380:135,1,168.750006437302,2|0,1:0|0:0,0:0:0:0:
452,108,193568,2,0,B|415:139|415:139|272:117,1,168.750006437302,2|0,1:0|0:0,0:0:0:0:
237,51,193877,2,0,B|186:63|186:63|123:50|123:50|64:68,1,168.750006437302,2|0,1:0|0:0,0:0:0:0:
25,142,194186,2,0,B|37:193|37:193|24:256|24:256|42:315,1,168.750006437302,2|0,1:0|0:0,0:0:0:0:
114,363,194496,6,0,L|178:351,15,58.1250004434586,8|0|0|0|8|0|0|0|8|0|0|0|8|0|0|0,1:2|1:0|1:0|1:0|1:2|1:0|1:0|1:0|1:2|1:0|1:0|1:0|1:2|1:0|1:0|1:0,0:0:0:0:
220,276,195733,6,0,L|284:288,3,60,8|0|0|0,1:2|1:0|1:0|1:0,0:0:0:0:
328,363,196042,2,0,L|392:351,3,60,8|0|0|0,1:2|1:0|1:0|1:0,0:0:0:0:
462,294,196351,5,8,3:0:0:0:
474,271,196428,1,8,3:0:0:0:
482,247,196505,1,8,3:0:0:0:
486,222,196582,1,8,3:0:0:0:
488,197,196660,1,4,3:0:0:0:
485,172,196737,1,4,3:0:0:0:
480,147,196814,1,2,0:0:0:0:
470,124,196892,1,2,0:0:0:0:
458,102,196970,6,0,B|366:11|223:110|271:237|356:255,3,359.999989013672,2|2|2|2,0:0|0:0|0:0|0:0,0:0:0:0:
356,255,201300,6,0,L|345:317,2,44.999998626709,2|2|2,0:0|0:0|0:0,0:0:0:0:
284,135,201918,6,0,B|228:82|152:106,1,134.999995880127,6|4,0:0|3:0,0:0:0:0:
83,147,202382,1,4,3:0:0:0:
125,223,202537,2,0,L|119:301,1,67.4999979400635,4|4,3:0|3:0,0:0:0:0:
207,301,202846,2,0,L|213:223,1,67.4999979400635,4|0,3:0|0:0,0:0:0:0:
284,135,203155,5,8,0:0:0:0:
322,214,203310,1,2,0:0:0:0:
436,256,203465,1,8,0:0:0:0:
357,294,203620,1,2,0:0:0:0:
401,175,203774,5,8,0:0:0:0:
402,171,203851,1,8,0:0:0:0:
404,168,203929,1,2,0:0:0:0:
406,165,204006,1,2,0:0:0:0:
407,161,204083,2,0,B|382:124|331:117,1,67.4999979400635,8|0,0:0|0:0,0:0:0:0:
259,159,204392,6,0,B|183:237|71:182|64:74|121:24,1,314.999990386963,6|0,0:0|0:0,0:0:0:0:
121,24,205630,5,8,0:0:0:0:
186,95,205784,1,2,0:0:0:0:
90,115,205939,1,2,0:0:0:0:
257,165,206093,5,8,0:0:0:0:
282,72,206247,1,2,0:0:0:0:
186,95,206402,1,2,0:0:0:0:
347,146,206557,6,0,L|343:226,1,75,8|0,0:0|0:0,0:0:0:0:
331,315,206867,5,2,0:0:0:0:
331,315,207485,5,2,0:0:0:0:
331,315,208104,6,0,B|268:245|180:275,1,165.000005035401,6|8,0:0|0:0,0:0:0:0:
90,330,208568,1,0,0:0:0:0:
24,246,208722,2,0,B|1:204|19:149,1,82.5000025177003,2|2,0:0|0:0,0:0:0:0:
123,75,209032,2,0,B|146:117|128:172,1,82.5000025177003,8|0,0:0|0:0,0:0:0:0:
54,18,209341,6,0,B|125:80|221:43,1,165.000005035401,2|8,0:0|0:0,0:0:0:0:
309,10,209805,1,0,0:0:0:0:
398,94,209959,1,2,0:0:0:0:
279,131,210114,1,2,0:0:0:0:
412,86,210269,2,0,B|439:120|434:171,1,82.5000025177003,8|0,0:0|0:0,0:0:0:0:
342,269,210578,6,0,B|263:218|179:257,1,165.000005035401,2|8,0:0|0:0,0:0:0:0:
115,336,211042,1,0,0:0:0:0:
43,255,211197,2,0,B|28:212|43:171,1,82.5000025177003,2|2,0:0|0:0,0:0:0:0:
183,173,211506,2,0,B|198:216|183:257,1,82.5000025177003,8|0,0:0|0:0,0:0:0:0:
110,96,211815,6,0,B|222:70|222:70|294:102,1,165.000005035401,2|8,0:0|0:0,0:0:0:0:
267,90,212434,2,0,B|286:49|276:8,1,82.5000025177003,2|2,0:0|0:0,0:0:0:0:
391,116,212743,2,0,B|372:157|382:198,1,82.5000025177003,8|0,0:0|0:0,0:0:0:0:
410,299,213052,5,2,0:0:0:0:
318,356,213207,1,0,0:0:0:0:
219,311,213362,2,0,B|136:269|58:323,1,165.000005035401,8|2,0:0|0:0,0:0:0:0:
62,319,213825,1,2,0:0:0:0:
5,210,213980,2,0,B|35:181|42:132,1,82.5000025177003,8|0,0:0|0:0,0:0:0:0:
103,30,214289,6,0,B|198:1|260:75,1,165.000005035401,2|8,0:0|0:0,0:0:0:0:
308,160,214753,1,0,0:0:0:0:
394,96,214908,2,0,B|438:91|492:87,1,82.5000025177003,2|2,0:0|0:0,0:0:0:0:
510,224,215217,2,0,B|466:229|412:233,1,82.5000025177003,8|0,0:0|0:0,0:0:0:0:
308,160,215526,6,0,B|208:144|167:237,2,165.000005035401,2|8|2,0:0|0:0|0:0,0:0:0:0:
394,96,216300,1,2,0:0:0:0:
273,25,216454,2,0,B|229:20|181:39,1,82.5000025177003,8|0,0:0|0:0,0:0:0:0:
69,106,216764,6,0,B|113:101|161:120,1,82.5000025177003,2|0,0:0|0:0,0:0:0:0:
286,209,217073,2,0,B|313:265|313:265|286:350,1,123.75000377655,12|0,0:0|0:0,0:0:0:0:
281,354,217382,5,8,3:0:0:0:
250,365,217459,1,8,3:0:0:0:
216,368,217537,1,8,3:0:0:0:
183,364,217614,1,8,3:0:0:0:
153,348,217691,2,0,L|89:353,3,41.2500012588501,2|2|2|2,0:0|0:0|0:0|0:0,0:0:0:0:
44,300,218001,6,0,B|26:250|61:176|149:182,1,165.000005035401,6|8,0:0|0:0,0:0:0:0:
229,210,218465,1,0,0:0:0:0:
322,158,218619,2,0,B|343:116|322:60,1,82.5000025177003,2|2,0:0|0:0,0:0:0:0:
194,30,218929,2,0,B|173:72|194:128,1,82.5000025177003,8|0,0:0|0:0,0:0:0:0:
250,236,219238,6,0,B|300:282|381:270|416:210,1,165.000005035401,2|8,0:0|0:0,0:0:0:0:
443,133,219702,1,0,0:0:0:0:
322,158,219856,1,2,0:0:0:0:
361,40,220011,1,2,0:0:0:0:
473,124,220166,2,0,B|501:161|498:210,1,82.5000025177003,8|0,0:0|0:0,0:0:0:0:
410,311,220475,6,0,B|358:288|296:295|259:341,1,165.000005035401,2|8,0:0|0:0,0:0:0:0:
155,311,220939,1,0,0:0:0:0:
237,219,221093,1,2,0:0:0:0:
115,194,221248,1,2,0:0:0:0:
145,331,221403,2,0,B|101:348|64:341,1,82.5000025177003,8|0,0:0|0:0,0:0:0:0:
15,209,221712,6,0,B|2:151|2:151|18:115|18:115|7:47,1,165.000005035401,2|8,0:0|0:0,0:0:0:0:
7,49,222331,1,2,0:0:0:0:
108,14,222485,1,2,0:0:0:0:
204,115,222640,2,0,L|333:106,1,123.75000377655,8|0,0:0|0:0,0:0:0:0:
306,132,222949,6,0,L|223:137,1,82.5000025177003,2|0,0:0|0:0,0:0:0:0:
109,219,223258,2,0,B|105:323|209:334,1,165.000005035401,8|2,0:0|0:0,0:0:0:0:
201,333,223722,1,2,0:0:0:0:
344,316,223877,2,0,B|387:291|383:215,1,82.5000025177003,8|0,0:0|0:0,0:0:0:0:
354,108,224186,6,0,L|447:94,1,82.5000025177003,2|0,0:0|0:0,0:0:0:0:
237,32,224496,2,0,L|144:18,1,82.5000025177003,12|0,0:0|0:0,0:0:0:0:
65,127,224805,5,8,1:2:0:0:
65,127,224882,1,0,1:0:0:0:
65,127,224959,1,0,1:0:0:0:
65,127,225037,1,0,1:0:0:0:
65,127,225114,1,8,1:2:0:0:
65,127,225191,1,0,1:0:0:0:
65,127,225269,1,0,1:0:0:0:
65,127,225346,1,0,1:0:0:0:
65,127,225423,6,0,B|108:190|64:265,1,134.999995880127,6|0,0:0|0:0,0:0:0:0:
45,282,225733,2,0,B|145:232|216:318,1,179.999994506836,8|2,0:0|0:0,0:0:0:0:
208,309,226197,1,2,0:0:0:0:
350,362,226351,2,0,B|366:318|348:265,1,89.9999972534181,8|0,0:0|0:0,0:0:0:0:
261,148,226660,6,0,B|345:213|449:157,1,179.999994506836,2|8,0:0|0:0,0:0:0:0:
352,78,227124,1,0,0:0:0:0:
245,161,227279,1,2,0:0:0:0:
229,26,227434,1,2,0:0:0:0:
121,106,227588,2,0,B|92:149|113:222,1,89.9999972534181,8|0,0:0|0:0,0:0:0:0:
185,324,227898,6,0,B|249:258|352:274,1,179.999994506836,2|8,0:0|0:0,0:0:0:0:
440,349,228362,1,0,0:0:0:0:
504,251,228516,2,0,B|502:203|494:148,1,89.9999972534181,2|2,0:0|0:0,0:0:0:0:
373,68,228825,2,0,B|366:109|364:157,1,89.9999972534181,8|0,0:0|0:0,0:0:0:0:
267,277,229135,6,0,B|143:294|143:294|76:251,1,179.999994506836,2|8,0:0|0:0,0:0:0:0:
96,264,229753,2,0,B|73:299|78:357,1,89.9999972534181,2|2,0:0|0:0,0:0:0:0:
190,196,230063,2,0,B|194:144|171:109,1,89.9999972534181,8|0,0:0|0:0,0:0:0:0:
33,68,230372,5,2,0:0:0:0:
11,182,230526,1,0,0:0:0:0:
96,264,230681,2,0,B|178:350|296:270,1,179.999994506836,8|2,0:0|0:0,0:0:0:0:
260,290,231145,1,2,0:0:0:0:
330,153,231300,2,0,B|287:126|223:144,1,89.9999972534181,8|0,0:0|0:0,0:0:0:0:
423,241,231609,6,0,B|454:199|473:136|429:68,1,179.999994506836,2|8,0:0|0:0,0:0:0:0:
317,48,232073,1,0,0:0:0:0:
243,139,232227,2,0,B|192:143|151:139,1,89.9999972534181,2|2,0:0|0:0,0:0:0:0:
77,273,232537,2,0,B|128:269|169:273,1,89.9999972534181,8|0,0:0|0:0,0:0:0:0:
306,336,232846,6,0,B|349:354|406:331|382:314|436:293|490:315,2,179.999994506836,2|8|2,0:0|0:0|0:0,0:0:0:0:
335,222,233619,1,2,0:0:0:0:
193,280,233774,2,0,B|166:324|187:388,1,89.9999972534181,8|0,0:0|0:0,0:0:0:0:
307,226,234083,6,0,B|322:183|295:139,1,89.9999972534181,2|0,0:0|0:0,0:0:0:0:
146,38,234392,2,0,B|73:31|73:31|22:76,1,134.999995880127,12|0,0:0|0:0,0:0:0:0:
8,103,234702,5,8,3:0:0:0:
11,138,234779,1,8,3:0:0:0:
27,170,234856,1,8,3:0:0:0:
57,189,234934,1,8,3:0:0:0:
91,196,235011,2,0,L|143:190,3,44.999998626709,2|2|2|2,0:0|0:0|0:0|0:0,0:0:0:0:
199,126,235320,6,0,B|244:172|231:254|163:276,1,179.999994506836,6|8,0:0|0:0,0:0:0:0:
61,324,235784,1,0,0:0:0:0:
161,383,235939,2,0,L|260:371,1,89.9999972534181,2|2,0:0|0:0,0:0:0:0:
380,291,236248,2,0,L|281:279,1,89.9999972534181,8|0,0:0|0:0,0:0:0:0:
214,146,236557,6,0,B|258:45|371:69,1,179.999994506836,2|8,0:0|0:0,0:0:0:0:
455,133,237021,1,0,0:0:0:0:
330,187,237176,1,2,0:0:0:0:
438,267,237331,1,2,0:0:0:0:
310,183,237485,2,0,B|287:228|292:283,1,89.9999972534181,8|0,0:0|0:0,0:0:0:0:
170,364,237794,6,0,B|153:262|47:239,1,179.999994506836,2|8,0:0|0:0,0:0:0:0:
5,134,238258,1,0,0:0:0:0:
95,59,238413,2,0,L|194:68,1,89.9999972534181,2|2,0:0|0:0,0:0:0:0:
290,177,238722,2,0,L|191:186,1,89.9999972534181,8|0,0:0|0:0,0:0:0:0:
386,256,239032,6,0,B|422:212|422:120|365:79,1,179.999994506836,2|8,0:0|0:0,0:0:0:0:
378,90,239650,1,2,0:0:0:0:
281,24,239805,1,2,0:0:0:0:
290,177,239959,2,0,L|117:192,1,134.999995880127,8|0,0:0|0:0,0:0:0:0:
179,217,240269,6,0,L|268:208,1,89.9999972534181,2|0,0:0|0:0,0:0:0:0:
390,301,240578,2,0,B|327:384|217:355,1,179.999994506836,8|2,0:0|0:0,0:0:0:0:
230,358,241042,1,2,0:0:0:0:
268,209,241197,2,0,B|280:158|256:100,1,89.9999972534181,8|0,0:0|0:0,0:0:0:0:
136,33,241506,6,0,B|65:19|5:75|17:144,1,179.999994506836,2|8,0:0|0:0,0:0:0:0:
15,131,241970,1,0,0:0:0:0:
80,228,242124,2,0,L|170:215,1,89.9999972534181,2|2,0:0|0:0,0:0:0:0:
285,113,242434,2,0,L|195:100,1,89.9999972534181,8|0,0:0|0:0,0:0:0:0:
392,72,242743,6,0,B|416:124|400:164|386:158|367:199|404:261,2,179.999994506836,2|8|2,0:0|0:0|0:0,0:0:0:0:
296,4,243516,1,2,0:0:0:0:
195,100,243671,2,0,L|285:113,1,89.9999972534181,8|0,0:0|0:0,0:0:0:0:
146,199,243980,6,0,L|56:212,1,89.9999972534181,2|0,0:0|0:0,0:0:0:0:
191,332,244289,1,12,0:0:0:0:
191,332,244599,5,2,0:0:0:0:
279,230,244753,1,2,0:0:0:0:
109,290,244908,1,12,0:0:0:0:
109,290,245217,6,0,L|97:191,1,75,6|0,0:0|0:0,0:0:0:0:
85,65,245526,1,8,1:2:0:0:
102,51,245603,1,0,1:0:0:0:
122,40,245680,1,0,1:0:0:0:
143,32,245757,1,0,1:0:0:0:
165,28,245835,1,8,1:2:0:0:
187,27,245912,1,0,1:0:0:0:
209,30,245989,1,0,1:0:0:0:
231,37,246067,1,0,1:0:0:0:
251,46,246145,6,0,L|250:107,3,37.5,8|0|0|0,1:2|1:0|1:0|1:0,0:0:0:0:
197,137,246454,2,0,L|198:198,3,37.5,8|0|0|0,1:2|1:0|1:0|1:0,0:0:0:0:
251,228,246764,2,0,L|250:289,3,37.5,8|0|0|0,1:2|1:0|0:0|1:0,0:0:0:0:
197,319,247073,5,8,1:2:0:0:
210,337,247150,1,0,1:0:0:0:
226,352,247227,1,0,1:0:0:0:
244,365,247304,1,0,1:0:0:0:
265,374,247382,1,8,1:2:0:0:
287,379,247459,1,0,1:0:0:0:
309,381,247536,1,0,1:0:0:0:
332,378,247614,1,0,1:0:0:0:
353,371,247691,6,0,L|364:284,1,82.5000025177003,6|0,0:0|0:0,0:0:0:0:
395,126,248001,1,8,1:2:0:0:
364,112,248078,1,0,1:0:0:0:
332,107,248155,1,0,1:0:0:0:
300,113,248232,1,0,1:0:0:0:
270,128,248310,1,8,1:2:0:0:
242,145,248387,1,0,1:0:0:0:
212,158,248464,1,0,1:0:0:0:
179,160,248542,1,0,1:0:0:0:
148,150,248619,6,0,L|152:87,3,41.2500012588501,8|8|8|8,3:0|3:0|3:0|3:0,0:0:0:0:
149,26,248929,5,2,0:0:0:0:
8,137,249083,1,10,0:0:0:0:
8,137,249392,5,2,0:0:0:0:
119,278,249546,1,10,0:0:0:0:
119,278,249856,5,2,0:0:0:0:
260,167,250010,1,10,0:0:0:0:
256,192,251403,5,6,0:0:0:0:
256,192,251480,12,0,259444,0:0:0:0:
