osu file format v14

[General]
AudioFilename: audio.mp3
AudioLeadIn: 0
PreviewTime: 75935
Countdown: 0
SampleSet: Soft
StackLeniency: 0.5
Mode: 0
LetterboxInBreaks: 0
WidescreenStoryboard: 0

[Editor]
DistanceSpacing: 1.5
BeatDivisor: 4
GridSize: 4
TimelineZoom: 1

[Metadata]
Title:NEVER SAY NEVER
TitleUnicode:NEVER SAY NEVER
Artist:THREE LIGHTS DOWN KINGS
ArtistUnicode:THREE LIGHTS DOWN KINGS
Creator:Akitoshi
Version:Hard
Source:デュラララ!!×2 承
Tags:Durarara!! x2 Shou Ending Corinn _kotachi_
BeatmapID:1431222
BeatmapSetID:664307

[Difficulty]
HPDrainRate:5
CircleSize:3.7
OverallDifficulty:6
ApproachRate:8
SliderMultiplier:1.4
SliderTickRate:1

[Events]
//Background and Video events
0,0,"durarara1.jpg",0,0
//Break Periods
2,160877,167349
2,197170,201168
//Storyboard Layer 0 (Background)
//Storyboard Layer 1 (Fail)
//Storyboard Layer 2 (Pass)
//Storyboard Layer 3 (Foreground)
//Storyboard Sound Samples

[TimingPoints]
4801,309.278350515464,4,2,5,75,1,0
9749,-125,4,2,1,50,0,0
10986,-125,4,2,5,50,0,0
11141,-125,4,2,1,50,0,0
12223,-100,4,2,5,75,0,0
14388,-100,4,2,5,75,0,0
14620,-100,4,2,5,20,0,0
14697,-100,4,2,5,75,0,0
34491,-125,4,2,5,50,0,0
51811,-111.111111111111,4,2,5,60,0,0
53280,-111.111111111111,4,2,5,20,0,0
53357,-111.111111111111,4,2,5,60,0,0
54285,-105.263157894737,4,2,5,75,0,0
64182,-100,4,2,5,75,0,0
69130,-125,4,2,5,50,0,0
70368,-125,4,2,1,50,0,0
71605,-125,4,2,5,50,0,0
72687,-125,4,2,1,50,0,0
74079,-111.111111111111,4,2,5,75,0,0
75316,-105.263157894737,4,2,5,75,0,0
76553,-90.9090909090909,4,2,5,90,0,1
79259,-90.9090909090909,4,2,5,20,0,1
79337,-90.9090909090909,4,2,5,90,0,1
82043,-90.9090909090909,4,2,5,20,0,1
82120,-90.9090909090909,4,2,5,90,0,1
85754,-90.9090909090909,4,2,5,20,0,1
85831,-90.9090909090909,4,2,5,90,0,1
87919,-90.9090909090909,4,2,5,20,0,1
87996,-90.9090909090909,4,2,5,90,0,1
91940,-90.9090909090909,4,2,5,20,0,1
92017,-90.9090909090909,4,2,5,90,0,1
96347,-125,4,2,5,60,0,0
98821,-100,4,2,5,75,0,0
101218,-100,4,2,5,20,0,0
101295,-100,4,2,5,75,0,0
117687,-100,4,2,1,75,0,0
117842,-100,4,2,5,75,0,0
118615,-111.111111111111,4,2,5,60,0,0
123563,-111.111111111111,4,2,5,60,0,0
128512,-100,4,2,5,75,0,0
137172,-100,4,2,5,75,0,0
138409,-90.9090909090909,4,2,5,90,0,1
138950,-90.9090909090909,4,2,5,20,0,1
139027,-90.9090909090909,4,2,5,90,0,1
139878,-90.9090909090909,4,2,5,20,0,1
139955,-90.9090909090909,4,2,5,90,0,1
140806,-90.9090909090909,4,2,5,20,0,1
140883,-90.9090909090909,4,2,5,90,0,1
143280,-90.9090909090909,4,2,5,20,0,1
143357,-90.9090909090909,4,2,5,90,0,1
148538,-90.9090909090909,4,2,5,20,0,1
148615,-90.9090909090909,4,2,5,90,0,1
149775,-90.9090909090909,4,2,5,20,0,1
149852,-90.9090909090909,4,2,5,90,0,1
151940,-90.9090909090909,4,2,5,20,0,1
152017,-90.9090909090909,4,2,5,90,0,1
160368,-111.111111111111,4,2,5,90,0,1
160599,-111.111111111111,4,2,5,20,0,1
160677,-100,4,2,5,75,0,0
169337,389.61038961039,4,2,5,50,1,0
170895,389.61038961039,4,2,5,75,1,0
170895,-100,4,2,5,75,0,0
177128,-90.9090909090909,4,2,5,75,0,0
183362,309.278350515464,4,2,1,60,1,0
184599,-83.3333333333333,4,2,5,90,0,0
186996,-83.3333333333333,4,2,5,20,0,0
187073,-83.3333333333333,4,2,5,90,0,0
191944,-83.3333333333333,4,2,5,20,0,0
192021,-83.3333333333333,4,2,5,90,0,0
194418,-83.3333333333333,4,2,5,20,0,0
194496,-83.3333333333333,4,2,5,75,0,0
195733,-83.3333333333333,4,2,5,90,0,0
196970,-100,4,2,5,50,0,0
201454,-100,4,2,1,50,0,0
201609,-100,4,2,5,50,0,0
201918,-100,4,2,5,75,0,0
204392,-125,4,2,5,60,0,0
205320,-125,4,2,5,20,0,0
205630,-100,4,2,5,75,0,0
206867,-125,4,2,1,50,0,0
208104,-90.9090909090909,4,2,5,90,0,1
208645,-90.9090909090909,4,2,5,20,0,1
208722,-90.9090909090909,4,2,5,90,0,1
209573,-90.9090909090909,4,2,5,20,0,1
209650,-90.9090909090909,4,2,5,90,0,1
210501,-90.9090909090909,4,2,5,20,0,1
210578,-90.9090909090909,4,2,5,90,0,1
212975,-90.9090909090909,4,2,5,20,0,1
213052,-90.9090909090909,4,2,5,90,0,1
218233,-90.9090909090909,4,2,5,20,0,1
218310,-90.9090909090909,4,2,5,90,0,1
219470,-90.9090909090909,4,2,5,20,0,1
219547,-90.9090909090909,4,2,5,90,0,1
221635,-90.9090909090909,4,2,5,20,0,1
221712,-90.9090909090909,4,2,5,90,0,1
224727,-90.9090909090909,4,2,5,20,0,1
224805,-90.9090909090909,4,2,5,90,0,1
225423,-90.9090909090909,4,2,5,90,0,1
225655,-90.9090909090909,4,2,5,20,0,1
225733,-90.9090909090909,4,2,5,90,0,1
228130,-90.9090909090909,4,2,5,20,0,1
228207,-90.9090909090909,4,2,5,90,0,1
236789,-90.9090909090909,4,2,5,20,0,1
236867,-90.9090909090909,4,2,5,90,0,1
240810,-90.9090909090909,4,2,5,20,0,1
240887,-90.9090909090909,4,2,5,90,0,1
245217,-100,4,2,5,75,0,0
247691,-95.2380952380952,4,2,5,75,0,0
248929,-90.9090909090909,4,2,5,75,0,0
256351,-100,4,2,5,50,0,0
257588,-100,4,2,5,30,0,0
258825,-100,4,2,5,15,0,0
259444,-100,4,2,5,5,0,0

[Colours]
Combo1 : 255,128,255
Combo2 : 128,128,255
Combo3 : 10,98,245
Combo4 : 242,24,57

[HitObjects]
61,215,4801,6,0,P|142:204|202:247,1,140,6|8,0:0|0:0,0:0:0:0:
245,295,5264,2,0,L|335:283,1,70,2|0,0:0|0:0,0:0:0:0:
372,224,5574,2,0,L|462:236,1,70,2|0,0:0|0:0,0:0:0:0:
490,164,5883,6,0,P|499:91|465:17,2,140,2|2|0,0:0|0:0|1:0,0:0:0:0:
441,233,6656,1,8,0:0:0:0:
368,275,6811,1,8,3:0:0:0:
284,268,6965,2,0,L|276:187,1,70,4|0,3:0|0:0,0:0:0:0:
250,117,7275,6,0,B|212:106|174:116|185:125|149:150|91:123,1,140,6|8,0:0|0:0,0:0:0:0:
37,96,7739,2,0,P|30:139|39:173,1,70,2|0,0:0|0:0,0:0:0:0:
97,221,8048,2,0,P|104:264|95:298,1,70,2|0,0:0|0:0,0:0:0:0:
31,339,8357,6,0,L|175:353,2,140,2|2|0,0:0|0:0|1:0,0:0:0:0:
14,256,9130,1,8,0:0:0:0:
41,176,9285,1,8,3:0:0:0:
115,137,9440,2,0,L|211:146,1,70,4|0,3:0|0:0,0:0:0:0:
263,172,9749,6,0,P|271:119|268:43,1,112,2|0,0:0|0:0,0:0:0:0:
345,39,10213,2,0,P|356:82|366:112,1,56,2|0,0:0|0:0,0:0:0:0:
430,126,10522,2,0,P|419:169|409:199,1,56,2|0,0:0|0:0,0:0:0:0:
381,251,10831,1,2,0:0:0:0:
381,251,10986,5,2,0:0:0:0:
303,240,11141,2,0,P|241:247|200:281,2,112,2|2|0,0:0|0:0|0:0,0:0:0:0:
381,251,11914,2,0,L|374:187,1,56,2|0,0:0|0:0,0:0:0:0:
363,90,12223,6,0,L|444:79,1,70,6|0,0:0|0:0,0:0:0:0:
279,55,12532,2,0,L|360:66,1,70,6|0,0:0|0:0,0:0:0:0:
195,90,12842,2,0,L|276:79,1,70,6|0,0:0|0:0,0:0:0:0:
111,55,13151,2,0,L|192:66,1,70,6|0,0:0|0:0,0:0:0:0:
224,182,13460,6,0,P|160:225|78:219,1,140,6|0,0:0|0:0,0:0:0:0:
32,174,13924,2,0,L|40:105,2,70,4|0|2,3:0|0:0|0:0,0:0:0:0:
4,253,14388,2,0,L|16:362,1,105,4|0,1:2|0:0,0:0:0:0:
16,357,14697,6,0,P|73:335|167:357,1,140,6|8,0:0|0:0,0:0:0:0:
233,338,15161,2,0,P|242:296|239:257,1,70,0|2,0:0|0:0,0:0:0:0:
184,206,15471,2,0,P|175:164|178:125,1,70,2|8,0:0|0:0,0:0:0:0:
213,61,15780,6,0,B|307:46|307:46|361:66,1,140,2|2,0:0|0:0,0:0:0:0:
421,115,16244,1,8,0:0:0:0:
421,115,16398,2,0,P|392:180|409:257,1,140,0|2,0:0|0:0,0:0:0:0:
419,328,16862,2,0,L|337:322,1,70,8|0,0:0|0:0,0:0:0:0:
281,271,17172,6,0,P|238:243|125:259,1,140,2|8,0:0|0:0,0:0:0:0:
72,273,17636,2,0,L|62:198,1,70,0|2,0:0|0:0,0:0:0:0:
1,145,17945,2,0,L|11:70,1,70,2|8,0:0|0:0,0:0:0:0:
79,27,18254,6,0,B|118:54|118:54|225:34,1,140,2|2,0:0|0:0,0:0:0:0:
294,21,18718,1,8,0:0:0:0:
294,21,18873,2,0,P|319:77|302:163,1,140,0|2,0:0|0:0,0:0:0:0:
240,203,19337,2,0,L|249:272,1,70,8|0,0:0|0:0,0:0:0:0:
291,345,19646,6,0,P|354:361|442:328,1,140,2|8,0:0|0:0,0:0:0:0:
473,272,20110,2,0,L|482:202,1,70,0|2,0:0|0:0,0:0:0:0:
502,120,20419,2,0,L|492:50,1,70,2|8,0:0|0:0,0:0:0:0:
415,16,20728,6,0,B|368:43|368:43|264:27,1,140,2|2,0:0|0:0,0:0:0:0:
204,16,21192,1,8,0:0:0:0:
204,16,21347,2,0,B|183:56|202:88|206:81|224:115|201:166,1,140,0|2,0:0|0:0,0:0:0:0:
155,219,21811,2,0,L|167:301,1,70,8|0,0:0|0:0,0:0:0:0:
225,346,22120,6,0,P|175:318|73:334,1,140,2|8,0:0|0:0,0:0:0:0:
27,373,22584,2,0,P|55:323|39:221,1,140,0|2,0:0|0:0,0:0:0:0:
16,171,23048,5,8,0:0:0:0:
16,171,23203,2,0,L|157:153,1,140,2|2,0:0|0:0,0:0:0:0:
206,87,23666,2,0,L|276:96,1,70,8|0,0:0|0:0,0:0:0:0:
340,150,23976,2,0,L|375:145,3,35,8|8|8|8,3:0|3:0|3:0|3:0,0:0:0:0:
401,113,24285,2,0,L|436:117,3,35,4|4|2|2,3:0|3:0|0:0|0:0,0:0:0:0:
474,135,24594,6,0,P|495:207|467:279,1,140,6|8,0:0|0:0,0:0:0:0:
412,322,25058,2,0,L|328:316,1,70,0|2,0:0|0:0,0:0:0:0:
278,260,25368,2,0,L|194:266,1,70,2|8,0:0|0:0,0:0:0:0:
146,322,25677,6,0,P|167:279|155:170,1,140,2|2,0:0|0:0,0:0:0:0:
85,172,26141,1,8,0:0:0:0:
85,172,26295,2,0,P|64:215|76:324,1,140,0|2,0:0|0:0,0:0:0:0:
136,353,26759,2,0,L|229:343,1,70,8|0,0:0|0:0,0:0:0:0:
272,293,27069,6,0,L|365:303,1,70,2|0,0:0|0:0,0:0:0:0:
421,342,27378,1,8,0:0:0:0:
421,342,27532,2,0,B|448:299|448:299|433:206,1,140,0|2,0:0|0:0,0:0:0:0:
382,151,27996,1,8,0:0:0:0:
382,151,28151,6,0,P|344:146|300:159,1,70,2|0,0:0|0:0,0:0:0:0:
249,207,28460,2,0,P|211:212|167:199,1,70,2|8,0:0|0:0,0:0:0:0:
123,142,28770,2,0,P|143:208|110:282,1,140,0|2,0:0|0:0,0:0:0:0:
35,265,29233,2,0,L|26:183,1,70,8|0,0:0|0:0,0:0:0:0:
42,111,29543,6,0,P|95:115|181:65,1,140,2|8,0:0|0:0,0:0:0:0:
231,18,30007,2,0,L|305:26,1,70,0|2,0:0|0:0,0:0:0:0:
339,100,30316,2,0,L|413:92,1,70,2|8,0:0|0:0,0:0:0:0:
479,47,30625,6,0,B|501:87|501:87|484:194,1,140,2|0,0:0|0:0,0:0:0:0:
424,237,31089,1,8,0:0:0:0:
424,237,31244,2,0,P|350:213|279:230,1,140,0|2,0:0|0:0,0:0:0:0:
213,259,31708,2,0,L|201:180,1,70,8|0,0:0|0:0,0:0:0:0:
177,109,32017,6,0,P|103:85|32:102,1,140,2|8,0:0|0:0,0:0:0:0:
4,170,32481,2,0,B|0:265|0:265|28:310,1,140,0|2,0:0|0:0,0:0:0:0:
97,356,32945,1,8,0:0:0:0:
97,356,33099,2,0,P|171:332|242:349,1,140,2|2,0:0|0:0,0:0:0:0:
310,371,33563,1,8,0:0:0:0:
384,297,33718,5,0,1:0:0:0:
384,297,33795,1,0,1:0:0:0:
384,297,33873,2,0,L|372:214,1,70,8|8,0:0|3:0,0:0:0:0:
299,188,34182,2,0,L|311:105,1,70,4|2,3:0|3:0,0:0:0:0:
320,40,34491,6,0,P|263:24|202:34,2,112,2|2|2,0:0|0:0|0:0,0:0:0:0:
443,136,35419,1,2,0:0:0:0:
320,233,35728,2,0,P|263:249|202:239,2,112,2|2|2,0:0|0:0|0:0,0:0:0:0:
443,136,36656,1,2,0:0:0:0:
320,40,36965,6,0,L|202:47,1,112,2|2,0:0|0:0,0:0:0:0:
84,143,37584,2,0,L|202:150,1,112,2|2,0:0|0:0,0:0:0:0:
320,245,38203,2,0,L|202:252,1,112,2|2,0:0|0:0,0:0:0:0:
84,348,38822,2,0,L|202:355,1,112,2|2,0:0|0:0,0:0:0:0:
349,325,39440,6,0,B|403:348|403:348|470:340,2,112,6|2|2,0:0|0:0|0:0,0:0:0:0:
209,252,40368,1,2,0:0:0:0:
349,183,40677,2,0,B|403:160|403:160|470:168,2,112,2|2|2,0:0|0:0|0:0,0:0:0:0:
209,252,41605,1,2,0:0:0:0:
68,183,41914,6,0,L|78:71,1,112,2|2,0:0|0:0,0:0:0:0:
222,11,42532,2,0,L|232:123,1,112,2|2,0:0|0:0,0:0:0:0:
367,202,43151,2,0,B|440:192|440:192|493:208,1,112,2|2,0:0|0:0,0:0:0:0:
506,357,43770,2,0,B|433:367|433:367|380:351,1,112,2|2,0:0|0:0,0:0:0:0:
323,328,44233,1,8,0:0:0:0:
323,328,44388,6,0,L|211:340,2,112,6|2|2,0:0|0:0|0:0,0:0:0:0:
472,279,45316,1,2,0:0:0:0:
394,142,45625,2,0,P|336:118|280:122,1,112,2|2,0:0|0:0,0:0:0:0:
145,187,46244,2,0,L|152:243,1,56,2|2,0:0|3:0,0:0:0:0:
218,284,46553,2,0,L|211:340,1,56,2|2,0:0|3:0,0:0:0:0:
138,369,46862,6,0,P|81:361|32:328,2,112,2|2|2,0:0|0:0|0:0,0:0:0:0:
292,339,47790,1,2,0:0:0:0:
392,218,48099,2,0,P|449:226|498:259,2,112,2|2|2,0:0|0:0|0:0,0:0:0:0:
238,253,49027,2,0,L|163:244,1,56,2|8,0:0|0:0,0:0:0:0:
108,219,49337,6,0,B|92:166|92:166|107:109,1,112,6|2,0:0|0:0,0:0:0:0:
247,44,49955,2,0,B|263:97|263:97|248:154,1,112,2|2,0:0|0:0,0:0:0:0:
199,301,50574,2,0,L|88:316,2,112,2|2|2,0:0|0:0|0:0,0:0:0:0:
342,237,51502,2,0,L|397:244,1,56,2|8,0:0|0:0,0:0:0:0:
473,289,51811,6,0,P|487:246|475:146,1,125.999996154785,6|2,0:0|0:0,0:0:0:0:
439,96,52275,1,0,0:0:0:0:
362,123,52429,2,0,L|295:115,1,62.9999980773926,2|0,0:0|0:0,0:0:0:0:
242,55,52739,2,0,L|175:63,1,62.9999980773926,2|0,0:0|0:0,0:0:0:0:
131,129,53048,6,0,P|132:89|75:19,2,125.999996154785,2|2|2,0:0|0:0|0:0,0:0:0:0:
89,199,53821,1,8,0:0:0:0:
15,236,53976,2,0,L|29:325,1,62.9999980773926,2|0,0:0|0:0,0:0:0:0:
114,343,54285,6,0,B|156:322|156:322|260:337,1,132.999996448517,6|2,0:0|0:0,0:0:0:0:
389,273,54904,1,8,0:0:0:0:
389,273,55058,2,0,L|377:114,3,132.999996448517,2|2|2|2,0:0|0:0|0:0|0:0,0:0:0:0:
336,72,56141,2,0,P|302:69|264:80,1,66.4999982242585,8|2,0:0|0:0,0:0:0:0:
210,128,56450,2,0,P|176:131|138:120,1,66.4999982242585,0|0,0:0|0:0,0:0:0:0:
45,116,56759,6,0,B|66:158|66:158|51:262,1,132.999996448517,6|2,0:0|0:0,0:0:0:0:
166,363,57378,1,8,0:0:0:0:
166,363,57532,2,0,P|217:335|316:348,3,132.999996448517,2|2|2|2,0:0|0:0|0:0|0:0,0:0:0:0:
368,356,58615,2,0,L|377:270,1,66.4999982242585,8|2,0:0|0:0,0:0:0:0:
437,240,58924,2,0,L|428:154,1,66.4999982242585,0|0,0:0|0:0,0:0:0:0:
427,73,59233,6,0,P|361:61|298:90,1,132.999996448517,6|2,0:0|0:0,0:0:0:0:
160,160,59852,1,8,0:0:0:0:
160,160,60007,2,0,L|143:14,3,132.999996448517,2|2|2|2,0:0|0:0|0:0|0:0,0:0:0:0:
65,14,61089,2,0,L|54:101,1,66.4999982242585,8|2,0:0|0:0,0:0:0:0:
4,140,61398,2,0,L|14:227,1,66.4999982242585,0|0,0:0|0:0,0:0:0:0:
58,295,61708,6,0,P|113:316|191:292,1,132.999996448517,6|2,0:0|0:0,0:0:0:0:
277,170,62326,1,8,0:0:0:0:
277,170,62481,2,0,L|294:24,3,132.999996448517,2|2|2|2,0:0|0:0|0:0|0:0,0:0:0:0:
370,19,63563,2,0,L|412:23,3,33.2499991121292,8|8|8|8,3:0|3:0|3:0|3:0,0:0:0:0:
429,52,63873,2,0,L|471:48,3,33.2499991121292,4|4|2|2,3:0|3:0|0:0|0:0,0:0:0:0:
500,31,64182,6,0,P|511:108|492:179,1,140,6|8,0:0|0:0,0:0:0:0:
436,225,64646,1,0,0:0:0:0:
436,225,64801,2,0,L|344:216,1,70,2|2,0:0|0:0,0:0:0:0:
308,157,65110,2,0,L|216:166,1,70,8|0,0:0|0:0,0:0:0:0:
183,227,65419,6,0,P|196:170|160:92,2,140,2|8|2,0:0|0:0|0:0,0:0:0:0:
125,288,66192,1,2,0:0:0:0:
184,348,66347,2,0,L|268:353,1,70,8|0,0:0|0:0,0:0:0:0:
323,305,66656,6,0,B|361:294|361:294|409:336|472:317,1,140,6|8,0:0|0:0,0:0:0:0:
509,258,67120,1,0,0:0:0:0:
509,258,67275,2,0,L|502:187,1,70,2|2,0:0|0:0,0:0:0:0:
427,148,67584,2,0,L|434:77,1,70,8|0,0:0|0:0,0:0:0:0:
479,7,67893,6,0,P|428:43|343:41,1,140,2|8,0:0|0:0,0:0:0:0:
255,26,68357,1,8,0:0:0:0:
255,26,68435,1,8,0:0:0:0:
255,26,68512,2,0,L|261:112,1,70,8|8,0:0|3:0,0:0:0:0:
327,145,68821,2,0,L|321:231,1,70,0|2,0:0|0:0,0:0:0:0:
249,293,69130,5,6,0:0:0:0:
249,293,70368,5,2,0:0:0:0:
249,293,71605,5,6,0:0:0:0:
249,293,72687,5,2,0:0:0:0:
249,293,72764,1,2,0:0:0:0:
249,293,72842,2,0,P|182:319|93:290,2,168,2|2|2,0:0|0:0|0:0,0:0:0:0:
256,192,74079,12,8,76244,3:0:0:0:
360,250,76553,6,0,P|300:223|200:261,1,154.000004699707,6|8,0:0|0:0,0:0:0:0:
145,302,77017,1,0,0:0:0:0:
59,265,77172,2,0,L|50:173,1,77.0000023498536,2|2,0:0|0:0,0:0:0:0:
2,110,77481,2,0,L|11:18,1,77.0000023498536,8|0,0:0|0:0,0:0:0:0:
96,29,77790,6,0,P|163:67|244:59,1,154.000004699707,2|8,0:0|0:0,0:0:0:0:
329,34,78254,1,0,0:0:0:0:
418,75,78409,1,2,0:0:0:0:
418,75,78563,1,2,0:0:0:0:
453,160,78718,2,0,P|428:187|376:203,1,77.0000023498536,8|0,0:0|0:0,0:0:0:0:
298,207,79027,6,0,B|313:302|313:302|293:373,2,154.000004699707,2|8|2,0:0|0:0|0:0,0:0:0:0:
280,115,79801,1,2,0:0:0:0:
212,52,79955,2,0,P|172:60|141:82,1,77.0000023498536,8|0,0:0|0:0,0:0:0:0:
125,172,80264,6,0,B|135:222|135:222|120:281|120:281|130:338,1,154.000004699707,2|8,0:0|0:0,0:0:0:0:
17,173,80883,2,0,P|11:131|21:93,1,77.0000023498536,2|2,0:0|0:0,0:0:0:0:
69,20,81192,2,0,P|111:14|149:24,1,77.0000023498536,8|0,0:0|0:0,0:0:0:0:
223,82,81502,5,2,0:0:0:0:
223,82,81656,1,0,0:0:0:0:
245,171,81811,2,0,P|306:192|397:162,1,154.000004699707,8|2,0:0|0:0,0:0:0:0:
458,106,82275,1,2,0:0:0:0:
501,187,82429,2,0,L|512:286,1,77.0000023498536,8|0,0:0|0:0,0:0:0:0:
476,350,82739,6,0,P|415:329|324:359,2,154.000004699707,2|8|2,0:0|0:0|0:0,0:0:0:0:
509,263,83512,1,2,0:0:0:0:
443,198,83666,2,0,L|346:207,1,77.0000023498536,8|0,0:0|0:0,0:0:0:0:
296,267,83976,6,0,P|223:231|129:253,2,154.000004699707,2|8|2,0:0|0:0|0:0,0:0:0:0:
331,353,84749,1,2,0:0:0:0:
420,328,84904,2,0,L|426:245,1,77.0000023498536,8|0,0:0|0:0,0:0:0:0:
485,180,85213,6,0,L|479:97,1,77.0000023498536,2|0,0:0|0:0,0:0:0:0:
372,58,85522,2,0,L|366:141,1,77.0000023498536,12|0,0:0|0:0,0:0:0:0:
288,187,85831,2,0,L|240:190,3,38.5000011749268,8|8|8|8,3:0|3:0|3:0|3:0,0:0:0:0:
217,223,86141,2,0,L|169:220,3,38.5000011749268,2|2|2|2,0:0|0:0|0:0|0:0,0:0:0:0:
140,194,86450,6,0,P|84:203|6:144,1,154.000004699707,6|8,0:0|0:0,0:0:0:0:
5,57,86914,1,0,0:0:0:0:
93,28,87069,2,0,L|201:17,1,77.0000023498536,2|2,0:0|0:0,0:0:0:0:
262,23,87378,2,0,P|278:60|273:131,1,77.0000023498536,8|0,0:0|0:0,0:0:0:0:
204,149,87687,6,0,B|251:132|283:145|275:154|310:165|360:144,1,154.000004699707,2|8,0:0|0:0,0:0:0:0:
444,127,88151,1,0,0:0:0:0:
503,204,88306,1,2,0:0:0:0:
503,204,88460,1,2,0:0:0:0:
475,292,88615,2,0,P|445:275|379:272,1,77.0000023498536,8|0,0:0|0:0,0:0:0:0:
312,285,88924,6,0,P|236:322|165:312,2,154.000004699707,2|8|2,0:0|0:0|0:0,0:0:0:0:
343,197,89697,1,2,0:0:0:0:
358,105,89852,2,0,P|393:96|445:101,1,77.0000023498536,8|0,0:0|0:0,0:0:0:0:
505,156,90161,6,0,L|499:332,1,154.000004699707,2|8,0:0|0:0,0:0:0:0:
318,349,90780,2,0,P|301:313|302:263,1,77.0000023498536,2|2,0:0|0:0,0:0:0:0:
325,187,91089,2,0,L|235:197,1,77.0000023498536,8|0,0:0|0:0,0:0:0:0:
160,206,91398,5,2,0:0:0:0:
160,206,91553,1,0,0:0:0:0:
114,125,91708,2,0,P|136:68|223:25,1,154.000004699707,8|2,0:0|0:0,0:0:0:0:
308,22,92172,1,2,0:0:0:0:
378,83,92326,2,0,L|370:179,1,77.0000023498536,8|0,0:0|0:0,0:0:0:0:
300,219,92636,6,0,P|365:198|460:227,2,154.000004699707,2|8|2,0:0|0:0|0:0,0:0:0:0:
259,302,93409,1,2,0:0:0:0:
333,357,93563,2,0,P|370:370|414:367,1,77.0000023498536,8|0,0:0|0:0,0:0:0:0:
468,297,93873,6,0,L|477:123,2,154.000004699707,2|8|2,0:0|0:0|0:0,0:0:0:0:
407,368,94646,1,2,0:0:0:0:
346,297,94801,2,0,L|341:210,1,77.0000023498536,8|0,0:0|0:0,0:0:0:0:
326,130,95110,6,0,P|260:113|170:148,1,154.000004699707,2|8,0:0|0:0,0:0:0:0:
107,229,95574,1,8,0:0:0:0:
107,229,95651,1,8,0:0:0:0:
107,229,95728,2,0,L|16:222,1,77.0000023498536,8|8,0:0|0:0,0:0:0:0:
2,134,96038,2,0,L|93:127,1,77.0000023498536,4|0,3:0|0:0,0:0:0:0:
152,43,96347,6,0,P|234:71|199:284,1,336,6|0,0:0|0:0,0:0:0:0:
211,278,97584,6,0,B|433:243|433:243|344:312,1,336,6|0,0:0|0:0,0:0:0:0:
319,144,98821,5,6,0:0:0:0:
319,144,98976,2,0,L|404:132,1,70,2|0,0:0|0:0,0:0:0:0:
278,58,99285,1,2,0:0:0:0:
278,58,99440,2,0,L|193:46,1,70,2|0,0:0|0:0,0:0:0:0:
128,72,99749,2,0,P|118:113|118:146,1,70,4|0,0:0|0:0,0:0:0:0:
133,244,100058,5,8,0:0:0:0:
133,244,100213,2,0,L|281:228,1,140,8|8,0:0|0:0,0:0:0:0:
352,253,100677,2,0,P|364:292|366:341,1,70,8|2,0:0|0:0,0:0:0:0:
459,350,100986,2,0,P|463:301|501:258,1,105,8|0,0:0|0:0,0:0:0:0:
498,259,101295,6,0,L|481:111,1,140,6|8,0:0|0:0,0:0:0:0:
429,54,101759,2,0,P|391:63|347:58,1,70,0|2,0:0|0:0,0:0:0:0:
278,85,102069,2,0,P|240:76|196:81,1,70,2|8,0:0|0:0,0:0:0:0:
138,122,102378,6,0,B|123:212|123:212|149:265,1,140,2|2,0:0|0:0,0:0:0:0:
193,331,102842,1,8,0:0:0:0:
193,331,102996,2,0,P|258:304|340:316,1,140,0|2,0:0|0:0,0:0:0:0:
405,338,103460,2,0,L|414:256,1,70,8|0,0:0|0:0,0:0:0:0:
485,224,103770,6,0,P|415:230|352:203,1,140,2|8,0:0|0:0,0:0:0:0:
296,140,104233,2,0,L|218:149,1,70,0|2,0:0|0:0,0:0:0:0:
177,216,104543,2,0,L|99:207,1,70,2|8,0:0|0:0,0:0:0:0:
52,144,104852,6,0,B|75:184|75:184|52:297,1,140,2|2,0:0|0:0,0:0:0:0:
108,349,105316,1,8,0:0:0:0:
108,349,105471,2,0,P|169:327|256:346,1,140,0|2,0:0|0:0,0:0:0:0:
320,368,105935,2,0,L|398:358,1,70,8|0,0:0|0:0,0:0:0:0:
472,347,106244,6,0,B|495:307|495:307|472:194,1,140,2|8,0:0|0:0,0:0:0:0:
463,131,106708,2,0,P|423:126|383:137,1,70,0|2,0:0|0:0,0:0:0:0:
333,190,107017,2,0,P|293:195|253:184,1,70,2|8,0:0|0:0,0:0:0:0:
206,127,107326,6,0,P|225:202|196:260,1,140,2|2,0:0|0:0,0:0:0:0:
124,288,107790,1,8,0:0:0:0:
124,288,107945,2,0,P|70:232|66:167,1,140,0|2,0:0|0:0,0:0:0:0:
124,113,108409,2,0,L|127:41,1,70,8|0,0:0|0:0,0:0:0:0:
206,14,108718,6,0,B|251:33|251:33|366:23,1,140,2|8,0:0|0:0,0:0:0:0:
425,14,109182,2,0,P|453:56|441:148,1,140,0|2,0:0|0:0,0:0:0:0:
380,196,109646,5,8,0:0:0:0:
380,196,109801,2,0,B|335:177|335:177|220:187,1,140,2|2,0:0|0:0,0:0:0:0:
165,212,110264,2,0,P|156:245|162:290,1,70,8|0,0:0|0:0,0:0:0:0:
217,341,110574,2,0,L|260:344,3,35,8|8|8|8,3:0|3:0|3:0|3:0,0:0:0:0:
288,364,110883,2,0,L|331:361,3,35,4|4|2|2,3:0|3:0|0:0|0:0,0:0:0:0:
351,330,111192,6,0,B|403:322|442:347|442:347|488:321,1,140,6|8,0:0|0:0,0:0:0:0:
500,242,111656,2,0,L|492:164,1,70,0|2,0:0|0:0,0:0:0:0:
420,130,111965,2,0,L|428:52,1,70,2|8,0:0|0:0,0:0:0:0:
347,32,112275,6,0,P|284:53|204:39,1,140,2|2,0:0|0:0,0:0:0:0:
151,101,112739,1,8,0:0:0:0:
151,101,112893,2,0,P|172:164|158:244,1,140,0|2,0:0|0:0,0:0:0:0:
109,301,113357,2,0,P|134:314|193:313,1,70,8|0,0:0|0:0,0:0:0:0:
254,287,113666,6,0,P|279:274|338:275,1,70,2|0,0:0|0:0,0:0:0:0:
407,292,113976,1,8,0:0:0:0:
407,292,114130,2,0,B|434:249|434:249|419:156,1,140,0|2,0:0|0:0,0:0:0:0:
357,113,114594,1,8,0:0:0:0:
357,113,114749,6,0,L|269:110,1,70,2|0,0:0|0:0,0:0:0:0:
287,26,115058,2,0,L|375:23,1,70,2|8,0:0|0:0,0:0:0:0:
441,24,115368,2,0,P|489:67|510:157,1,140,0|2,0:0|0:0,0:0:0:0:
487,217,115831,2,0,L|408:214,1,70,8|0,0:0|0:0,0:0:0:0:
347,166,116141,6,0,P|282:162|204:211,1,140,2|8,0:0|0:0,0:0:0:0:
196,278,116605,2,0,L|270:286,1,70,0|2,0:0|0:0,0:0:0:0:
317,351,116914,2,0,L|391:343,1,70,2|8,0:0|0:0,0:0:0:0:
440,278,117223,6,0,L|514:286,2,70,0|2|8,0:0|0:0|0:0,0:0:0:0:
380,218,117687,2,0,P|371:178|376:143,1,70,2|2,0:0|0:0,0:0:0:0:
400,69,117996,1,8,0:0:0:0:
327,26,118151,1,8,3:0:0:0:
250,61,118306,2,0,P|210:70|175:65,1,70,4|4,3:0|3:0,0:0:0:0:
94,30,118615,5,6,0:0:0:0:
94,30,118770,1,2,0:0:0:0:
36,88,118924,2,0,L|57:289,1,188.999994232178,8|2,0:0|0:0,0:0:0:0:
96,348,119543,2,0,P|131:350|170:335,1,62.9999980773926,8|0,0:0|0:0,0:0:0:0:
213,281,119852,6,0,L|218:204,1,62.9999980773926,2|2,0:0|0:0,0:0:0:0:
229,140,120161,1,8,0:0:0:0:
229,140,120316,2,0,P|287:118|368:145,1,125.999996154785,2|2,0:0|0:0,0:0:0:0:
400,194,120780,2,0,L|477:189,1,62.9999980773926,8|0,0:0|0:0,0:0:0:0:
496,117,121089,5,2,0:0:0:0:
496,117,121244,1,2,0:0:0:0:
450,49,121398,2,0,B|393:40|393:40|327:63|327:63|250:49,1,188.999994232178,8|2,0:0|0:0,0:0:0:0:
188,25,122017,2,0,L|117:36,1,62.9999980773926,8|0,0:0|0:0,0:0:0:0:
57,80,122326,6,0,P|50:112|59:161,1,62.9999980773926,2|2,0:0|0:0,0:0:0:0:
110,209,122636,1,8,0:0:0:0:
110,209,122790,2,0,P|161:191|252:225,1,125.999996154785,2|2,0:0|0:0,0:0:0:0:
291,261,123254,1,8,0:0:0:0:
367,223,123409,1,2,0:0:0:0:
367,223,123486,1,2,0:0:0:0:
367,223,123563,6,0,L|373:133,1,62.9999980773926,2|2,0:0|0:0,0:0:0:0:
382,65,123873,1,8,0:0:0:0:
382,65,124337,5,2,0:0:0:0:
298,107,124491,1,8,0:0:0:0:
448,222,124801,5,2,0:0:0:0:
371,160,124956,1,2,0:0:0:0:
382,65,125110,1,8,0:0:0:0:
298,107,125264,1,2,0:0:0:0:
466,17,125574,5,2,0:0:0:0:
382,65,125728,1,8,0:0:0:0:
222,167,126038,6,0,L|138:157,1,62.9999980773926,2|2,0:0|0:0,0:0:0:0:
67,139,126347,1,8,0:0:0:0:
67,139,126811,5,2,0:0:0:0:
131,69,126965,1,8,0:0:0:0:
98,231,127275,5,2,0:0:0:0:
67,139,127430,1,2,0:0:0:0:
6,210,127584,1,8,0:0:0:0:
33,300,127739,1,2,0:0:0:0:
159,159,128048,5,2,0:0:0:0:
249,187,128203,2,0,L|301:182,3,31.4999990386963,8|8|8|8,0:0|3:0|3:0|3:0,0:0:0:0:
321,206,128512,6,0,P|389:227|461:195,1,140,6|8,0:0|0:0,0:0:0:0:
440,114,128976,2,0,L|363:107,1,70,0|2,0:0|0:0,0:0:0:0:
290,104,129285,1,2,0:0:0:0:
290,104,129440,1,8,0:0:0:0:
231,173,129594,6,0,P|164:146|75:159,1,140,2|2,0:0|0:0,0:0:0:0:
26,207,130058,2,0,L|33:283,1,70,8|0,0:0|0:0,0:0:0:0:
106,340,130368,1,2,0:0:0:0:
106,340,130522,1,0,0:0:0:0:
183,307,130677,2,0,P|233:307|263:319,1,70,8|0,0:0|0:0,0:0:0:0:
317,261,130986,6,0,P|350:269|385:267,1,70,2|0,0:0|0:0,0:0:0:0:
453,217,131295,1,8,0:0:0:0:
409,144,131450,2,0,P|375:135|340:137,1,70,0|2,0:0|0:0,0:0:0:0:
273,188,131759,1,2,0:0:0:0:
273,188,131914,1,8,0:0:0:0:
210,243,132069,6,0,P|144:232|66:221,1,140,2|2,0:0|0:0,0:0:0:0:
15,159,132532,2,0,P|14:121|25:86,1,70,8|0,0:0|0:0,0:0:0:0:
109,72,132842,1,2,0:0:0:0:
109,72,132996,2,0,P|110:34|99:-1,2,70,2|8|0,0:0|0:0|0:0,0:0:0:0:
172,127,133460,6,0,P|221:108|310:121,2,140,6|8|2,0:0|0:0|0:0,0:0:0:0:
136,204,134233,1,2,0:0:0:0:
136,204,134388,2,0,L|146:277,1,70,8|2,0:0|0:0,0:0:0:0:
200,337,134697,6,0,P|277:325|349:314,1,140,0|8,0:0|0:0,0:0:0:0:
417,286,135161,2,0,P|421:236|414:207,1,70,0|2,0:0|0:0,0:0:0:0:
356,158,135471,1,2,0:0:0:0:
356,158,135625,2,0,P|352:108|359:79,1,70,8|0,0:0|0:0,0:0:0:0:
301,24,135935,6,0,L|216:17,1,70,12|2,0:0|0:0,0:0:0:0:
212,100,136244,2,0,L|134:136,1,70,8|2,0:0|0:0,0:0:0:0:
189,203,136553,2,0,L|140:273,1,70,8|2,0:0|0:0,0:0:0:0:
168,342,136862,1,8,0:0:0:0:
255,379,137017,1,2,0:0:0:0:
255,379,137094,1,2,0:0:0:0:
255,379,137172,6,0,L|355:366,1,70,8|0,0:0|0:0,0:0:0:0:
387,314,137481,2,0,L|389:276,3,35,8|0|0|0,0:0|3:0|3:0|3:0,0:0:0:0:
417,248,137790,2,0,L|415:210,3,35,8|0|0|0,0:0|3:0|3:0|3:0,0:0:0:0:
385,182,138099,2,0,L|387:144,3,35,8|0|0|0,0:0|3:0|3:0|3:0,0:0:0:0:
394,100,138409,6,0,P|341:121|246:79,1,154.000004699707,6|8,0:0|0:0,0:0:0:0:
192,19,138873,1,0,0:0:0:0:
121,78,139027,2,0,L|114:178,1,77.0000023498536,2|2,0:0|0:0,0:0:0:0:
29,191,139337,2,0,L|36:291,1,77.0000023498536,8|0,0:0|0:0,0:0:0:0:
74,351,139646,6,0,P|130:327|230:341,1,154.000004699707,2|8,0:0|0:0,0:0:0:0:
307,368,140110,1,0,0:0:0:0:
394,333,140264,1,2,0:0:0:0:
394,333,140419,1,2,0:0:0:0:
434,249,140574,2,0,P|429:197|415:168,1,77.0000023498536,8|0,0:0|0:0,0:0:0:0:
337,130,140883,6,0,B|296:155|296:155|181:144,2,154.000004699707,2|8|2,0:0|0:0|0:0,0:0:0:0:
395,58,141656,1,2,0:0:0:0:
312,15,141811,2,0,P|266:7|208:20,1,77.0000023498536,8|0,0:0|0:0,0:0:0:0:
163,68,142120,6,0,B|151:117|151:117|166:158|166:158|151:219,1,154.000004699707,2|8,0:0|0:0,0:0:0:0:
267,360,142739,2,0,P|312:364|359:348,1,77.0000023498536,2|2,0:0|0:0,0:0:0:0:
339,263,143048,2,0,P|294:259|247:275,1,77.0000023498536,8|0,0:0|0:0,0:0:0:0:
187,316,143357,5,2,0:0:0:0:
187,316,143512,1,0,0:0:0:0:
105,273,143666,2,0,P|78:208|103:123,1,154.000004699707,8|2,0:0|0:0,0:0:0:0:
162,62,144130,1,2,0:0:0:0:
236,116,144285,2,0,L|339:106,1,77.0000023498536,8|0,0:0|0:0,0:0:0:0:
370,36,144594,6,0,P|427:26|508:71,2,154.000004699707,2|8|2,0:0|0:0|0:0,0:0:0:0:
312,108,145368,1,2,0:0:0:0:
244,170,145522,2,0,L|154:163,1,77.0000023498536,8|0,0:0|0:0,0:0:0:0:
74,161,145831,6,0,B|53:264|53:264|70:323,2,154.000004699707,2|8|2,0:0|0:0|0:0,0:0:0:0:
114,76,146605,1,2,0:0:0:0:
193,30,146759,2,0,P|232:31|268:45,1,77.0000023498536,8|0,0:0|0:0,0:0:0:0:
339,103,147069,6,0,L|433:99,1,77.0000023498536,2|0,0:0|0:0,0:0:0:0:
431,214,147378,2,0,L|337:218,1,77.0000023498536,12|0,0:0|0:0,0:0:0:0:
261,224,147687,2,0,L|254:276,3,38.5000011749268,8|8|8|8,3:0|3:0|3:0|3:0,0:0:0:0:
217,288,147996,2,0,L|224:340,3,38.5000011749268,4|4|2|2,3:0|3:0|0:0|0:0,0:0:0:0:
255,360,148306,6,0,P|329:371|412:337,1,154.000004699707,6|8,0:0|0:0,0:0:0:0:
457,270,148770,1,0,0:0:0:0:
387,209,148924,2,0,L|395:126,1,77.0000023498536,2|2,0:0|0:0,0:0:0:0:
476,89,149233,2,0,L|468:6,1,77.0000023498536,8|0,0:0|0:0,0:0:0:0:
376,24,149543,6,0,B|328:44|328:44|214:31,1,154.000004699707,2|8,0:0|0:0,0:0:0:0:
134,21,150007,1,0,0:0:0:0:
66,83,150161,1,2,0:0:0:0:
66,83,150316,1,2,0:0:0:0:
107,165,150471,2,0,P|117:204|109:247,1,77.0000023498536,8|0,0:0|0:0,0:0:0:0:
40,298,150780,6,0,P|112:332|186:296,2,154.000004699707,2|8|2,0:0|0:0|0:0,0:0:0:0:
24,206,151553,1,2,0:0:0:0:
107,165,151708,2,0,L|190:169,1,77.0000023498536,8|0,0:0|0:0,0:0:0:0:
244,239,152017,6,0,B|293:229|293:229|338:245|338:245|400:231,1,154.000004699707,2|8,0:0|0:0,0:0:0:0:
468,63,152636,2,0,L|378:69,1,77.0000023498536,2|2,0:0|0:0,0:0:0:0:
323,130,152945,2,0,L|233:124,1,77.0000023498536,8|0,0:0|0:0,0:0:0:0:
154,113,153254,6,0,B|137:7|137:7|188:31,2,154.000004699707,2|8|2,0:0|0:0|0:0,0:0:0:0:
169,204,154027,1,2,0:0:0:0:
248,251,154182,2,0,P|312:254|341:242,1,77.0000023498536,8|0,0:0|0:0,0:0:0:0:
393,190,154491,6,0,P|362:244|394:340,2,154.000004699707,2|8|2,0:0|0:0|0:0,0:0:0:0:
472,141,155264,1,2,0:0:0:0:
404,77,155419,2,0,L|317:70,1,77.0000023498536,8|0,0:0|0:0,0:0:0:0:
244,29,155728,6,0,L|85:41,2,154.000004699707,2|8|2,0:0|0:0|0:0,0:0:0:0:
328,70,156502,1,2,0:0:0:0:
296,156,156656,2,0,P|248:171|207:164,1,77.0000023498536,8|0,0:0|0:0,0:0:0:0:
139,127,156965,6,0,P|182:169|171:266,1,154.000004699707,2|8,0:0|0:0,0:0:0:0:
125,363,157429,1,8,0:0:0:0:
125,363,157507,1,8,0:0:0:0:
125,363,157584,2,0,L|216:359,1,77.0000023498536,8|2,0:0|0:0,0:0:0:0:
271,299,157893,2,0,L|362:303,1,77.0000023498536,8|0,3:0|3:0,0:0:0:0:
449,245,158203,6,0,B|468:202|468:202|447:94,1,154.000004699707,6|2,0:0|0:0,0:0:0:0:
343,47,158666,2,0,B|324:90|324:90|345:198,1,154.000004699707,8|2,0:0|0:0,0:0:0:0:
231,221,159130,2,0,P|191:224|150:213,1,77.0000023498536,12|2,0:0|0:0,0:0:0:0:
59,160,159440,5,12,0:0:0:0:
59,160,159594,1,2,0:0:0:0:
123,63,159749,1,12,0:0:0:0:
123,63,159904,1,2,0:0:0:0:
229,106,160058,2,0,L|288:102,3,38.5000011749268,8|2|2|2,0:0|0:0|0:0|0:0,0:0:0:0:
293,74,160368,2,0,L|394:82,1,94.499997116089,4|0,3:0|0:0,0:0:0:0:
408,109,160677,5,6,0:0:0:0:
410,146,168099,6,0,L|330:152,1,70,6|0,0:0|0:0,0:0:0:0:
307,229,168409,2,0,L|227:223,1,70,2|0,0:0|0:0,0:0:0:0:
153,217,168718,2,0,L|147:171,3,35,8|0|0|0,1:2|1:0|1:0|1:0,0:0:0:0:
120,150,169027,2,0,L|126:104,3,35,8|0|0|0,1:2|1:0|1:0|1:0,0:0:0:0:
148,90,169337,5,4,0:0:0:0:
148,90,170895,6,0,P|201:68|291:79,2,140,6|2|2,0:0|0:0|0:0,0:0:0:0:
23,202,172063,1,2,0:0:0:0:
148,313,172453,6,0,P|201:335|291:324,2,140,2|2|2,0:0|0:0|0:0,0:0:0:0:
23,202,173622,1,2,0:0:0:0:
148,90,174011,6,0,L|305:99,1,140,2|2,0:0|0:0,0:0:0:0:
409,214,174791,2,0,L|252:223,1,140,2|2,0:0|0:0,0:0:0:0:
101,229,175570,6,0,P|88:278|108:363,1,140,2|2,0:0|0:0,0:0:0:0:
276,356,176349,2,0,P|289:307|269:222,1,140,2|2,0:0|0:0,0:0:0:0:
209,46,177128,6,0,B|259:64|259:64|368:49,1,154.000004699707,10|10,0:0|0:0,0:0:0:0:
457,38,177713,1,0,3:0:0:0:
457,38,177810,1,0,0:0:0:0:
457,38,177907,2,0,P|471:86|465:126,1,77.0000023498536,10|0,0:0|3:0,0:0:0:0:
393,166,178297,2,0,P|379:214|385:254,1,77.0000023498536,10|0,0:0|3:0,0:0:0:0:
457,293,178687,6,0,P|386:277|295:315,1,154.000004699707,10|10,0:0|0:0,0:0:0:0:
232,350,179271,1,0,3:0:0:0:
232,350,179369,1,0,0:0:0:0:
232,350,179466,2,0,L|225:266,1,77.0000023498536,10|0,0:0|3:0,0:0:0:0:
146,224,179856,2,0,L|153:140,1,77.0000023498536,10|0,0:0|3:0,0:0:0:0:
230,97,180245,6,0,P|172:57|85:84,1,154.000004699707,10|10,0:0|0:0,0:0:0:0:
29,140,180830,1,0,3:0:0:0:
29,140,180927,1,0,0:0:0:0:
29,140,181024,2,0,L|38:230,1,77.0000023498536,10|0,0:0|3:0,0:0:0:0:
122,252,181414,2,0,L|113:342,1,77.0000023498536,10|0,0:0|3:0,0:0:0:0:
202,357,181804,6,0,B|260:375|312:373|312:373|352:342,2,154.000004699707,10|10|10,0:0|0:0|0:0,0:0:0:0:
156,276,182778,1,0,3:0:0:0:
156,276,182875,1,0,0:0:0:0:
156,276,182972,2,0,P|203:251|237:250,1,77.0000023498536,10|0,0:0|3:0,0:0:0:0:
341,233,183362,6,0,L|344:192,3,35,4|0|0|0,3:0|0:0|0:0|0:0,0:0:0:0:
378,173,183671,2,0,L|375:132,3,35,0|0|0|0,0:0|0:0|0:0|0:0,0:0:0:0:
343,110,183980,2,0,L|346:69,3,35,4|0|2|2,0:0|0:0|3:0|3:0,0:0:0:0:
372,42,184289,2,0,P|323:57|252:41,1,105,4|0,0:0|0:0,0:0:0:0:
270,49,184599,5,6,0:0:0:0:
256,192,184676,12,0,186764,1:0:0:0:
256,192,187073,6,0,P|216:169|116:176,1,125.999996154785,6|0,1:0|0:0,0:0:0:0:
98,182,187382,2,0,P|121:142|114:42,1,125.999996154785,2|0,1:0|0:0,0:0:0:0:
106,24,187691,2,0,L|254:33,1,125.999996154785,2|0,1:0|0:0,0:0:0:0:
253,68,188001,2,0,L|401:59,1,125.999996154785,2|0,1:0|0:0,0:0:0:0:
418,44,188310,6,0,P|399:97|415:165,1,125.999996154785,2|0,1:0|0:0,0:0:0:0:
450,185,188619,2,0,P|469:238|453:306,1,125.999996154785,2|0,1:0|0:0,0:0:0:0:
419,330,188929,2,0,B|301:309|301:309|230:340,1,167.999994873047,2|2,1:0|1:0,0:0:0:0:
98,382,189547,6,0,P|83:323|103:241,1,125.999996154785,2|0,1:0|0:0,0:0:0:0:
115,223,189856,2,0,P|174:238|256:218,1,125.999996154785,2|0,1:0|0:0,0:0:0:0:
277,210,190166,2,0,L|287:71,1,125.999996154785,2|0,1:0|0:0,0:0:0:0:
290,42,190475,2,0,L|151:52,1,125.999996154785,2|0,1:0|0:0,0:0:0:0:
121,49,190784,6,0,P|79:31|-4:44,1,125.999996154785,2|0,1:0|0:0,0:0:0:0:
0,83,191093,2,0,P|17:124|5:208,1,125.999996154785,2|0,1:0|0:0,0:0:0:0:
3,245,191403,2,0,B|62:223|62:223|178:250,1,167.999994873047,2|2,1:0|1:0,0:0:0:0:
316,317,192021,6,0,P|380:315|440:277,1,125.999996154785,6|0,1:0|0:0,0:0:0:0:
455,248,192331,2,0,P|457:184|495:124,1,125.999996154785,2|0,1:0|0:0,0:0:0:0:
508,94,192640,2,0,L|370:99,1,125.999996154785,2|0,1:0|0:0,0:0:0:0:
350,127,192949,2,0,L|212:122,1,125.999996154785,2|0,1:0|0:0,0:0:0:0:
182,117,193258,6,0,B|161:162|161:162|181:245,1,125.999996154785,2|0,1:0|0:0,0:0:0:0:
199,274,193568,2,0,B|244:253|244:253|327:273,1,125.999996154785,2|0,1:0|0:0,0:0:0:0:
350,298,193877,2,0,L|477:282,1,125.999996154785,2|0,1:0|0:0,0:0:0:0:
506,254,194186,2,0,P|507:209|479:122,1,125.999996154785,2|0,1:0|0:0,0:0:0:0:
453,102,194496,6,0,L|395:109,7,41.9999987182618,8|0|0|0|8|0|0|0,1:2|1:0|1:0|1:0|1:2|1:0|1:0|1:0,0:0:0:0:
377,131,195114,2,0,L|319:124,7,41.9999987182618,8|0|0|0|8|0|0|0,1:2|1:0|1:0|1:0|1:2|1:0|1:0|1:0,0:0:0:0:
295,141,195733,5,8,1:2:0:0:
256,192,195810,12,2,196970,0:0:0:0:
460,276,201918,6,0,P|418:299|314:279,1,140,6|4,0:0|3:0,0:0:0:0:
266,243,202382,1,4,3:0:0:0:
266,243,202537,2,0,L|190:251,1,70,4|4,3:0|3:0,0:0:0:0:
141,315,202846,2,0,L|65:307,1,70,4|0,3:0|0:0,0:0:0:0:
12,256,203155,5,8,0:0:0:0:
12,256,203310,1,2,0:0:0:0:
71,196,203465,2,0,L|65:114,1,70,8|2,0:0|0:0,0:0:0:0:
62,42,203774,2,0,L|104:38,3,35,8|8|2|2,0:0|0:0|0:0|0:0,0:0:0:0:
136,22,204083,2,0,L|230:30,1,70,8|0,0:0|0:0,0:0:0:0:
283,88,204392,6,0,P|166:151|214:27,1,336,6|0,0:0|0:0,0:0:0:0:
374,19,205630,6,0,L|385:110,1,70,8|2,0:0|0:0,0:0:0:0:
390,172,205939,1,2,0:0:0:0:
489,203,206093,6,0,L|477:300,1,70,8|2,0:0|0:0,0:0:0:0:
467,356,206403,1,2,0:0:0:0:
364,374,206557,6,0,P|323:372|286:362,1,70,8|0,0:0|0:0,0:0:0:0:
226,314,206867,5,2,0:0:0:0:
226,314,207485,5,2,0:0:0:0:
226,314,208104,6,0,B|194:297|194:297|58:314,1,154.000004699707,6|8,0:0|0:0,0:0:0:0:
7,250,208568,1,0,0:0:0:0:
50,169,208722,2,0,L|56:89,1,77.0000023498536,2|2,0:0|0:0,0:0:0:0:
148,92,209032,2,0,L|154:172,1,77.0000023498536,8|0,0:0|0:0,0:0:0:0:
230,221,209341,6,0,P|295:233|381:190,1,154.000004699707,2|8,0:0|0:0,0:0:0:0:
414,115,209805,1,0,0:0:0:0:
485,182,209959,1,2,0:0:0:0:
485,182,210114,1,2,0:0:0:0:
439,262,210269,2,0,L|448:342,1,77.0000023498536,8|0,0:0|0:0,0:0:0:0:
359,366,210578,6,0,P|293:333|196:349,2,154.000004699707,2|8|2,0:0|0:0|0:0,0:0:0:0:
447,338,211351,1,2,0:0:0:0:
499,261,211506,2,0,P|504:222|486:174,1,77.0000023498536,8|0,0:0|0:0,0:0:0:0:
428,120,211815,6,0,B|374:115|374:115|325:129|325:129|258:120,1,154.000004699707,2|8,0:0|0:0,0:0:0:0:
117,28,212434,2,0,L|34:38,1,77.0000023498536,2|2,0:0|0:0,0:0:0:0:
7,123,212743,2,0,L|90:133,1,77.0000023498536,8|0,0:0|0:0,0:0:0:0:
179,147,213052,5,2,0:0:0:0:
179,147,213207,1,0,0:0:0:0:
239,217,213362,2,0,P|250:291|210:368,1,154.000004699707,8|2,0:0|0:0,0:0:0:0:
125,362,213825,1,2,0:0:0:0:
57,298,213980,2,0,L|68:212,1,77.0000023498536,8|0,0:0|0:0,0:0:0:0:
84,131,214289,6,0,P|66:58|6:12,2,154.000004699707,2|8|2,0:0|0:0|0:0,0:0:0:0:
67,221,215063,1,2,0:0:0:0:
151,256,215217,2,0,L|243:247,1,77.0000023498536,8|0,0:0|0:0,0:0:0:0:
295,185,215526,6,0,B|339:167|383:183|373:191|408:209|465:186,2,154.000004699707,2|8|2,0:0|0:0|0:0,0:0:0:0:
227,248,216300,1,2,0:0:0:0:
290,315,216454,2,0,P|329:326|380:318,1,77.0000023498536,8|0,0:0|0:0,0:0:0:0:
441,270,216764,6,0,L|446:180,1,77.0000023498536,2|0,0:0|0:0,0:0:0:0:
507,95,217073,2,0,L|502:5,1,77.0000023498536,12|0,0:0|0:0,0:0:0:0:
412,26,217382,2,0,L|357:31,3,38.5000011749268,8|8|8|8,3:0|3:0|3:0|3:0,0:0:0:0:
337,59,217691,2,0,L|282:54,3,38.5000011749268,2|2|2|2,0:0|0:0|0:0|0:0,0:0:0:0:
259,29,218001,6,0,P|224:57|104:48,1,154.000004699707,6|8,0:0|0:0,0:0:0:0:
35,17,218465,1,0,0:0:0:0:
9,105,218619,2,0,L|17:197,1,77.0000023498536,2|2,0:0|0:0,0:0:0:0:
102,214,218929,2,0,L|94:306,1,77.0000023498536,8|0,0:0|0:0,0:0:0:0:
33,359,219238,6,0,P|84:328|181:345,1,154.000004699707,2|8,0:0|0:0,0:0:0:0:
257,381,219702,1,0,0:0:0:0:
349,359,219856,1,2,0:0:0:0:
349,359,220011,1,2,0:0:0:0:
396,279,220166,2,0,L|387:197,1,77.0000023498536,8|0,0:0|0:0,0:0:0:0:
330,129,220475,6,0,P|272:112|183:153,2,154.000004699707,2|8|2,0:0|0:0|0:0,0:0:0:0:
387,202,221248,1,2,0:0:0:0:
477,180,221403,2,0,P|492:141|487:95,1,77.0000023498536,8|0,0:0|0:0,0:0:0:0:
436,31,221712,6,0,B|405:41|387:52|387:52|337:23|285:21,1,154.000004699707,2|8,0:0|0:0,0:0:0:0:
115,78,222331,2,0,L|122:167,1,77.0000023498536,2|2,0:0|0:0,0:0:0:0:
202,198,222640,2,0,L|195:287,1,77.0000023498536,8|0,0:0|0:0,0:0:0:0:
133,343,222949,5,2,0:0:0:0:
133,343,223104,1,0,0:0:0:0:
44,317,223258,2,0,P|15:260|34:155,1,154.000004699707,8|2,0:0|0:0,0:0:0:0:
75,95,223722,1,2,0:0:0:0:
164,118,223877,2,0,L|251:110,1,77.0000023498536,8|0,0:0|0:0,0:0:0:0:
303,43,224186,6,0,P|276:94|312:190,1,154.000004699707,2|12,0:0|0:0,0:0:0:0:
378,235,224650,1,0,0:0:0:0:
457,186,224805,2,0,L|459:132,3,38.5000011749268,8|0|0|0,1:2|1:0|1:0|1:0,0:0:0:0:
486,110,225114,2,0,L|484:56,3,38.5000011749268,8|0|0|0,1:2|1:0|1:0|1:0,0:0:0:0:
451,39,225423,6,0,B|409:58|409:58|288:41,1,154.000004699707,6|8,0:0|0:0,0:0:0:0:
210,28,225887,1,0,0:0:0:0:
135,83,226042,2,0,P|125:124|132:171,1,77.0000023498536,2|2,0:0|0:0,0:0:0:0:
208,204,226351,2,0,P|218:245|211:292,1,77.0000023498536,8|0,0:0|0:0,0:0:0:0:
146,341,226660,6,0,P|203:321|303:338,1,154.000004699707,2|8,0:0|0:0,0:0:0:0:
379,369,227124,1,0,0:0:0:0:
465,330,227279,1,2,0:0:0:0:
465,330,227434,1,2,0:0:0:0:
490,241,227588,2,0,L|483:149,1,77.0000023498536,8|0,0:0|0:0,0:0:0:0:
428,89,227898,6,0,P|354:57|265:68,2,154.000004699707,2|8|2,0:0|0:0|0:0,0:0:0:0:
484,164,228671,1,2,0:0:0:0:
413,222,228825,2,0,P|375:234|318:229,1,77.0000023498536,8|0,0:0|0:0,0:0:0:0:
255,190,229135,6,0,B|207:184|207:184|156:201|156:201|72:193,1,154.000004699707,2|8,0:0|0:0,0:0:0:0:
5,40,229753,2,0,L|91:32,1,77.0000023498536,2|2,0:0|0:0,0:0:0:0:
172,13,230063,2,0,L|258:21,1,77.0000023498536,8|0,0:0|0:0,0:0:0:0:
329,76,230372,5,2,0:0:0:0:
329,76,230526,1,0,0:0:0:0:
269,147,230681,2,0,P|248:217|284:308,1,154.000004699707,8|2,0:0|0:0,0:0:0:0:
350,340,231145,1,2,0:0:0:0:
437,308,231300,2,0,P|452:269|450:229,1,77.0000023498536,8|0,0:0|0:0,0:0:0:0:
388,165,231609,6,0,L|397:6,2,154.000004699707,2|8|2,0:0|0:0|0:0,0:0:0:0:
322,230,232382,1,2,0:0:0:0:
231,251,232537,2,0,P|191:253|151:239,1,77.0000023498536,8|0,0:0|0:0,0:0:0:0:
89,178,232846,6,0,P|121:242|95:335,2,154.000004699707,2|8|2,0:0|0:0|0:0,0:0:0:0:
15,122,233619,1,2,0:0:0:0:
63,43,233774,2,0,P|100:29|154:33,1,77.0000023498536,8|0,0:0|0:0,0:0:0:0:
228,46,234083,6,0,L|236:131,1,77.0000023498536,2|0,0:0|0:0,0:0:0:0:
340,171,234392,2,0,L|332:256,1,77.0000023498536,12|0,0:0|0:0,0:0:0:0:
328,340,234702,2,0,L|381:346,3,38.5000011749268,8|8|8|8,3:0|3:0|3:0|3:0,0:0:0:0:
405,369,235011,2,0,L|458:363,3,38.5000011749268,2|2|2|2,0:0|0:0|0:0|0:0,0:0:0:0:
488,353,235320,6,0,P|507:279|483:198,1,154.000004699707,6|8,0:0|0:0,0:0:0:0:
426,136,235784,1,0,0:0:0:0:
340,171,235939,2,0,L|252:165,1,77.0000023498536,2|2,0:0|0:0,0:0:0:0:
185,115,236248,2,0,L|97:121,1,77.0000023498536,8|0,0:0|0:0,0:0:0:0:
44,187,236557,6,0,P|16:117|62:40,1,154.000004699707,2|8,0:0|0:0,0:0:0:0:
130,8,237021,1,0,0:0:0:0:
226,24,237176,1,2,0:0:0:0:
226,24,237331,1,2,0:0:0:0:
282,96,237485,2,0,L|274:184,1,77.0000023498536,8|0,0:0|0:0,0:0:0:0:
263,264,237794,6,0,B|312:251|348:268|332:277|372:300|436:279,2,154.000004699707,2|8|2,0:0|0:0|0:0,0:0:0:0:
181,308,238568,1,2,0:0:0:0:
99,264,238722,2,0,L|105:179,1,77.0000023498536,8|0,0:0|0:0,0:0:0:0:
190,152,239032,6,0,P|125:157|41:104,1,154.000004699707,2|8,0:0|0:0,0:0:0:0:
206,17,239650,2,0,L|294:22,1,77.0000023498536,2|2,0:0|0:0,0:0:0:0:
307,110,239959,2,0,L|395:105,1,77.0000023498536,8|0,0:0|0:0,0:0:0:0:
476,98,240269,6,0,B|493:204|493:204|442:180,2,154.000004699707,2|8|2,0:0|0:0|0:0,0:0:0:0:
461,6,241042,1,2,0:0:0:0:
390,66,241197,2,0,P|347:73|301:62,1,77.0000023498536,8|0,0:0|0:0,0:0:0:0:
237,15,241506,6,0,P|277:56|266:166,2,154.000004699707,2|8|2,0:0|0:0|0:0,0:0:0:0:
144,10,242279,1,2,0:0:0:0:
78,75,242434,2,0,L|88:160,1,77.0000023498536,8|0,0:0|0:0,0:0:0:0:
156,212,242743,6,0,L|143:371,2,154.000004699707,2|8|2,0:0|0:0|0:0,0:0:0:0:
187,125,243516,1,2,0:0:0:0:
277,148,243671,2,0,P|335:151|375:137,1,77.0000023498536,8|0,0:0|0:0,0:0:0:0:
425,88,243980,5,2,0:0:0:0:
511,124,244135,1,2,0:0:0:0:
438,179,244289,1,12,0:0:0:0:
278,273,244599,1,2,0:0:0:0:
364,309,244754,1,2,0:0:0:0:
291,364,244908,1,12,0:0:0:0:
345,205,245217,6,0,L|339:121,1,70,6|0,0:0|0:0,0:0:0:0:
272,85,245526,2,0,P|210:60|136:79,2,140,8|8|8,1:2|1:2|1:2,0:0:0:0:
340,135,246300,1,0,1:0:0:0:
271,183,246454,6,0,L|191:188,1,70,8|0,1:2|1:0,0:0:0:0:
154,257,246764,2,0,L|74:252,1,70,8|0,1:2|0:0,0:0:0:0:
20,197,247073,2,0,P|14:151|24:110,1,70,8|0,1:2|1:0,0:0:0:0:
56,53,247382,2,0,P|102:47|143:57,1,70,8|0,1:2|1:0,0:0:0:0:
194,105,247691,6,0,L|286:100,1,73.4999977569581,6|0,0:0|0:0,0:0:0:0:
343,147,248001,2,0,L|340:193,3,36.749998878479,8|0|0|0,1:2|1:0|1:0|1:0,0:0:0:0:
311,215,248310,2,0,L|313:261,3,36.749998878479,8|0|0|0,1:2|1:0|1:0|1:0,0:0:0:0:
343,283,248619,2,0,L|340:329,3,36.749998878479,8|8|8|8,3:0|3:0|3:0|3:0,0:0:0:0:
311,356,248929,5,2,0:0:0:0:
213,294,249083,1,10,0:0:0:0:
113,138,249392,5,2,0:0:0:0:
211,200,249546,1,10,0:0:0:0:
396,206,249856,5,2,0:0:0:0:
298,144,250010,1,10,0:0:0:0:
256,192,251403,5,6,0:0:0:0:
256,192,251480,12,0,259444,0:0:0:0:
