osu file format v14

[General]
AudioFilename: audio.mp3
AudioLeadIn: 0
PreviewTime: 75935
Countdown: 0
SampleSet: Soft
StackLeniency: 0.5
Mode: 0
LetterboxInBreaks: 0
WidescreenStoryboard: 0

[Editor]
DistanceSpacing: 1
BeatDivisor: 4
GridSize: 4
TimelineZoom: 1.2

[Metadata]
Title:NEVER SAY NEVER
TitleUnicode:NEVER SAY NEVER
Artist:THREE LIGHTS DOWN KINGS
ArtistUnicode:THREE LIGHTS DOWN KINGS
Creator:Akitoshi
Version:Normal
Source:デュラララ!!×2 承
Tags:Durarara!! x2 Shou Ending Corinn _kotachi_
BeatmapID:1459752
BeatmapSetID:664307

[Difficulty]
HPDrainRate:4
CircleSize:3.2
OverallDifficulty:4
ApproachRate:5
SliderMultiplier:1
SliderTickRate:1

[Events]
//Background and Video events
0,0,"durarara1.jpg",0,0
//Break Periods
2,34691,53085
2,160877,166899
2,197170,200718
//Storyboard Layer 0 (Background)
//Storyboard Layer 1 (Fail)
//Storyboard Layer 2 (Pass)
//Storyboard Layer 3 (Foreground)
//Storyboard Sound Samples

[TimingPoints]
4801,309.278350515464,4,2,5,75,1,0
9749,-100,4,2,1,50,0,0
10986,-100,4,2,5,50,0,0
11141,-100,4,2,1,50,0,0
12223,-100,4,2,5,75,0,0
14388,-100,4,2,5,75,0,0
14620,-100,4,2,5,20,0,0
14697,-100,4,2,5,75,0,0
34491,-100,4,2,5,50,0,0
54285,-100,4,2,5,75,0,0
64182,-100,4,2,5,75,0,0
69130,-100,4,2,5,50,0,0
70368,-100,4,2,1,50,0,0
71605,-100,4,2,5,50,0,0
72687,-100,4,2,1,50,0,0
74079,-100,4,2,5,75,0,0
75316,-100,4,2,5,75,0,0
76553,-100,4,2,5,90,0,1
79259,-100,4,2,5,20,0,1
79337,-100,4,2,5,90,0,1
82043,-100,4,2,5,20,0,1
82120,-100,4,2,5,90,0,1
85754,-100,4,2,5,20,0,1
85831,-100,4,2,5,90,0,1
87919,-100,4,2,5,20,0,1
87996,-100,4,2,5,90,0,1
91940,-100,4,2,5,20,0,1
92017,-100,4,2,5,90,0,1
96347,-100,4,2,5,60,0,0
98821,-100,4,2,5,75,0,0
101218,-100,4,2,5,20,0,0
101295,-100,4,2,5,75,0,0
117687,-100,4,2,1,75,0,0
117842,-100,4,2,5,75,0,0
118615,-100,4,2,5,60,0,0
123563,-100,4,2,5,60,0,0
128512,-100,4,2,5,75,0,0
137172,-100,4,2,5,75,0,0
138409,-100,4,2,5,90,0,1
138950,-100,4,2,5,20,0,1
139027,-100,4,2,5,90,0,1
139878,-100,4,2,5,20,0,1
139955,-100,4,2,5,90,0,1
140806,-100,4,2,5,20,0,1
140883,-100,4,2,5,90,0,1
143280,-100,4,2,5,20,0,1
143357,-100,4,2,5,90,0,1
148538,-100,4,2,5,20,0,1
148615,-100,4,2,5,90,0,1
149775,-100,4,2,5,20,0,1
149852,-100,4,2,5,90,0,1
151940,-100,4,2,5,20,0,1
152017,-100,4,2,5,90,0,1
160368,-100,4,2,5,90,0,1
160677,-100,4,2,5,75,0,0
169337,389.61038961039,4,2,5,50,1,0
170895,389.61038961039,4,2,5,75,1,0
170895,-100,4,2,5,75,0,0
183362,309.278350515464,4,2,1,60,1,0
184599,-100,4,2,5,90,0,0
186996,-100,4,2,5,20,0,0
187073,-100,4,2,5,90,0,0
191944,-100,4,2,5,20,0,0
192021,-100,4,2,5,90,0,0
194418,-100,4,2,5,20,0,0
194496,-100,4,2,5,75,0,0
195733,-100,4,2,5,90,0,0
196970,-100,4,2,5,50,0,0
201454,-100,4,2,1,50,0,0
201609,-100,4,2,5,50,0,0
201918,-100,4,2,5,75,0,0
204392,-100,4,2,5,60,0,0
205320,-100,4,2,5,20,0,0
205630,-100,4,2,5,75,0,0
206867,-100,4,2,1,50,0,0
208104,-100,4,2,5,90,0,1
208645,-100,4,2,5,20,0,1
208722,-100,4,2,5,90,0,1
209573,-100,4,2,5,20,0,1
209650,-100,4,2,5,90,0,1
210501,-100,4,2,5,20,0,1
210578,-100,4,2,5,90,0,1
212975,-100,4,2,5,20,0,1
213052,-100,4,2,5,90,0,1
218233,-100,4,2,5,20,0,1
218310,-100,4,2,5,90,0,1
219470,-100,4,2,5,20,0,1
219547,-100,4,2,5,90,0,1
221635,-100,4,2,5,20,0,1
221712,-100,4,2,5,90,0,1
224727,-100,4,2,5,20,0,1
224805,-100,4,2,5,90,0,1
225423,-100,4,2,5,90,0,1
225655,-100,4,2,5,20,0,1
225733,-100,4,2,5,90,0,1
228130,-100,4,2,5,20,0,1
228207,-100,4,2,5,90,0,1
236789,-100,4,2,5,20,0,1
236867,-100,4,2,5,90,0,1
240810,-100,4,2,5,20,0,1
240887,-100,4,2,5,90,0,1
245217,-100,4,2,5,75,0,0
247691,-100,4,2,5,75,0,0
248929,-100,4,2,5,75,0,0
256351,-100,4,2,5,50,0,0
257588,-100,4,2,5,30,0,0
258825,-100,4,2,5,15,0,0
259444,-100,4,2,5,5,0,0

[Colours]
Combo1 : 255,128,255
Combo2 : 128,128,255
Combo3 : 10,98,245
Combo4 : 242,24,57

[HitObjects]
400,263,4801,6,0,P|344:254|284:270,1,100,6|8,0:0|0:0,0:0:0:0:
255,280,5264,1,2,0:0:0:0:
157,255,5574,1,2,0:0:0:0:
91,179,5883,2,0,L|98:68,1,100,2|2,0:0|0:0,0:0:0:0:
104,33,6347,1,8,0:0:0:0:
104,33,6502,2,0,P|153:23|215:39,1,100,0|8,1:0|3:0,0:0:0:0:
241,62,6965,1,4,3:0:0:0:
320,122,7275,6,0,P|369:132|431:116,1,100,6|8,0:0|0:0,0:0:0:0:
465,107,7739,1,2,0:0:0:0:
501,199,8048,1,2,0:0:0:0:
460,290,8357,2,0,L|360:285,1,100,2|2,0:0|0:0,0:0:0:0:
324,259,8821,1,8,0:0:0:0:
324,259,8976,2,0,L|224:264,1,100,0|8,1:0|3:0,0:0:0:0:
174,266,9440,1,4,3:0:0:0:
97,202,9749,5,2,0:0:0:0:
97,202,10986,5,2,0:0:0:0:
97,202,12223,6,0,L|202:196,1,100,6|6,0:0|0:0,0:0:0:0:
269,127,12842,2,0,L|374:133,1,100,6|6,0:0|0:0,0:0:0:0:
461,169,13460,2,0,P|472:209|465:277,1,100,6|0,0:0|0:0,0:0:0:0:
438,307,13924,2,0,P|398:296|330:303,1,100,4|2,3:0|0:0,0:0:0:0:
294,320,14388,1,4,1:2:0:0:
198,347,14697,6,0,L|188:236,1,100,6|8,0:0|0:0,0:0:0:0:
186,197,15161,1,0,0:0:0:0:
226,105,15471,2,0,L|282:101,1,50,2|8,0:0|0:0,0:0:0:0:
316,72,15780,2,0,P|367:59|429:74,1,100,2|2,0:0|0:0,0:0:0:0:
459,98,16244,1,8,0:0:0:0:
459,98,16398,2,0,P|446:149|461:211,1,100,0|2,0:0|0:0,0:0:0:0:
472,241,16862,1,8,0:0:0:0:
394,304,17172,6,0,P|343:291|281:306,1,100,2|8,0:0|0:0,0:0:0:0:
254,325,17636,1,0,0:0:0:0:
160,359,17945,2,0,L|90:352,1,50,2|8,0:0|0:0,0:0:0:0:
60,345,18254,2,0,P|47:294|62:232,1,100,2|2,0:0|0:0,0:0:0:0:
92,214,18718,1,8,0:0:0:0:
92,214,18873,2,0,P|105:163|90:101,1,100,0|2,0:0|0:0,0:0:0:0:
68,75,19337,1,8,0:0:0:0:
157,30,19646,6,0,L|266:24,1,100,2|8,0:0|0:0,0:0:0:0:
306,17,20110,1,0,0:0:0:0:
391,69,20419,2,0,L|398:125,1,50,2|8,0:0|0:0,0:0:0:0:
400,168,20728,2,0,P|350:188|289:178,1,100,2|2,0:0|0:0,0:0:0:0:
264,166,21192,1,8,0:0:0:0:
264,166,21347,2,0,L|155:172,1,100,0|2,0:0|0:0,0:0:0:0:
114,178,21811,1,8,0:0:0:0:
24,221,22120,6,0,P|15:276|30:327,1,100,2|8,0:0|0:0,0:0:0:0:
61,353,22584,2,0,P|116:344|167:359,1,100,0|2,0:0|0:0,0:0:0:0:
210,373,23048,1,8,0:0:0:0:
210,373,23203,2,0,L|215:259,1,100,2|2,0:0|0:0,0:0:0:0:
218,223,23666,1,8,0:0:0:0:
252,129,23976,2,0,B|294:115|336:126|319:140|352:151|401:136,1,150,8|2,3:0|0:0,0:0:0:0:
442,114,24594,6,0,L|447:228,1,100,6|8,0:0|0:0,0:0:0:0:
448,263,25058,1,0,0:0:0:0:
386,342,25368,2,0,L|318:344,1,50,2|8,0:0|0:0,0:0:0:0:
285,344,25677,2,0,P|234:320|169:326,1,100,2|2,0:0|0:0,0:0:0:0:
147,335,26141,1,8,0:0:0:0:
147,335,26295,2,0,L|138:224,1,100,0|2,0:0|0:0,0:0:0:0:
136,185,26759,1,8,0:0:0:0:
168,90,27069,6,0,P|208:78|279:91,1,100,2|8,0:0|0:0,0:0:0:0:
309,106,27532,1,0,0:0:0:0:
387,168,27842,2,0,L|458:163,1,50,2|8,0:0|0:0,0:0:0:0:
486,159,28151,2,0,P|501:197|494:269,1,100,2|2,0:0|0:0,0:0:0:0:
472,298,28615,1,8,0:0:0:0:
472,298,28770,2,0,P|433:282|361:289,1,100,0|2,0:0|0:0,0:0:0:0:
330,304,29233,1,8,0:0:0:0:
241,351,29543,6,0,L|126:342,1,100,2|8,0:0|0:0,0:0:0:0:
91,337,30007,1,0,0:0:0:0:
34,254,30316,2,0,L|30:197,1,50,2|8,0:0|0:0,0:0:0:0:
29,154,30625,2,0,P|80:144|139:161,1,100,2|0,0:0|0:0,0:0:0:0:
168,192,31089,1,8,0:0:0:0:
168,192,31244,2,0,L|275:182,1,100,0|2,0:0|0:0,0:0:0:0:
317,175,31708,1,8,0:0:0:0:
415,160,32017,6,0,P|418:110|402:63,1,100,2|8,0:0|0:0,0:0:0:0:
357,41,32481,2,0,P|309:56|259:53,1,100,0|2,0:0|0:0,0:0:0:0:
216,42,32945,1,8,0:0:0:0:
216,42,33099,2,0,L|211:147,1,100,2|2,0:0|0:0,0:0:0:0:
209,191,33563,1,8,0:0:0:0:
139,262,33873,2,0,L|146:318,2,50,8|8|4,0:0|3:0|3:0,0:0:0:0:
61,198,34491,5,2,0:0:0:0:
154,274,54285,6,0,P|150:220|174:166,1,100,6|2,0:0|0:0,0:0:0:0:
248,119,54904,1,8,0:0:0:0:
248,119,55058,2,0,L|237:17,2,100,2|2|2,0:0|0:0|0:0,0:0:0:0:
336,175,55986,1,2,0:0:0:0:
336,175,56141,2,0,P|389:171|443:195,1,100,8|0,0:0|0:0,0:0:0:0:
413,286,56759,6,0,P|359:289|305:265,1,100,6|2,0:0|0:0,0:0:0:0:
243,214,57378,1,8,0:0:0:0:
243,214,57532,2,0,L|128:221,2,100,2|2|2,0:0|0:0|0:0,0:0:0:0:
336,175,58460,1,2,0:0:0:0:
336,175,58615,2,0,P|343:123|324:68,1,100,8|0,0:0|0:0,0:0:0:0:
248,20,59233,6,0,P|196:13|141:32,1,100,6|2,0:0|0:0,0:0:0:0:
100,113,59852,1,8,0:0:0:0:
100,113,60007,2,0,L|0:107,2,100,2|2|2,0:0|0:0|0:0,0:0:0:0:
169,190,60935,1,2,0:0:0:0:
169,190,61089,2,0,P|176:242|157:297,1,100,8|0,0:0|0:0,0:0:0:0:
230,360,61708,6,0,P|282:367|337:348,1,100,6|2,0:0|0:0,0:0:0:0:
404,291,62326,1,8,0:0:0:0:
404,291,62481,2,0,L|504:297,2,100,2|2|2,0:0|0:0|0:0,0:0:0:0:
322,244,63409,1,2,0:0:0:0:
322,244,63563,2,0,B|312:198|312:198|323:168|323:168|306:135|314:88,1,150,8|2,3:0|0:0,0:0:0:0:
319,48,64182,6,0,P|370:58|422:47,1,100,6|8,0:0|0:0,0:0:0:0:
499,105,64801,2,0,L|493:177,1,50,2|2,0:0|0:0,0:0:0:0:
486,204,65110,1,8,0:0:0:0:
402,258,65419,2,0,P|351:248|299:259,1,100,2|8,0:0|0:0,0:0:0:0:
217,306,66038,2,0,L|162:300,1,50,2|2,0:0|0:0,0:0:0:0:
117,292,66347,1,8,0:0:0:0:
45,222,66656,6,0,P|35:176|51:114,1,100,6|8,0:0|0:0,0:0:0:0:
75,86,67120,1,0,0:0:0:0:
75,86,67275,2,0,P|121:96|183:80,1,100,2|8,0:0|0:0,0:0:0:0:
265,51,67893,2,0,L|268:117,1,50,2|0,0:0|0:0,0:0:0:0:
302,136,68203,2,0,L|299:202,1,50,8|8,0:0|0:0,0:0:0:0:
265,222,68512,2,0,L|268:288,2,50,8|8|0,0:0|3:0|0:0,0:0:0:0:
171,186,69130,5,6,0:0:0:0:
390,88,70368,1,2,0:0:0:0:
285,304,71605,5,6,0:0:0:0:
187,85,72842,2,0,P|107:66|39:99,2,150,2|2|2,0:0|0:0|0:0,0:0:0:0:
282,114,74079,6,0,B|335:115|366:69|366:69|414:105|461:91|461:91|498:135|492:200,1,300,6|8,0:0|0:0,0:0:0:0:
450,273,75316,2,0,B|397:251|353:256|353:256|304:289|258:291|258:291|212:261|141:267,1,300,8|4,1:2|3:0,0:0:0:0:
64,275,76553,5,6,0:0:0:0:
8,191,76862,1,8,0:0:0:0:
52,101,77172,2,0,P|94:80|153:80,1,100,2|8,0:0|0:0,0:0:0:0:
196,103,77636,1,0,0:0:0:0:
196,103,77790,2,0,P|238:82|297:82,1,100,2|8,0:0|0:0,0:0:0:0:
386,107,78409,2,0,L|381:170,1,50,2|2,0:0|0:0,0:0:0:0:
378,206,78718,1,8,0:0:0:0:
292,257,79027,6,0,L|301:372,2,100,2|8|2,0:0|0:0|0:0,0:0:0:0:
261,224,79801,1,2,0:0:0:0:
261,224,79955,1,8,0:0:0:0:
269,124,80264,2,0,P|310:100|368:95,1,100,2|8,0:0|0:0,0:0:0:0:
460,112,80883,1,2,0:0:0:0:
508,199,81192,1,8,0:0:0:0:
452,282,81502,6,0,L|467:381,2,100,2|8|2,0:0|0:0|0:0,0:0:0:0:
424,246,82275,1,2,0:0:0:0:
424,246,82429,2,0,L|367:242,1,50,8|0,0:0|0:0,0:0:0:0:
326,225,82739,2,0,P|277:245|225:240,1,100,2|8,0:0|0:0,0:0:0:0:
134,215,83357,1,2,0:0:0:0:
97,122,83666,1,8,0:0:0:0:
156,41,83976,6,0,P|205:21|257:26,2,100,2|8|2,0:0|0:0|0:0,0:0:0:0:
97,122,84904,1,8,0:0:0:0:
134,215,85213,1,2,0:0:0:0:
231,242,85522,1,12,0:0:0:0:
303,172,85831,2,0,L|365:175,1,50,8|8,3:0|3:0,0:0:0:0:
393,203,86141,2,0,L|455:200,1,50,2|2,0:0|0:0,0:0:0:0:
492,190,86450,6,0,P|506:238|495:302,1,100,6|8,0:0|0:0,0:0:0:0:
435,363,87069,2,0,L|363:360,1,50,2|2,0:0|0:0,0:0:0:0:
334,358,87378,1,8,0:0:0:0:
246,309,87687,2,0,L|135:313,1,100,2|8,0:0|0:0,0:0:0:0:
51,280,88306,2,0,L|55:216,1,50,2|2,0:0|0:0,0:0:0:0:
62,180,88615,1,8,0:0:0:0:
137,114,88924,6,0,P|125:65|127:12,2,100,2|8|2,0:0|0:0|0:0,0:0:0:0:
170,159,89697,1,2,0:0:0:0:
170,159,89852,1,8,0:0:0:0:
265,133,90161,2,0,P|314:145|367:143,1,100,2|8,0:0|0:0,0:0:0:0:
456,106,90780,1,2,0:0:0:0:
496,197,91089,1,8,0:0:0:0:
436,277,91398,6,0,L|450:386,2,100,2|8|2,0:0|0:0|0:0,0:0:0:0:
402,248,92172,1,2,0:0:0:0:
402,248,92326,1,8,0:0:0:0:
308,285,92636,2,0,L|189:277,1,100,2|8,0:0|0:0,0:0:0:0:
121,229,93254,1,2,0:0:0:0:
102,132,93563,1,8,0:0:0:0:
155,47,93873,6,0,P|204:31|263:37,2,100,2|8|2,0:0|0:0|0:0,0:0:0:0:
102,132,94801,1,8,0:0:0:0:
125,230,95110,1,2,0:0:0:0:
213,277,95419,2,0,L|223:344,2,50,8|8|8,0:0|0:0|0:0,0:0:0:0:
275,198,96038,1,4,3:0:0:0:
360,250,96347,6,0,P|405:264|492:82,1,300,6|0,0:0|0:0,0:0:0:0:
412,34,97584,2,0,B|360:44|360:44|315:22|315:22|261:26|226:59|226:59|183:33|114:43,1,300,6|0,0:0|0:0,0:0:0:0:
33,65,98821,6,0,L|37:171,1,100,6|0,0:0|0:0,0:0:0:0:
79,190,99285,2,0,L|75:296,1,100,2|0,0:0|0:0,0:0:0:0:
70,339,99749,1,4,0:0:0:0:
165,368,100058,2,0,P|219:373|274:354,1,100,8|2,0:0|0:0,0:0:0:0:
345,304,100677,1,8,0:0:0:0:
357,204,100986,1,8,0:0:0:0:
316,112,101295,6,0,P|262:107|207:126,1,100,6|8,0:0|0:0,0:0:0:0:
175,144,101759,1,0,0:0:0:0:
105,215,102069,2,0,L|42:210,1,50,2|8,0:0|0:0,0:0:0:0:
5,203,102378,2,0,P|0:149|14:91,1,100,2|2,0:0|0:0,0:0:0:0:
38,65,102842,1,8,0:0:0:0:
38,65,102996,2,0,P|92:70|150:56,1,100,0|2,0:0|0:0,0:0:0:0:
181,39,103460,1,8,0:0:0:0:
263,95,103770,6,0,L|270:204,1,100,2|8,0:0|0:0,0:0:0:0:
274,244,104233,1,0,0:0:0:0:
333,324,104543,2,0,L|387:320,1,50,2|8,0:0|0:0,0:0:0:0:
432,311,104852,2,0,P|443:258|433:199,1,100,2|2,0:0|0:0,0:0:0:0:
404,184,105316,1,8,0:0:0:0:
404,184,105471,2,0,P|393:131|403:72,1,100,0|2,0:0|0:0,0:0:0:0:
417,39,105935,1,8,0:0:0:0:
320,14,106244,6,0,L|198:20,1,100,2|8,0:0|0:0,0:0:0:0:
170,23,106708,1,0,0:0:0:0:
83,76,107017,2,0,L|85:125,1,50,2|8,0:0|0:0,0:0:0:0:
108,170,107326,2,0,P|115:220|99:279,1,100,2|2,0:0|0:0,0:0:0:0:
85,316,107790,1,8,0:0:0:0:
85,316,107945,2,0,P|135:309|194:325,1,100,0|2,0:0|0:0,0:0:0:0:
226,343,108409,1,8,0:0:0:0:
312,293,108718,6,0,L|305:189,1,100,2|8,0:0|0:0,0:0:0:0:
266,161,109182,2,0,L|273:57,1,100,0|2,0:0|0:0,0:0:0:0:
309,27,109646,1,8,0:0:0:0:
309,27,109801,2,0,P|366:22|421:43,1,100,2|2,0:0|0:0,0:0:0:0:
444,66,110264,1,8,0:0:0:0:
474,161,110574,2,0,B|494:202|478:245|472:231|459:268|481:312,1,150,8|2,3:0|0:0,0:0:0:0:
491,355,111192,6,0,L|373:347,1,100,6|8,0:0|0:0,0:0:0:0:
341,345,111656,1,0,0:0:0:0:
266,278,111965,2,0,L|193:283,1,50,2|8,0:0|0:0,0:0:0:0:
167,293,112275,2,0,P|152:244|160:189,1,100,2|2,0:0|0:0,0:0:0:0:
191,159,112739,1,8,0:0:0:0:
191,159,112893,2,0,P|206:110|198:55,1,100,0|2,0:0|0:0,0:0:0:0:
170,22,113357,1,8,0:0:0:0:
70,28,113666,6,0,P|55:77|63:132,1,100,2|8,0:0|0:0,0:0:0:0:
72,173,114130,1,0,0:0:0:0:
139,247,114440,2,0,L|197:251,1,50,2|8,0:0|0:0,0:0:0:0:
227,282,114749,2,0,L|346:271,1,100,2|2,0:0|0:0,0:0:0:0:
380,269,115213,1,8,0:0:0:0:
380,269,115368,2,0,P|390:211|383:166,1,100,0|2,0:0|0:0,0:0:0:0:
361,126,115831,1,8,0:0:0:0:
294,50,116141,6,0,P|334:28|406:35,1,100,2|8,0:0|0:0,0:0:0:0:
433,48,116605,1,0,0:0:0:0:
500,121,116914,2,0,L|496:186,1,50,2|8,0:0|0:0,0:0:0:0:
499,220,117223,2,0,P|512:268|499:327,1,100,0|8,0:0|0:0,0:0:0:0:
470,354,117687,1,2,0:0:0:0:
371,369,117996,2,0,L|317:373,2,50,8|8|4,0:0|3:0|3:0,0:0:0:0:
401,273,118615,5,6,0:0:0:0:
347,188,118924,2,0,P|297:184|241:211,1,100,8|0,0:0|0:0,0:0:0:0:
171,262,119543,1,8,0:0:0:0:
71,254,119852,2,0,L|65:190,1,50,2|2,0:0|0:0,0:0:0:0:
31,177,120161,1,8,0:0:0:0:
31,177,120316,2,0,L|41:63,1,100,2|2,0:0|0:0,0:0:0:0:
64,33,120780,1,8,0:0:0:0:
162,15,121089,5,2,0:0:0:0:
243,72,121398,2,0,P|290:82|356:60,1,100,8|0,0:0|0:0,0:0:0:0:
420,10,122017,1,8,0:0:0:0:
486,84,122326,2,0,L|480:148,1,50,2|2,0:0|0:0,0:0:0:0:
446,161,122635,1,8,0:0:0:0:
446,161,122790,2,0,L|456:274,1,100,2|2,0:0|0:0,0:0:0:0:
458,310,123254,1,8,0:0:0:0:
371,360,123563,5,2,0:0:0:0:
298,291,123873,2,0,B|249:269|179:290|228:313|158:345|91:308,1,200,8|8,0:0|0:0,0:0:0:0:
25,262,124801,1,2,0:0:0:0:
17,162,125110,2,0,P|45:93|162:46,1,200,8|8,0:0|0:0,0:0:0:0:
251,71,126038,5,2,0:0:0:0:
340,114,126347,2,0,B|395:126|438:100|438:100|479:144|480:211,1,200,8|8,0:0|0:0,0:0:0:0:
456,285,127275,1,2,0:0:0:0:
363,322,127584,2,0,B|312:331|269:298|269:298|248:352|181:358,1,200,8|8,0:0|0:0,0:0:0:0:
99,321,128512,6,0,L|90:215,1,100,6|8,0:0|0:0,0:0:0:0:
57,183,128976,2,0,L|66:77,1,100,0|2,0:0|0:0,0:0:0:0:
100,47,129440,1,8,0:0:0:0:
100,47,129594,2,0,P|147:39|206:60,1,100,2|2,0:0|0:0,0:0:0:0:
233,87,130058,1,8,0:0:0:0:
270,179,130368,2,0,L|280:297,1,100,2|8,0:0|0:0,0:0:0:0:
338,358,130986,6,0,P|386:363|450:341,1,100,2|8,0:0|0:0,0:0:0:0:
471,314,131450,2,0,L|481:196,1,100,0|2,0:0|0:0,0:0:0:0:
505,173,131914,1,8,0:0:0:0:
505,173,132069,2,0,L|495:55,1,100,2|2,0:0|0:0,0:0:0:0:
468,32,132532,1,8,0:0:0:0:
379,78,132842,2,0,P|331:93|266:84,1,100,2|8,0:0|0:0,0:0:0:0:
244,66,133306,1,0,0:0:0:0:
244,66,133460,6,0,L|136:74,1,100,6|8,0:0|0:0,0:0:0:0:
53,116,134079,1,2,0:0:0:0:
25,212,134388,1,8,0:0:0:0:
73,299,134697,2,0,P|123:311|181:294,1,100,0|8,0:0|0:0,0:0:0:0:
214,274,135161,1,0,0:0:0:0:
214,274,135316,2,0,P|264:286|322:269,1,100,2|8,0:0|0:0,0:0:0:0:
349,243,135780,1,0,0:0:0:0:
349,243,135935,6,0,L|463:252,2,100,12|8|8,0:0|0:0|0:0,0:0:0:0:
283,167,136862,2,0,L|226:171,1,50,8|2,0:0|0:0,0:0:0:0:
182,173,137172,1,8,0:0:0:0:
124,90,137481,1,8,0:0:0:0:
199,24,137790,2,0,L|256:28,1,50,8|0,0:0|3:0,0:0:0:0:
288,58,138099,2,0,L|345:53,1,50,8|0,0:0|3:0,0:0:0:0:
387,48,138409,5,6,0:0:0:0:
464,110,138718,1,8,0:0:0:0:
411,195,139027,2,0,P|401:242|415:297,1,100,2|8,0:0|0:0,0:0:0:0:
435,343,139491,1,0,0:0:0:0:
435,343,139646,2,0,P|388:333|333:347,1,100,2|8,0:0|0:0,0:0:0:0:
242,371,140264,2,0,L|235:316,1,50,2|2,0:0|0:0,0:0:0:0:
229,271,140574,1,8,0:0:0:0:
177,185,140883,6,0,P|131:197|64:186,2,100,2|8|2,0:0|0:0|0:0,0:0:0:0:
211,149,141656,1,2,0:0:0:0:
211,149,141811,1,8,0:0:0:0:
305,182,142120,2,0,L|426:172,1,100,2|8,0:0|0:0,0:0:0:0:
497,211,142739,1,2,0:0:0:0:
510,308,143048,1,8,0:0:0:0:
426,363,143357,6,0,P|375:375|316:362,2,100,2|8|2,0:0|0:0|0:0,0:0:0:0:
472,340,144130,1,2,0:0:0:0:
472,340,144285,2,0,L|475:268,1,50,8|0,0:0|0:0,0:0:0:0:
499,246,144594,2,0,L|494:126,1,100,2|8,0:0|0:0,0:0:0:0:
440,62,145213,1,2,0:0:0:0:
342,41,145522,1,8,0:0:0:0:
256,92,145831,6,0,P|185:98|146:78,2,100,2|8|2,0:0|0:0|0:0,0:0:0:0:
342,41,146759,1,8,0:0:0:0:
440,62,147069,1,2,0:0:0:0:
494,146,147378,1,12,0:0:0:0:
453,237,147687,2,0,L|392:240,1,50,8|8,3:0|3:0,0:0:0:0:
367,275,147996,2,0,L|306:272,1,50,4|2,3:0|0:0,0:0:0:0:
284,234,148306,6,0,P|221:219|171:229,1,100,6|8,0:0|0:0,0:0:0:0:
91,253,148924,2,0,L|85:197,1,50,2|2,0:0|0:0,0:0:0:0:
81,153,149233,1,8,0:0:0:0:
107,56,149543,2,0,P|152:35|214:33,1,100,2|8,0:0|0:0,0:0:0:0:
300,48,150161,2,0,L|306:104,1,50,2|2,0:0|0:0,0:0:0:0:
310,147,150471,1,8,0:0:0:0:
352,237,150780,6,0,P|418:230|469:247,2,100,2|8|2,0:0|0:0|0:0,0:0:0:0:
315,271,151553,1,2,0:0:0:0:
315,271,151708,1,8,0:0:0:0:
222,237,152017,2,0,P|156:230|105:247,1,100,2|8,0:0|0:0,0:0:0:0:
36,287,152636,1,2,0:0:0:0:
7,191,152945,1,8,0:0:0:0:
95,144,153254,6,0,L|85:29,2,100,2|8|2,0:0|0:0|0:0,0:0:0:0:
128,189,154027,1,2,0:0:0:0:
128,189,154182,1,8,0:0:0:0:
224,166,154491,2,0,P|270:152|329:156,1,100,2|8,0:0|0:0,0:0:0:0:
415,187,155110,1,2,0:0:0:0:
444,282,155419,1,8,0:0:0:0:
379,358,155728,6,0,P|333:372|274:368,2,100,2|8|2,0:0|0:0|0:0,0:0:0:0:
444,282,156656,1,8,0:0:0:0:
504,202,156965,2,0,L|491:84,1,100,2|8,0:0|0:0,0:0:0:0:
466,67,157429,1,8,0:0:0:0:
466,67,157584,2,0,P|404:58|352:75,1,100,8|8,0:0|3:0,0:0:0:0:
291,131,158203,6,0,L|176:125,1,100,6|2,0:0|0:0,0:0:0:0:
156,90,158666,2,0,L|41:96,1,100,8|2,0:0|0:0,0:0:0:0:
15,124,159130,1,12,0:0:0:0:
11,224,159440,2,0,P|54:246|116:241,1,100,12|12,0:0|0:0,0:0:0:0:
202,225,160058,2,0,L|212:334,1,100,8|4,0:0|3:0,0:0:0:0:
302,366,160677,5,6,0:0:0:0:
417,185,168099,6,0,L|315:190,1,100,6|2,0:0|0:0,0:0:0:0:
224,227,168718,2,0,L|173:224,1,50,8|0,1:2|1:0,0:0:0:0:
142,185,169027,2,0,L|91:187,1,50,8|0,1:2|1:0,0:0:0:0:
54,209,169337,1,4,0:0:0:0:
54,209,170895,6,0,P|41:158|52:103,2,100,6|2|2,0:0|0:0|0:0,0:0:0:0:
115,287,172063,1,2,0:0:0:0:
178,209,172453,2,0,P|191:158|180:103,2,100,2|2|2,0:0|0:0|0:0,0:0:0:0:
115,287,173622,1,2,0:0:0:0:
185,357,174011,6,0,L|289:348,1,100,2|2,0:0|0:0,0:0:0:0:
339,264,174791,2,0,L|443:273,1,100,2|2,0:0|0:0,0:0:0:0:
502,195,175570,2,0,P|510:142|497:90,1,100,2|2,0:0|0:0,0:0:0:0:
414,44,176349,2,0,P|361:36|309:49,1,100,2|2,0:0|0:0,0:0:0:0:
231,99,177128,6,0,L|131:94,1,100,10|10,0:0|0:0,0:0:0:0:
45,146,177907,1,10,0:0:0:0:
21,243,178297,1,10,0:0:0:0:
78,324,178687,2,0,P|135:343|196:331,1,100,10|10,0:0|0:0,0:0:0:0:
255,281,179466,1,10,0:0:0:0:
282,185,179856,1,10,0:0:0:0:
231,99,180245,6,0,P|245:59|287:19,2,100,10|10|10,0:0|0:0|0:0,0:0:0:0:
282,185,181414,1,10,0:0:0:0:
355,252,181804,2,0,L|471:244,1,100,10|10,0:0|0:0,0:0:0:0:
469,344,182583,2,0,L|353:352,1,100,10|10,0:0|0:0,0:0:0:0:
256,359,183362,5,4,3:0:0:0:
256,192,184599,12,6,186454,0:0:0:0:
256,192,187073,6,0,P|192:172|107:206,1,150,6|0,1:0|0:0,0:0:0:0:
81,234,187691,2,0,P|101:170|67:85,1,150,2|0,1:0|0:0,0:0:0:0:
44,53,188310,2,0,P|108:73|193:39,1,150,2|0,1:0|0:0,0:0:0:0:
225,17,188929,1,2,1:0:0:0:
324,26,189238,1,2,1:0:0:0:
398,92,189547,6,0,B|413:189|413:189|390:248,1,150,2|0,1:0|0:0,0:0:0:0:
367,280,190166,2,0,B|270:265|270:265|211:288,1,150,2|0,1:0|0:0,0:0:0:0:
177,307,190784,2,0,B|162:210|162:210|185:151,1,150,2|0,1:0|0:0,0:0:0:0:
205,117,191403,1,2,1:0:0:0:
132,47,191712,1,2,1:0:0:0:
42,90,192021,6,0,P|23:149|43:237,1,150,6|0,1:0|0:0,0:0:0:0:
77,269,192640,2,0,B|177:261|177:261|235:290,1,150,2|0,1:0|0:0,0:0:0:0:
265,307,193258,2,0,P|283:235|263:163,1,150,2|0,1:0|0:0,0:0:0:0:
229,127,193877,1,2,1:0:0:0:
278,39,194186,1,2,1:0:0:0:
377,27,194496,5,8,1:2:0:0:
256,192,194650,12,0,196970,1:0:0:0:
440,192,201918,6,0,B|303:207|303:207|239:176,1,200,6|4,0:0|3:0,0:0:0:0:
164,123,202846,1,4,3:0:0:0:
73,164,203155,2,0,P|56:234|64:269,1,100,8|8,0:0|0:0,0:0:0:0:
142,318,203774,2,0,L|134:376,2,50,8|2|8,0:0|0:0|0:0,0:0:0:0:
217,252,204392,6,0,B|262:235|320:267|300:279|355:301|408:280|408:280|385:224|417:171,1,300,6|0,0:0|0:0,0:0:0:0:
479,110,205630,2,0,P|432:85|366:92,1,100,8|2,0:0|0:0,0:0:0:0:
339,101,206093,2,0,P|292:76|226:83,1,100,8|2,0:0|0:0,0:0:0:0:
198,89,206557,1,8,0:0:0:0:
128,160,206867,5,2,0:0:0:0:
325,192,207485,1,2,0:0:0:0:
153,295,208104,6,0,L|48:283,1,100,6|8,0:0|0:0,0:0:0:0:
16,191,208722,2,0,P|10:142|25:88,1,100,2|8,0:0|0:0,0:0:0:0:
59,60,209186,1,0,0:0:0:0:
59,60,209341,2,0,P|108:66|162:51,1,100,2|8,0:0|0:0,0:0:0:0:
250,20,209959,2,0,L|317:23,1,50,2|2,0:0|0:0,0:0:0:0:
350,22,210269,1,8,0:0:0:0:
415,97,210578,6,0,P|464:91|518:106,2,100,2|8|2,0:0|0:0|0:0,0:0:0:0:
378,131,211351,1,2,0:0:0:0:
378,131,211506,1,8,0:0:0:0:
357,228,211815,2,0,P|308:234|254:219,1,100,2|8,0:0|0:0,0:0:0:0:
192,147,212434,1,2,0:0:0:0:
92,147,212743,1,8,0:0:0:0:
27,224,213052,6,0,L|35:335,2,100,2|8|2,0:0|0:0|0:0,0:0:0:0:
6,185,213825,1,2,0:0:0:0:
6,185,213980,2,0,L|10:129,1,50,8|0,0:0|0:0,0:0:0:0:
19,86,214289,2,0,P|68:75|126:88,1,100,2|8,0:0|0:0,0:0:0:0:
209,120,214908,1,2,0:0:0:0:
235,216,215217,1,8,0:0:0:0:
182,301,215526,6,0,P|133:312|75:299,2,100,2|8|2,0:0|0:0|0:0,0:0:0:0:
235,216,216454,1,8,0:0:0:0:
295,135,216764,1,2,0:0:0:0:
394,123,217073,1,12,0:0:0:0:
470,186,217382,2,0,L|472:245,1,50,8|8,3:0|3:0,0:0:0:0:
502,275,217691,2,0,L|500:334,1,50,2|2,0:0|0:0,0:0:0:0:
474,368,218001,6,0,P|418:372|372:358,1,100,6|8,0:0|0:0,0:0:0:0:
297,299,218619,2,0,L|236:303,1,50,2|2,0:0|0:0,0:0:0:0:
196,308,218929,1,8,0:0:0:0:
96,318,219238,2,0,P|77:264|79:216,1,100,2|8,0:0|0:0,0:0:0:0:
126,133,219856,2,0,L|187:137,1,50,2|2,0:0|0:0,0:0:0:0:
227,142,220166,1,8,0:0:0:0:
325,158,220475,6,0,L|319:273,2,100,2|8|2,0:0|0:0|0:0,0:0:0:0:
363,126,221248,1,2,0:0:0:0:
363,126,221403,1,8,0:0:0:0:
338,30,221712,2,0,P|290:17|240:29,1,100,2|8,0:0|0:0,0:0:0:0:
148,64,222331,1,2,0:0:0:0:
104,153,222640,1,8,0:0:0:0:
142,245,222949,6,0,L|256:237,2,100,2|8|2,0:0|0:0|0:0,0:0:0:0:
105,279,223722,1,2,0:0:0:0:
105,279,223877,1,8,0:0:0:0:
142,371,224186,2,0,P|190:380|250:368,1,100,2|12,0:0|0:0,0:0:0:0:
328,326,224805,2,0,L|333:269,1,50,8|0,1:2|1:0,0:0:0:0:
370,243,225114,2,0,L|365:186,1,50,8|0,1:2|1:0,0:0:0:0:
359,143,225423,6,0,P|403:133|471:145,2,100,6|8|2,0:0|0:0|0:0,0:0:0:0:
267,184,226351,1,8,0:0:0:0:
180,233,226660,2,0,P|136:243|68:231,1,100,2|8,0:0|0:0,0:0:0:0:
12,163,227279,2,0,L|18:104,1,50,2|2,0:0|0:0,0:0:0:0:
28,64,227588,1,8,0:0:0:0:
126,43,227898,6,0,P|176:30|242:44,2,100,2|8|2,0:0|0:0|0:0,0:0:0:0:
110,93,228671,1,2,0:0:0:0:
110,93,228825,1,8,0:0:0:0:
131,191,229135,2,0,P|181:204|247:190,1,100,2|8,0:0|0:0,0:0:0:0:
321,157,229753,1,2,0:0:0:0:
407,207,230063,1,8,0:0:0:0:
411,306,230372,6,0,L|510:299,2,100,2|8|2,0:0|0:0|0:0,0:0:0:0:
373,338,231145,1,2,0:0:0:0:
373,338,231300,2,0,L|323:334,1,50,8|0,0:0|0:0,0:0:0:0:
286,300,231609,2,0,P|245:287|177:297,1,100,2|8,0:0|0:0,0:0:0:0:
92,318,232227,1,2,0:0:0:0:
18,249,232537,1,8,0:0:0:0:
52,155,232846,6,0,P|60:109|62:45,2,100,2|8|2,0:0|0:0|0:0,0:0:0:0:
18,249,233774,1,8,0:0:0:0:
92,318,234083,1,2,0:0:0:0:
189,292,234392,1,12,0:0:0:0:
236,203,234702,2,0,L|230:139,1,50,8|8,3:0|3:0,0:0:0:0:
196,116,235011,2,0,L|202:52,1,50,2|2,0:0|0:0,0:0:0:0:
228,24,235320,6,0,P|279:14|345:28,1,100,6|8,0:0|0:0,0:0:0:0:
412,72,235939,2,0,L|418:136,1,50,2|2,0:0|0:0,0:0:0:0:
419,171,236248,1,8,0:0:0:0:
390,266,236557,2,0,P|339:276|273:262,1,100,2|8,0:0|0:0,0:0:0:0:
224,194,237176,2,0,L|170:197,1,50,2|2,0:0|0:0,0:0:0:0:
124,201,237485,1,8,0:0:0:0:
24,207,237794,6,0,L|37:316,2,100,2|8|2,0:0|0:0|0:0,0:0:0:0:
10,164,238568,1,2,0:0:0:0:
10,164,238722,1,8,0:0:0:0:
27,65,239032,2,0,P|68:52|129:61,1,100,2|8,0:0|0:0,0:0:0:0:
203,119,239650,1,2,0:0:0:0:
301,135,239959,1,8,0:0:0:0:
386,82,240269,6,0,P|427:95|488:86,2,100,2|8|2,0:0|0:0|0:0,0:0:0:0:
352,53,241042,1,2,0:0:0:0:
352,53,241197,1,8,0:0:0:0:
257,21,241506,2,0,L|139:25,1,100,2|8,0:0|0:0,0:0:0:0:
61,52,242124,1,2,0:0:0:0:
30,148,242434,1,8,0:0:0:0:
85,231,242743,6,0,L|73:348,2,100,2|8|2,0:0|0:0|0:0,0:0:0:0:
166,172,243671,1,8,0:0:0:0:
245,232,243980,2,0,P|301:242|355:233,1,100,2|12,0:0|0:0,0:0:0:0:
438,206,244599,2,0,L|444:273,1,50,2|2,0:0|0:0,0:0:0:0:
445,305,244908,1,12,0:0:0:0:
367,368,245217,5,6,0:0:0:0:
267,361,245526,2,0,P|199:356|329:77,1,600,8|8,1:2|1:2,0:0:0:0:
400,145,247691,5,6,0:0:0:0:
427,240,248001,2,0,B|294:249|294:249|243:206,1,200,8|8,1:2|3:0,0:0:0:0:
180,129,248929,2,0,L|110:124,1,50,2|2,0:0|0:0,0:0:0:0:
48,182,249392,2,0,L|43:252,1,50,2|2,0:0|0:0,0:0:0:0:
101,321,249856,1,2,0:0:0:0:
101,321,250011,1,10,0:0:0:0:
256,192,251403,12,6,259444,0:0:0:0:
