osu file format v14

[General]
AudioFilename: audio.mp3
AudioLeadIn: 0
PreviewTime: 135282
Countdown: 0
SampleSet: Normal
StackLeniency: 0.7
Mode: 0
LetterboxInBreaks: 0
EpilepsyWarning: 1
WidescreenStoryboard: 1

[Editor]
Bookmarks: 130991,131074,131095,131116,131136,131157,131199,131241,131303,131366,131449,131470,131532,131553,131574,131616,131657,131720,131741,131761,131803,131886,131907,131970,132011,132032,132116,132136,132157,132199,132241,132261,132324,132345,132386,132449,132470,132491,132532,132553,132595,132657,132699,132720,132741,132782,132845,132886,132949,132991,133032,133053
DistanceSpacing: 2
BeatDivisor: 8
GridSize: 8
TimelineZoom: 3.099999

[Metadata]
Title:THIS IS MY LAST VOICE
TitleUnicode:THIS IS MY LAST VOICE
Artist:THIS IS PARALLEL WORLD?
ArtistUnicode:THIS IS PARALLEL WORLD?
Creator:Skymin
Version:Light Insane
Source:
Tags:korean vocaloid seeu 시유 Civil oath darovinci0 _Epreus Kaneko Chiharu [Kuro Usagi]
BeatmapID:3050032
BeatmapSetID:812909

[Difficulty]
HPDrainRate:5
CircleSize:4
OverallDifficulty:7.5
ApproachRate:8.5
SliderMultiplier:1.6
SliderTickRate:1

[Events]
//Background and Video events
0,0,"bg.png",0,0
//Break Periods
2,93097,97555
2,130048,132982
//Storyboard Layer 0 (Background)
//Storyboard Layer 1 (Fail)
//Storyboard Layer 2 (Pass)
//Storyboard Layer 3 (Foreground)
//Storyboard Layer 4 (Overlay)
//Storyboard Sound Samples

[TimingPoints]
3564,333.333333333333,4,1,1,100,1,0
4897,-133.333333333333,4,1,1,40,0,0
14563,-133.333333333333,4,1,1,50,0,0
14897,-133.333333333333,4,1,1,60,0,0
15230,-133.333333333333,4,1,1,80,0,0
15563,-100,4,1,1,100,0,0
47063,-100,4,1,1,75,0,0
47230,-100,4,1,1,50,0,0
50230,-100,4,1,1,100,0,0
55230,-100,4,1,1,80,0,0
55563,-100,4,1,1,90,0,0
60897,-100,4,1,1,100,0,0
65897,-100,4,1,1,80,0,0
66230,-100,4,1,1,90,0,0
71563,-100,4,1,1,100,0,0
92897,-100,4,1,1,80,0,0
98230,-100,4,1,1,80,0,0
103230,-100,4,1,1,30,0,0
103563,571.428571428571,4,1,1,80,1,0
103563,-76.9230769230769,4,1,1,80,0,0
121848,-100,4,1,1,60,0,0
126420,-100,4,1,1,50,0,0
128705,-100,4,1,1,40,0,0
129848,-100,4,1,1,30,0,0
130991,333.333333333333,4,1,1,100,1,0
135657,-100,4,1,1,50,0,0
136324,-100,4,1,1,100,0,0
141324,-100,4,1,1,80,0,0
141657,-100,4,1,1,90,0,0
146990,-100,4,1,1,100,0,0
151990,-100,4,1,1,80,0,0
152324,-100,4,1,1,90,0,0
157657,-100,4,1,1,100,0,0

[Colours]
Combo1 : 255,165,104
Combo2 : 215,130,221
Combo3 : 255,244,111
Combo4 : 244,72,98

[HitObjects]
47,295,4897,6,0,L|117:290,1,60.0000022888184,2|0,2:0|2:0,2:0:0:0:
176,330,5230,2,0,L|246:325,1,60.0000022888184,0|0,2:0|2:0,0:0:0:0:
234,244,5563,2,0,L|174:248,1,60.0000022888184,2|0,2:0|2:0,2:0:0:0:
106,290,5897,1,0,2:0:0:0:
119,133,6063,6,0,P|170:104|225:123,1,120.000004577637,2|0,2:0|2:0,2:0:0:0:
174,248,6563,2,0,L|178:187,1,60.0000022888184,2|0,2:0|2:0,2:0:0:0:
255,195,6897,2,0,L|251:254,1,60.0000022888184,2|0,2:0|2:0,2:0:0:0:
225,123,7230,1,0,2:0:0:0:
297,0,7397,6,0,P|307:59|309:118,1,120.000004577637,2|0,2:0|2:0,2:0:0:0:
440,118,7897,2,0,P|414:106|375:101,1,60.0000022888184,2|0,2:0|2:0,2:0:0:0:
360,176,8230,2,0,P|386:188|425:193,1,60.0000022888184,2|0,2:0|2:0,2:0:0:0:
309,118,8563,1,0,2:0:0:0:
415,271,8730,6,0,P|462:256|495:193,1,120.000004577637,2|0,2:0|2:0,2:0:0:0:
421,133,9230,6,0,L|416:192,1,60.0000022888184,2|0,2:0|2:0,2:0:0:0:
362,315,9563,2,0,L|366:255,1,60.0000022888184,2|0,2:0|2:0,2:0:0:0:
332,125,9897,2,0,L|326:184,1,60.0000022888184,2|0,2:0|2:0,2:0:0:0:
254,321,10230,6,0,L|189:316,1,60.0000022888184,2|0,2:0|2:0,2:0:0:0:
65,342,10563,2,0,L|130:347,1,60.0000022888184,0|0,2:0|2:0,0:0:0:0:
132,271,10897,2,0,L|67:266,1,60.0000022888184,2|0,2:0|2:0,2:0:0:0:
194,316,11230,1,0,2:0:0:0:
0,290,11397,6,0,P|4:229|47:195,1,120.000004577637,2|0,2:0|2:0,2:0:0:0:
116,84,11897,2,0,L|102:144,1,60.0000022888184,2|0,2:0|2:0,2:0:0:0:
29,120,12230,2,0,L|42:59,1,60.0000022888184,2|0,2:0|2:0,2:0:0:0:
47,194,12563,1,0,2:0:0:0:
193,95,12730,6,0,L|312:86,1,120.000004577637,2|0,2:0|2:0,2:0:0:0:
437,124,13230,2,0,P|408:131|378:128,1,60.0000022888184,2|0,2:0|2:0,2:0:0:0:
372,36,13563,2,0,P|400:28|430:31,1,60.0000022888184,2|0,2:0|2:0,2:0:0:0:
312,86,13897,1,0,2:0:0:0:
437,124,14063,6,0,L|425:243,1,120.000004577637,2|0,2:0|2:0,2:0:0:0:
390,314,14563,6,0,L|395:375,1,60.0000022888184,2|0,2:0|2:0,2:0:0:0:
340,250,14897,2,0,L|335:189,1,60.0000022888184,2|0,2:0|2:0,2:0:0:0:
308,322,15230,2,0,L|313:383,1,60.0000022888184,2|0,2:0|2:0,2:0:0:0:
105,292,15563,5,6,0:0:0:0:
44,363,15730,1,0,0:0:0:0:
59,221,15897,2,0,P|95:206|135:211,1,80,10|0,0:0|0:0,0:0:0:0:
200,341,16230,5,0,0:0:0:0:
306,322,16397,1,2,0:0:0:0:
199,259,16563,1,8,0:0:0:0:
306,239,16730,1,2,0:0:0:0:
386,344,16897,5,0,0:0:0:0:
386,211,17063,1,2,0:0:0:0:
306,322,17230,1,8,0:0:0:0:
306,239,17397,1,2,0:0:0:0:
386,344,17563,6,0,L|471:334,1,80,0|2,0:0|0:0,0:0:0:0:
502,263,17897,1,10,0:0:0:0:
427,172,18063,2,0,L|423:251,1,80,2|0,0:0|0:0,0:0:0:0:
297,344,18397,1,2,0:0:0:0:
316,252,18563,6,0,L|236:259,1,80,10|0,0:0|0:0,0:0:0:0:
128,343,18897,2,0,L|208:336,1,80,2|0,0:0|0:0,0:0:0:0:
236,258,19230,1,10,0:0:0:0:
154,260,19397,2,0,L|146:178,1,80,2|0,0:0|0:0,0:0:0:0:
72,191,19730,2,0,L|80:273,1,80,2|8,0:0|0:0,0:0:0:0:
100,119,20063,1,2,0:0:0:0:
129,46,20230,5,2,0:0:0:0:
51,55,20397,1,2,0:0:0:0:
100,119,20563,1,10,0:0:0:0:
176,108,20730,1,2,0:0:0:0:
230,189,20897,6,0,L|140:182,1,80,6|0,0:0|0:0,0:0:0:0:
253,100,21230,2,0,L|343:107,1,80,10|0,0:0|0:0,0:0:0:0:
434,212,21563,5,0,0:0:0:0:
415,106,21730,1,2,0:0:0:0:
352,213,21896,1,8,0:0:0:0:
332,106,22063,1,2,0:0:0:0:
434,212,22230,5,0,0:0:0:0:
272,209,22397,1,2,0:0:0:0:
422,293,22563,1,8,0:0:0:0:
271,290,22730,2,0,L|180:289,1,80,2|0,0:0|0:0,0:0:0:0:
272,209,23063,5,2,0:0:0:0:
352,213,23230,1,10,0:0:0:0:
347,374,23397,2,0,L|257:370,1,80,2|0,0:0|0:0,0:0:0:0:
271,290,23730,5,2,0:0:0:0:
140,353,23897,2,0,P|117:322|114:282,1,80,10|0,0:0|0:0,0:0:0:0:
134,145,24230,2,0,P|157:176|160:216,1,80,2|0,0:0|0:0,0:0:0:0:
190,288,24563,1,10,0:0:0:0:
38,265,24730,6,0,P|54:228|86:206,1,80,2|0,0:0|0:0,0:0:0:0:
182,86,25063,2,0,P|165:122|133:144,1,80,2|8,0:0|0:0,0:0:0:0:
96,72,25397,1,0,0:0:0:0:
160,216,25563,1,0,0:0:0:0:
255,139,25730,1,0,0:0:0:0:
86,206,25897,2,0,L|97:338,1,120,10|8,0:0|0:0,0:0:0:0:
135,351,26230,6,0,P|173:361|216:348,1,80,12|0,0:0|0:0,0:0:0:0:
331,138,26563,2,0,P|293:128|250:141,1,80,10|0,0:0|0:0,0:0:0:0:
173,278,26897,1,0,0:0:0:0:
199,205,27063,1,2,0:0:0:0:
270,283,27230,1,8,0:0:0:0:
296,210,27396,1,2,0:0:0:0:
331,138,27563,5,0,0:0:0:0:
349,269,27730,1,2,0:0:0:0:
410,153,27897,1,8,0:0:0:0:
422,240,28064,1,2,0:0:0:0:
296,210,28230,6,0,L|207:210,1,80,0|2,0:0|0:0,0:0:0:0:
149,248,28563,1,10,0:0:0:0:
160,83,28730,2,0,L|153:162,1,80,2|0,0:0|0:0,0:0:0:0:
216,210,29063,5,2,0:0:0:0:
149,334,29230,2,0,P|96:346|68:330,1,80,10|0,0:0|0:0,0:0:0:0:
74,249,29563,2,0,P|126:236|154:252,1,80,2|0,0:0|3:0,0:0:0:0:
153,162,29897,1,10,0:0:0:0:
291,198,30063,6,0,L|302:286,1,80,2|0,0:0|0:0,0:0:0:0:
225,289,30397,2,0,L|214:201,1,80,2|8,0:0|0:0,0:0:0:0:
240,134,30730,1,2,0:0:0:0:
269,61,30897,5,2,0:0:0:0:
191,70,31064,1,2,0:0:0:0:
240,134,31230,1,10,0:0:0:0:
316,123,31397,1,2,0:0:0:0:
373,177,31563,6,0,L|364:267,1,80,6|0,0:0|0:0,0:0:0:0:
384,79,31897,2,0,L|393:-11,1,80,10|0,0:0|0:0,0:0:0:0:
442,134,32230,5,0,0:0:0:0:
316,123,32396,1,2,0:0:0:0:
446,210,32563,1,8,0:0:0:0:
299,197,32729,1,2,0:0:0:0:
403,332,32897,5,0,0:0:0:0:
373,177,33063,1,2,0:0:0:0:
329,352,33230,1,8,0:0:0:0:
299,197,33396,1,2,0:0:0:0:
234,337,33563,6,0,P|197:353|156:349,1,80,2|2,0:0|0:0,0:0:0:0:
185,270,33897,1,10,0:0:0:0:
299,197,34063,2,0,L|314:287,1,80,2|0,0:0|0:0,0:0:0:0:
234,337,34397,5,2,0:0:0:0:
150,196,34563,1,10,0:0:0:0:
312,275,34730,1,2,0:0:0:0:
185,270,34897,1,2,0:0:0:0:
329,352,35063,1,2,0:0:0:0:
299,197,35230,1,10,0:0:0:0:
234,337,35397,6,0,P|197:353|156:349,1,80,2|0,0:0|0:0,0:0:0:0:
74,208,35730,2,0,P|110:191|152:196,1,80,2|8,0:0|0:0,0:0:0:0:
224,144,36063,1,0,0:0:0:0:
185,270,36230,1,0,0:0:0:0:
299,197,36397,1,0,0:0:0:0:
149,195,36563,5,8,0:0:0:0:
234,337,36730,1,8,0:0:0:0:
44,344,36897,1,12,0:0:0:0:
45,343,37230,6,0,P|64:309|68:269,1,80,10|0,0:2|0:2,0:2:0:0:
42,195,37563,1,2,0:2:0:0:
42,195,37730,2,0,L|126:187,1,80,2|8,0:2|0:2,0:2:0:0:
146,24,38063,6,0,P|182:70|177:128,1,120,2|0,0:2|0:0,0:2:0:0:
121,187,38397,1,2,0:2:0:0:
205,202,38563,2,0,L|250:211,3,40,10|0|0|0,0:2|0:2|0:2|0:2,0:2:0:0:
295,191,38897,2,0,L|334:183,3,40,0|0|0|0,0:2|0:2|0:2|0:2,0:2:0:0:
384,191,39230,2,0,L|375:270,1,80,10|0,0:2|0:2,0:2:0:0:
377,349,39563,6,0,P|430:326|451:271,2,120,2|2|2,0:2|0:2|0:2,0:0:0:0:
134,349,40230,2,0,P|81:326|60:271,2,120,2|2|2,0:2|0:2|0:2,0:0:0:0:
240,251,40897,5,2,0:2:0:0:
145,269,41063,1,0,0:2:0:0:
164,129,41230,2,0,L|187:178,3,40,10|0|0|0,0:2|0:2|0:2|0:2,0:2:0:0:
229,175,41563,2,0,L|245:211,3,40,0|0|0|0,0:2|0:2|0:2|0:2,0:2:0:0:
240,251,41897,2,0,L|225:339,1,80,8|0,0:2|0:2,0:2:0:0:
319,303,42230,1,4,0:2:0:0:
319,303,42563,6,0,L|405:291,1,80,10|0,0:2|0:2,0:2:0:0:
459,204,42897,1,2,0:2:0:0:
459,204,43063,2,0,L|379:215,1,80,2|8,0:2|0:2,0:2:0:0:
329,142,43397,6,0,P|318:86|373:22,1,120,2|0,0:2|0:0,0:2:0:0:
383,22,43730,1,2,0:2:0:0:
476,88,43897,2,0,L|385:102,1,80,10|0,0:2|0:2,0:2:0:0:
397,101,44147,1,0,0:2:0:0:
397,101,44230,1,0,0:2:0:0:
379,215,44397,1,0,0:2:0:0:
329,142,44563,2,0,L|249:152,1,80,10|0,0:2|0:2,0:2:0:0:
155,247,44897,5,2,0:2:0:0:
155,247,45063,1,2,0:2:0:0:
299,241,45230,1,10,0:2:0:0:
249,151,45397,1,2,0:2:0:0:
176,225,45563,1,2,0:2:0:0:
256,122,45730,1,2,0:2:0:0:
310,275,45897,1,10,0:2:0:0:
311,71,46063,6,0,P|258:44|204:65,1,120,2|0,0:2|0:0,0:2:0:0:
173,147,46397,2,0,L|183:185,1,40,10|0,0:2|0:2,0:2:0:0:
256,122,46563,2,0,L|256:175,1,40,10|0,0:2|0:2,0:2:0:0:
340,147,46730,2,0,L|329:185,1,40,10|0,0:2|0:2,0:2:0:0:
256,242,46897,6,0,L|256:288,3,40,10|0|0|0,0:2|0:2|0:2|0:2,0:2:0:0:
255,301,47230,2,0,L|255:348,3,40,10|0|0|0,0:2|0:2|0:2|0:2,0:2:0:0:
255,378,47563,1,0,0:0:0:0:
256,192,47647,12,2,48897,2:0:0:0:
51,63,49230,5,2,0:0:0:0:
127,105,49563,1,2,0:0:0:0:
182,29,49897,1,2,0:0:0:0:
247,105,50230,6,0,L|126:105,1,120,6|0,0:0|0:0,0:0:0:0:
77,165,50563,2,0,P|76:204|95:239,1,80,8|0,0:0|0:0,0:0:0:0:
127,105,50897,1,0,0:0:0:0:
233,185,51063,2,0,L|133:185,1,80,2|8,0:0|0:0,0:0:0:0:
257,267,51397,6,0,L|356:267,1,80,2|0,0:0|0:0,0:0:0:0:
375,338,51730,1,2,0:0:0:0:
225,342,51897,2,0,P|191:321|179:284,2,80,10|0|0,0:0|0:0|0:0,0:0:0:0:
337,267,52397,1,0,0:0:0:0:
253,146,52563,2,0,P|194:144|151:185,1,120,10|0,0:0|0:0,0:0:0:0:
121,215,52897,6,0,L|104:81,1,120,2|0,0:0|0:0,0:0:0:0:
53,41,53230,2,0,P|96:20|138:28,1,80,8|0,0:0|0:0,0:0:0:0:
253,146,53563,1,0,0:0:0:0:
253,146,53730,1,0,0:0:0:0:
185,102,53897,6,0,L|88:94,1,80,10|0,0:0|0:0,0:0:0:0:
330,119,54230,2,0,L|427:127,1,80,2|0,0:0|0:0,0:0:0:0:
158,172,54563,2,0,L|61:164,1,80,10|0,0:0|0:0,0:0:0:0:
345,194,54896,2,0,L|442:202,1,80,2|0,0:0|0:0,0:0:0:0:
253,146,55230,2,0,L|239:267,1,120,14|0,0:0|0:0,0:0:0:0:
313,313,55563,5,6,0:0:0:0:
165,283,55730,2,0,P|199:263|238:265,1,80,0|8,0:0|0:0,0:0:0:0:
345,194,56063,2,0,P|376:122|349:49,1,160,0|2,0:0|0:0,0:0:0:0:
214,121,56563,2,0,L|294:121,1,80,8|0,0:0|0:0,0:0:0:0:
345,194,56897,5,2,0:0:0:0:
349,49,57063,2,0,L|269:49,1,80,0|10,0:0|0:0,0:0:0:0:
78,119,57397,2,0,P|140:156|215:118,1,160,2|0,0:0|0:0,0:0:0:0:
147,0,57897,2,0,L|146:90,1,80,10|0,0:0|0:0,0:0:0:0:
33,185,58230,5,6,0:0:0:0:
33,185,58397,1,0,0:0:0:0:
78,119,58563,2,0,P|108:152|114:190,1,80,8|0,0:0|0:0,0:0:0:0:
112,321,58897,2,0,P|82:288|76:250,1,80
265,284,59230,1,10,0:0:0:0:
160,258,59397,1,2,0:0:0:0:
227,202,59563,5,0,0:0:0:0:
227,202,59730,1,0,0:0:0:0:
263,125,59897,2,0,P|224:116|186:127,1,80,10|0,0:0|0:0,0:0:0:0:
326,173,60230,2,0,P|364:181|402:170,1,80,2|0,0:0|0:0,0:0:0:0:
487,90,60563,2,0,L|478:209,1,120,8|8,0:0|0:0,0:0:0:0:
491,251,60897,6,0,L|340:281,1,120,14|0,0:0|0:0,0:0:0:0:
302,306,61230,2,0,P|263:292|224:291,1,80,8|0,0:0|0:0,0:0:0:0:
227,202,61563,1,0,0:0:0:0:
143,332,61730,2,0,L|156:243,1,80,2|8,0:0|0:0,0:0:0:0:
119,106,62063,6,0,L|107:185,1,80,2|0,0:0|0:0,0:0:0:0:
154,252,62397,1,2,0:0:0:0:
196,90,62563,2,0,P|171:42|137:31,2,80,10|0|0,0:0|0:0|0:0,0:0:0:0:
63,42,63063,1,0,0:0:0:0:
108,186,63230,2,0,L|226:201,1,120,10|0,0:0|0:0,0:0:0:0:
286,153,63563,6,0,P|265:97|283:41,1,120,6|0,0:0|0:0,0:0:0:0:
346,95,63897,2,0,L|427:96,1,80,8|0,0:0|0:0,0:0:0:0:
366,174,64230,1,0,0:0:0:0:
366,174,64397,1,0,0:0:0:0:
477,151,64563,6,0,P|498:119|499:75,1,80,10|0,0:0|0:0,0:0:0:0:
477,233,64897,2,0,P|498:264|499:308,1,80
407,121,65230,2,0,P|410:82|388:44,1,80,10|0,0:0|0:0,0:0:0:0:
407,263,65563,2,0,P|410:301|388:339,1,80,2|0,0:0|0:0,0:0:0:0:
472,192,65897,2,0,L|345:192,1,120,14|0,0:0|0:0,0:0:0:0:
332,283,66230,5,6,0:0:0:0:
304,133,66397,2,0,P|278:165|274:204,1,80,2|8,0:0|0:0,0:0:0:0:
167,250,66730,2,0,P|108:261|47:191,1,160,0|2,0:0|0:0,0:0:0:0:
201,167,67230,2,0,L|115:187,1,80,8|0,0:0|0:0,0:0:0:0:
273,202,67563,5,2,0:0:0:0:
103,112,67730,2,0,L|180:93,1,80,0|10,0:0|0:0,0:0:0:0:
323,142,68063,2,0,P|352:202|295:275,1,160,2|0,0:0|0:0,0:0:0:0:
258,350,68563,2,0,L|166:349,1,80,10|0,0:0|0:0,0:0:0:0:
198,185,68897,6,0,P|199:227|224:262,1,80,6|0,0:0|0:0,0:0:0:0:
382,263,69230,2,0,L|302:272,1,80,8|0,0:0|0:0,0:0:0:0:
258,350,69563,1,0,0:0:0:0:
258,350,69730,1,0,0:0:0:0:
353,193,69897,2,0,L|273:202,1,80,8|0,0:0|0:0,0:0:0:0:
258,350,70230,6,0,L|388:337,1,120,2|0,0:0|2:0,0:0:0:0:
439,282,70563,2,0,B|463:223|463:223|426:174,1,120,10|0,0:0|2:0,0:0:0:0:
353,193,70897,2,0,L|353:73,1,120,10|0,0:0|2:0,0:0:0:0:
420,34,71230,2,0,P|374:-2|316:5,1,120,14|0,0:0|2:0,0:0:0:0:
275,78,71563,6,0,L|275:168,1,80,6|0,0:0|0:0,0:0:0:0:
263,236,71813,1,2,0:0:0:0:
263,236,71897,2,0,P|202:242|166:224,1,80,8|2,0:0|0:0,0:0:0:0:
34,185,72230,6,0,L|118:194,1,80
163,137,72480,1,2,0:0:0:0:
163,137,72563,2,0,P|167:98|137:56,1,80,8|2,0:0|0:0,0:0:0:0:
275,78,72897,6,0,L|359:83,1,80,2|0,0:0|0:0,0:0:0:0:
454,171,73147,1,2,0:0:0:0:
454,171,73230,2,0,L|374:166,1,80,8|2,0:0|0:0,0:0:0:0:
332,256,73563,5,2,0:0:0:0:
299,161,73730,1,2,0:0:0:0:
410,243,73897,2,0,P|398:300|349:332,1,120,10|0,0:0|0:0,0:0:0:0:
273,309,74230,6,0,L|189:321,1,80,2|0,0:0|0:0,0:0:0:0:
126,283,74480,1,2,0:0:0:0:
126,283,74563,2,0,P|112:240|121:185,1,80,8|2,0:0|0:0,0:0:0:0:
205,132,74897,5,2,0:0:0:0:
254,195,75063,1,2,0:0:0:0:
331,171,75230,1,10,0:0:0:0:
254,195,75397,1,2,0:0:0:0:
313,256,75563,6,0,L|390:236,1,80,2|0,0:0|0:0,0:0:0:0:
460,196,75813,1,2,0:0:0:0:
460,196,75897,2,0,P|458:136|445:111,1,80,8|2,0:0|0:0,0:0:0:0:
393,63,76230,5,2,0:0:0:0:
459,283,76564,1,10,0:0:0:0:
459,283,76730,1,0,0:0:0:0:
459,283,76897,6,0,L|360:278,1,80,6|0,0:0|0:0,0:0:0:0:
321,329,77147,1,2,0:0:0:0:
321,329,77230,2,0,L|222:324,1,80,8|2,0:0|0:0,0:0:0:0:
58,312,77563,6,0,P|42:261|55:223,1,80,2|0,0:0|0:0,0:0:0:0:
109,193,77813,1,2,0:0:0:0:
109,193,77897,2,0,P|114:153|98:117,1,80,8|2,0:0|0:0,0:0:0:0:
194,51,78230,6,0,P|235:45|273:64,1,80,2|0,0:0|0:0,0:0:0:0:
319,124,78480,1,0,0:0:0:0:
319,124,78563,2,0,L|306:213,1,80,10|2,0:0|0:0,0:0:0:0:
230,223,78897,1,2,0:0:0:0:
222,123,79063,1,2,0:0:0:0:
177,283,79230,2,0,P|231:303|284:279,1,120,10|0,0:0|0:0,0:0:0:0:
307,203,79563,6,0,L|390:209,1,80,2|0,0:0|0:0,0:0:0:0:
466,237,79813,1,2,0:0:0:0:
466,237,79897,2,0,L|452:150,1,80,8|2,0:0|0:0,0:0:0:0:
416,20,80230,5,2,0:0:0:0:
367,83,80396,1,2,0:0:0:0:
290,59,80563,1,10,0:0:0:0:
367,83,80730,1,2,0:0:0:0:
300,140,80897,6,0,L|216:121,1,80,2|0,0:0|0:0,0:0:0:0:
167,70,81147,1,2,0:0:0:0:
167,70,81230,2,0,P|142:116|147:150,1,80,8|2,0:0|0:0,0:0:0:0:
255,47,81563,5,2,0:0:0:0:
255,270,81897,2,0,L|255:320,2,40,10|0|0,0:0|0:0|0:0,0:0:0:0:
255,196,82230,5,4,0:2:0:0:
414,167,82397,2,0,L|327:180,1,80,2|8,0:0|0:0,0:0:0:0:
322,99,82730,2,0,L|409:86,1,80,2|0,0:0|0:0,0:0:0:0:
334,178,83063,1,2,0:0:0:0:
431,296,83230,1,10,0:0:0:0:
492,150,83397,1,2,0:0:0:0:
418,210,83563,5,0,0:0:0:0:
291,246,83730,2,0,P|257:209|253:173,2,80,2|10|2,0:0|0:0|0:0,0:0:0:0:
334,178,84230,5,2,0:0:0:0:
336,320,84397,1,2,0:0:0:0:
334,178,84563,1,10,0:0:0:0:
336,320,84730,1,2,0:0:0:0:
431,296,84897,5,4,0:2:0:0:
291,246,85063,6,0,L|204:271,1,80,2|8,0:0|0:0,0:0:0:0:
104,219,85397,2,0,L|180:196,1,80,2|0,0:0|0:0,0:0:0:0:
214,268,85730,1,2,0:0:0:0:
14,298,85897,1,10,0:0:0:0:
104,219,86063,1,2,0:0:0:0:
120,346,86230,5,0,0:0:0:0:
23,211,86397,2,0,P|46:157|73:145,2,80,2|10|2,0:0|0:0|0:0,0:0:0:0:
14,298,86897,5,2,0:0:0:0:
255,193,87230,1,10,0:0:0:0:
255,193,87397,1,0,0:0:0:0:
255,193,87563,5,4,0:2:0:0:
301,330,87730,2,0,L|312:245,1,80,2|8,0:0|0:0,0:0:0:0:
326,145,88063,2,0,L|337:60,1,80,2|0,0:0|0:0,0:0:0:0:
384,203,88397,1,2,0:0:0:0:
414,46,88563,1,10,0:0:0:0:
498,179,88730,1,2,0:0:0:0:
427,130,88897,5,0,0:0:0:0:
425,272,89063,2,0,P|385:285|347:274,2,80,2|10|2,0:0|0:0|0:0,0:0:0:0:
384,203,89563,5,2,0:0:0:0:
232,238,89730,1,2,0:0:0:0:
384,203,89897,1,10,0:0:0:0:
232,238,90063,1,2,0:0:0:0:
313,280,90230,5,4,0:2:0:0:
289,120,90397,2,0,L|301:203,1,80,2|8,0:0|0:0,0:0:0:0:
313,280,90730,1,2,0:0:0:0:
463,191,90897,2,0,L|380:203,1,80,2|2,0:0|0:0,0:0:0:0:
425,272,91230,1,10,0:0:0:0:
300,199,91397,1,2,0:0:0:0:
323,359,91563,5,0,0:0:0:0:
453,347,91730,2,0,P|485:325|500:288,2,80,2|10|2,0:0|0:0|0:0,0:0:0:0:
425,272,92230,6,0,L|371:274,3,40,2|0|2|0,0:0|0:0|0:0|0:0,0:0:0:0:
312,276,92563,2,0,L|258:278,3,40,10|0|0|0,0:0|0:0|0:0|0:0,0:0:0:0:
199,279,92897,1,4,0:2:0:0:
52,98,98230,6,0,L|130:85,1,80,6|0,0:2|0:2,0:2:0:0:
151,84,98480,2,0,P|185:103|201:139,1,80,2|2,0:2|0:2,0:2:0:0:
120,244,98813,6,0,L|24:238,2,80,2|0|0,0:2|0:2|0:2,0:2:0:0:
202,248,99230,1,10,0:2:0:0:
202,248,99397,1,2,0:2:0:0:
277,384,99563,6,0,L|277:286,1,80,2|0,0:2|0:2,0:2:0:0:
345,250,99813,1,2,0:2:0:0:
345,250,99897,2,0,P|359:208|345:159,1,80,10|0,0:2|0:2,0:2:0:0:
281,126,100147,2,0,P|267:168|281:217,1,80,2|0,0:2|0:2,0:2:0:0:
202,248,100397,2,0,L|122:269,2,80,2|10|2,0:2|0:2|0:2,2:2:0:0:
277,304,100897,6,0,P|310:324|353:343,1,80,6|0,0:2|0:2,0:2:0:0:
381,341,101147,2,0,L|467:340,1,80,2|2,0:2|0:2,0:2:0:0:
432,173,101480,2,0,L|340:173,2,80,2|0|0,0:2|0:2|0:2,0:2:0:0:
478,247,101897,1,10,0:2:0:0:
478,247,102063,1,2,0:2:0:0:
306,239,102230,6,0,P|280:211|271:170,1,80,2|0,0:2|0:2,0:2:0:0:
214,118,102480,1,2,0:2:0:0:
214,118,102563,2,0,P|240:89|249:48,1,80,10|0,0:2|0:2,0:2:0:0:
169,53,102897,1,2,0:2:0:0:
175,304,103230,6,0,L|175:347,3,40,14|0|0|0,0:0|0:0|0:0|0:0,0:0:0:0:
211,234,103563,6,0,B|118:205|126:287|47:259,2,155.999992858887,6|2|2,2:0|2:0|2:0,2:0:0:0:
270,179,104705,2,0,P|288:214|273:286,1,103.999995239258,2|0,2:0|2:0,2:0:0:0:
220,331,105134,1,2,2:0:0:0:
220,331,105277,2,0,P|202:296|217:224,1,103.999995239258,0|0,2:0|2:0,2:0:0:0:
163,85,105848,6,0,P|129:28|33:7,2,155.999992858887,2|2|0,2:0|2:0|2:0,2:0:0:0:
150,160,106848,2,0,P|200:152|234:115,1,103.999995239258,2|2,2:0|2:0,0:0:0:0:
301,153,107277,2,0,P|331:155|360:163,1,51.999997619629,2|2,2:0|2:0,0:0:0:0:
407,219,107563,6,0,L|400:255,3,25.9999988098145,2|0|0|0,2:0|2:0|2:0|2:0,2:0:0:0:
424,136,107848,2,0,L|433:85,1,51.999997619629,2|0,2:0|2:0,2:0:0:0:
419,8,108134,6,0,P|366:38|356:83,1,103.999995239258,6|0,2:0|2:0,2:0:0:0:
352,160,108563,2,0,L|235:161,2,103.999995239258,2|2|2,2:0|2:0|2:0,2:0:0:0:
255,56,109420,1,2,2:0:0:0:
255,56,109563,2,0,P|212:83|162:76,1,103.999995239258,2|0,2:0|2:0,2:0:0:0:
102,13,110134,1,2,2:0:0:0:
48,175,110420,6,0,P|61:235|67:291,1,103.999995239258,6|2,2:0|2:0,2:0:0:0:
266,246,110991,1,2,2:0:0:0:
266,246,111134,1,2,2:0:0:0:
337,380,111420,2,0,L|352:253,1,103.999995239258,2|0,2:0|2:0,2:0:0:0:
415,229,111848,2,0,L|408:125,2,103.999995239258,2|2|2,2:0|2:0|2:0,2:0:0:0:
349,276,112705,6,0,B|442:247|434:329|513:301,2,155.999992858887,4|2|2,2:0|2:0|2:0,2:0:0:0:
270,316,113848,2,0,P|230:329|177:299,1,103.999995239258,2|2,2:0|2:0,0:0:0:0:
235,249,114277,1,2,2:0:0:0:
88,190,114562,1,2,2:0:0:0:
39,254,114705,2,0,L|45:304,3,25.9999988098145,2|0|0|0,2:0|2:0|2:0|2:0,2:0:0:0:
25,139,114991,6,0,P|59:82|155:61,2,155.999992858887,4|2|0,2:0|2:0|2:0,2:0:0:0:
124,184,116134,1,2,2:0:0:0:
200,176,116277,1,2,2:0:0:0:
276,168,116420,1,2,2:0:0:0:
352,160,116562,1,2,2:0:0:0:
407,219,116705,6,0,L|400:255,3,25.9999988098145,2|0|0|0,2:0|2:0|2:0|2:0,2:0:0:0:
424,136,116990,2,0,L|433:85,1,51.999997619629,2|0,2:0|2:0,2:0:0:0:
420,7,117277,6,0,P|367:37|357:82,1,103.999995239258,6|0,2:0|2:0,2:0:0:0:
352,160,117705,2,0,L|235:161,2,103.999995239258,2|2|2,2:0|2:0|2:0,2:0:0:0:
325,328,118562,1,2,2:0:0:0:
325,328,118705,2,0,P|282:300|232:307,1,103.999995239258,2|2,2:0|2:0,2:0:0:0:
155,338,119276,1,2,2:0:0:0:
50,192,119562,5,6,2:0:0:0:
59,332,119848,1,0,2:0:0:0:
175,246,120134,1,0,2:0:0:0:
175,246,120277,1,2,2:0:0:0:
256,154,120562,6,0,L|256:280,1,103.999995239258,2|0,2:0|2:0,2:0:0:0:
208,325,120991,2,0,P|255:342|306:321,2,103.999995239258,2|0|2,2:0|2:0|2:0,2:0:0:0:
149,211,121848,6,0,L|63:202,2,80,6|0|8,2:0|2:0|2:0,2:0:0:0:
363,211,122991,2,0,L|449:202,2,80,2|0|8,2:0|2:0|2:0,2:0:0:0:
255,232,124134,6,0,B|247:177|247:177|261:146|261:146|253:76,2,160,2|8|2,2:0|2:0|2:0,2:0:0:0:
256,317,125705,2,0,L|256:355,2,20,0|0|8,0:0|0:0|2:0,0:0:0:0:
338,281,126420,6,0,P|375:293|412:281,2,80,6|0|8,2:0|2:0|2:0,2:0:0:0:
173,102,127562,2,0,P|136:90|99:102,2,80,2|0|8,2:0|2:0|2:0,2:0:0:0:
256,95,128705,6,0,L|256:261,1,160,2|8,2:0|2:0,2:0:0:0:
256,332,129848,1,4,2:0:0:0:
256,192,133657,12,2,134991,2:0:0:0:
461,63,135324,5,2,0:0:0:0:
385,105,135657,1,2,0:0:0:0:
330,29,135991,1,2,0:0:0:0:
265,105,136324,6,0,L|386:105,1,120,6|0,0:0|0:0,0:0:0:0:
435,165,136657,2,0,P|436:204|417:239,1,80,8|0,0:0|0:0,0:0:0:0:
385,105,136991,1,0,0:0:0:0:
343,194,137157,2,0,L|343:283,1,80,2|8,0:0|0:0,0:0:0:0:
265,185,137491,6,0,L|265:92,1,80,2|0,0:0|0:0,0:0:0:0:
270,296,137824,1,2,0:0:0:0:
373,348,137991,2,0,P|407:327|419:290,2,80,10|0|0,0:0|0:0|0:0,0:0:0:0:
270,296,138491,1,0,0:0:0:0:
265,185,138657,2,0,P|206:183|163:224,1,120,10|0,0:0|0:0,0:0:0:0:
136,238,138991,6,0,L|153:104,1,120,2|0,0:0|0:0,0:0:0:0:
211,65,139324,2,0,P|168:44|126:52,1,80,8|0,0:0|0:0,0:0:0:0:
228,147,139657,1,0,0:0:0:0:
228,147,139824,1,0,0:0:0:0:
296,101,139991,6,0,L|393:93,1,80,10|0,0:0|0:0,0:0:0:0:
151,118,140324,2,0,L|54:126,1,80,2|0,0:0|0:0,0:0:0:0:
323,171,140657,2,0,L|420:163,1,80,10|0,0:0|0:0,0:0:0:0:
136,193,140990,2,0,L|39:201,1,80,2|0,0:0|0:0,0:0:0:0:
228,145,141324,2,0,L|242:266,1,120,10|0,0:0|0:0,0:0:0:0:
255,340,141657,5,6,0:0:0:0:
392,307,141824,2,0,P|358:287|319:289,1,80,0|8,0:0|0:0,0:0:0:0:
140,337,142157,2,0,P|109:265|136:192,1,160,0|2,0:0|0:0,0:0:0:0:
119,113,142657,2,0,L|39:113,1,80,8|0,0:0|0:0,0:0:0:0:
136,193,142991,5,2,0:0:0:0:
177,49,143157,2,0,L|257:49,1,80,0|10,0:0|0:0,0:0:0:0:
434,119,143491,2,0,P|372:156|297:118,1,160,2|0,0:0|0:0,0:0:0:0:
365,0,143991,2,0,L|366:90,1,80,10|0,0:0|0:0,0:0:0:0:
479,185,144324,5,2,0:0:0:0:
479,185,144491,1,0,0:0:0:0:
434,119,144657,2,0,P|404:152|398:190,1,80,8|0,0:0|0:0,0:0:0:0:
400,321,144991,2,0,P|430:288|436:250,1,80
247,284,145324,1,10,0:0:0:0:
352,258,145491,1,2,0:0:0:0:
285,202,145657,5,0,0:0:0:0:
285,202,145824,1,0,0:0:0:0:
249,125,145991,2,0,P|288:116|326:127,1,80,10|0,0:0|0:0,0:0:0:0:
186,173,146324,2,0,P|148:181|110:170,1,80,2|0,0:0|0:0,0:0:0:0:
25,90,146657,2,0,L|34:209,1,120,10|8,0:0|0:0,0:0:0:0:
21,251,146991,6,0,L|172:281,1,120,14|0,0:0|0:0,0:0:0:0:
205,244,147324,2,0,P|219:283|220:322,1,80,8|0,0:0|0:0,0:0:0:0:
269,186,147657,1,0,0:0:0:0:
384,274,147824,2,0,L|293:261,1,80,2|8,0:0|0:0,0:0:0:0:
393,106,148157,6,0,L|405:185,1,80,2|0,0:0|0:0,0:0:0:0:
304,262,148491,1,2,0:0:0:0:
316,90,148657,2,0,P|341:42|375:31,2,80,10|0|0,0:0|0:0|0:0,0:0:0:0:
405,185,149157,1,0,0:0:0:0:
282,164,149324,2,0,L|307:278,1,100,10|0,0:0|0:0,0:0:0:0:
209,368,149657,6,0,P|226:311|205:256,1,120,2|0,0:0|0:0,0:0:0:0:
146,313,149991,2,0,L|65:314,1,80,8|0,0:0|0:0,0:0:0:0:
158,196,150324,1,0,0:0:0:0:
158,196,150491,1,0,0:0:0:0:
35,151,150657,6,0,P|14:119|13:75,1,80,10|0,0:0|0:0,0:0:0:0:
35,233,150991,2,0,P|14:264|13:308,1,80,2|0,0:0|0:0,0:0:0:0:
105,121,151324,2,0,P|102:82|124:44,1,80,10|0,0:0|0:0,0:0:0:0:
105,263,151657,2,0,P|102:301|124:339,1,80,2|0,0:0|0:0,0:0:0:0:
40,192,151991,2,2,L|167:192,1,120,8|0,0:0|0:0,0:0:0:0:
180,283,152324,5,6,0:0:0:0:
206,131,152491,2,0,P|232:163|236:202,1,80,0|8,0:0|0:0,0:0:0:0:
318,347,152824,2,0,P|377:358|438:288,1,160,0|2,0:0|0:0,0:0:0:0:
287,257,153324,2,0,L|373:277,1,80,8|0,0:0|0:0,0:0:0:0:
236,200,153657,5,2,0:0:0:0:
437,215,153824,2,0,L|360:196,1,80,0|10,0:0|0:0,0:0:0:0:
208,272,154157,2,0,P|160:212|189:142,1,160,2|0,0:0|0:0,0:0:0:0:
256,81,154657,2,0,L|348:80,1,80,10|0,0:0|0:0,0:0:0:0:
314,185,154991,6,0,P|313:227|288:262,1,80,2|0,0:0|0:0,0:0:0:0:
130,263,155324,2,0,L|210:272,1,80,8|0,0:0|0:0,0:0:0:0:
254,350,155657,1,0,0:0:0:0:
254,350,155824,1,0,0:0:0:0:
159,193,155991,2,0,L|239:202,1,80,8|0,0:0|0:0,0:0:0:0:
254,350,156324,6,0,L|124:337,1,120,2|0,0:0|2:0,0:0:0:0:
73,282,156657,2,0,B|49:223|49:223|86:174,1,120,10|0,0:0|2:0,0:0:0:0:
159,193,156991,6,0,L|159:73,1,120,10|0,0:0|2:0,0:0:0:0:
92,34,157324,2,0,P|138:-2|196:5,1,120,10|0,0:0|2:0,0:0:0:0:
255,111,157657,5,6,0:0:0:0:
346,58,157824,1,0,0:0:0:0:
365,203,157991,2,0,P|329:218|289:213,1,80,10|0,0:0|0:0,0:0:0:0:
419,119,158324,5,0,0:0:0:0:
346,58,158491,1,2,0:0:0:0:
317,140,158657,1,8,0:0:0:0:
252,76,158824,1,2,0:0:0:0:
172,181,158991,5,0,0:0:0:0:
172,48,159157,1,2,0:0:0:0:
252,159,159324,1,8,0:0:0:0:
252,76,159491,1,2,0:0:0:0:
117,112,159657,6,0,L|32:122,1,80,2|0,0:0|0:0,0:0:0:0:
92,195,159990,1,10,0:0:0:0:
167,260,160157,2,0,L|171:181,1,80,2|0,0:0|0:0,0:0:0:0:
172,48,160491,1,2,0:0:0:0:
252,159,160657,6,0,L|332:152,1,80,10|0,0:0|0:0,0:0:0:0:
398,67,160991,2,0,L|318:74,1,80,2|0,0:0|0:0,0:0:0:0:
233,81,161324,1,10,0:0:0:0:
331,152,161491,2,0,L|339:234,1,80,2|0,0:0|0:0,0:0:0:0:
413,217,161824,2,0,L|405:135,1,80,2|8,0:0|0:0,0:0:0:0:
447,289,162157,1,2,0:0:0:0:
418,362,162324,5,2,0:0:0:0:
496,353,162491,1,2,0:0:0:0:
447,289,162657,1,10,0:0:0:0:
371,300,162824,1,2,0:0:0:0:
240,230,162991,6,0,L|330:237,1,80,6|0,0:0|0:0,0:0:0:0:
254,318,163324,2,0,L|164:311,1,80,10|0,0:0|0:0,0:0:0:0:
72,205,163657,5,0,0:0:0:0:
91,311,163824,1,2,0:0:0:0:
154,204,163990,1,8,0:0:0:0:
174,311,164157,1,2,0:0:0:0:
72,205,164324,5,0,0:0:0:0:
239,175,164491,1,2,0:0:0:0:
89,91,164657,1,8,0:0:0:0:
245,57,164824,2,0,L|336:58,1,80,2|0,0:0|0:0,0:0:0:0:
239,175,165157,5,2,0:0:0:0:
159,171,165324,1,10,0:0:0:0:
89,91,165491,2,0,L|179:95,1,80,2|0,0:0|0:0,0:0:0:0:
245,57,165824,5,2,0:0:0:0:
376,0,165991,2,0,P|399:31|402:71,1,80,10|2,0:0|0:0,0:0:0:0:
355,183,166324,2,0,P|332:152|329:112,1,80,2|2,0:0|0:0,0:0:0:0:
473,119,166657,1,10,0:0:0:0:
435,204,166824,6,0,P|419:241|387:263,1,80,2|0,0:0|0:0,0:0:0:0:
355,183,167157,2,0,P|372:147|404:125,1,80,2|8,0:0|0:0,0:0:0:0:
352,339,167491,1,0,0:0:0:0:
435,204,167657,1,0,0:0:0:0:
445,310,167824,1,0,0:0:0:0:
315,242,167991,2,0,L|304:110,1,120,10|8,0:0|0:0,0:0:0:0:
343,53,168324,6,0,P|305:43|262:56,1,80,14|0,0:0|0:0,0:0:0:0:
125,184,168657,2,0,P|163:194|206:181,1,80,10|0,0:0|0:0,0:0:0:0:
188,42,168991,1,0,0:0:0:0:
162,115,169157,1,2,0:0:0:0:
91,37,169324,1,8,0:0:0:0:
65,110,169490,1,2,0:0:0:0:
144,246,169657,5,0,0:0:0:0:
162,115,169824,1,2,0:0:0:0:
223,231,169991,1,8,0:0:0:0:
235,144,170158,1,2,0:0:0:0:
303,190,170324,6,0,L|392:190,1,80,0|2,0:0|0:0,0:0:0:0:
451,142,170657,1,10,0:0:0:0:
436,316,170824,2,0,L|443:237,1,80,2|0,0:0|0:0,0:0:0:0:
303,190,171157,5,2,0:0:0:0:
377,66,171324,2,0,P|430:54|458:70,1,80,10|2,0:0|0:0,0:0:0:0:
451,142,171657,2,0,P|399:155|371:139,1,80,2|2,0:0|0:0,0:0:0:0:
363,269,171991,1,10,0:0:0:0:
225,195,172157,6,0,L|214:107,1,80,2|0,0:0|0:0,0:0:0:0:
293,110,172491,2,0,L|304:198,1,80,2|8,0:0|0:0,0:0:0:0:
274,259,172824,1,2,0:0:0:0:
196,268,172991,5,2,0:0:0:0:
274,259,173158,1,2,0:0:0:0:
225,195,173324,1,10,0:0:0:0:
149,206,173491,1,2,0:0:0:0:
92,152,173657,6,0,L|101:62,1,80,6|0,0:0|0:0,0:0:0:0:
81,250,173991,2,0,L|72:340,1,80,10|0,0:0|0:0,0:0:0:0:
153,282,174324,5,0,0:0:0:0:
279,293,174490,1,2,0:0:0:0:
149,206,174657,1,8,0:0:0:0:
296,219,174823,1,2,0:0:0:0:
249,138,174991,5,0,0:0:0:0:
279,293,175157,1,2,0:0:0:0:
323,118,175324,1,8,0:0:0:0:
353,273,175490,1,2,0:0:0:0:
271,50,175657,6,0,P|308:34|349:38,1,80,0|2,0:0|0:0,0:0:0:0:
323,118,175991,1,10,0:0:0:0:
212,187,176157,2,0,L|197:97,1,80,2|0,0:0|0:0,0:0:0:0:
271,50,176491,5,2,0:0:0:0:
361,188,176657,1,10,0:0:0:0:
199,109,176824,1,2,0:0:0:0:
323,118,176991,1,2,0:0:0:0:
182,32,177157,1,2,0:0:0:0:
212,187,177324,1,10,0:0:0:0:
277,47,177491,6,0,P|314:31|355:35,1,80,2|0,0:0|0:0,0:0:0:0:
437,176,177824,2,0,P|401:193|359:188,1,80,2|8,0:0|0:0,0:0:0:0:
287,240,178157,1,0,0:0:0:0:
326,114,178324,1,0,0:0:0:0:
212,187,178491,1,0,0:0:0:0:
362,189,178657,5,8,0:0:0:0:
277,47,178824,1,0,0:0:0:0:
