osu file format v14

[General]
AudioFilename: audio.mp3
AudioLeadIn: 0
PreviewTime: 28347
Countdown: 0
SampleSet: Soft
StackLeniency: 0.7
Mode: 0
LetterboxInBreaks: 0
StoryFireInFront: 0
WidescreenStoryboard: 1

[Editor]
DistanceSpacing: 1.3
BeatDivisor: 4
GridSize: 16
TimelineZoom: 2

[Metadata]
Title:Uragiri no Yuuyake -TV Size Long Ver.-
TitleUnicode:裏切りの夕焼け -TV Size Long Ver.-
Artist:THEATRE BROOK
ArtistUnicode:シアターブルック
Creator:Nevo
Version:Glaceon's Extra
Source:デュラララ!!
Tags:Durarara!! season 1 s1 pika [[pika]] - frontier -_frontier_- xchorse drrr agatsu kowari fixxis glaceon smokelind anime japanese mun dorsalplum black man
BeatmapID:1983676
BeatmapSetID:949071

[Difficulty]
HPDrainRate:5
CircleSize:3.8
OverallDifficulty:8.6
ApproachRate:8.8
SliderMultiplier:1.8
SliderTickRate:1

[Events]
//Background and Video events
0,0,"bg.jpg",0,0
//Break Periods
//Storyboard Layer 0 (Background)
//Storyboard Layer 1 (Fail)
//Storyboard Layer 2 (Pass)
//Storyboard Layer 3 (Foreground)
//Storyboard Layer 4 (Overlay)
//Storyboard Sound Samples

[TimingPoints]
422,397.350993377483,4,2,1,60,1,0
819,-117.6470588235,4,2,1,60,0,0
16316,-100,4,2,1,70,0,0
29031,-90.90909090909,4,2,1,100,0,1
29428,-90.90909090909,4,2,2,100,0,1
41349,-90.90909090909,4,2,2,100,0,0
41746,-90.90909090909,4,2,2,100,0,1
54461,-100,4,2,2,60,0,0
54859,-100,4,2,1,60,0,0
67176,-100,4,2,1,70,0,0
77309,-98.03921568628,4,2,1,70,0,0
77508,384.615384615385,4,2,1,75,1,0
78653,437.956204379562,4,2,1,75,1,0
78871,372.670807453416,4,2,1,75,1,0
79073,394.736842105263,4,2,1,75,1,0
79467,428.571428571429,4,2,1,75,1,0
79655,447.7611940299,4,2,1,75,1,0
79656,397.350993377504,4,2,1,75,1,0
79854,431.654676258993,4,2,1,75,1,0
80287,402.684563758389,4,2,1,75,1,0
81484,397.350993377483,4,2,1,75,1,0
83073,396.039603960396,4,2,1,75,1,0
86241,397.350993377483,4,2,1,100,1,0
87830,-100,4,2,1,85,0,0
89419,-100,4,2,1,90,0,0
90810,-100,4,2,1,100,0,0
92499,-100,4,2,1,5,0,0
92606,397.350993377483,4,2,1,100,1,1
92606,-90.90909090909,4,2,1,100,0,1
95685,-90.90909090909,4,2,1,5,0,1
95784,-90.90909090909,4,2,1,100,0,1
104327,-90.90909090909,4,2,1,100,0,0
105321,-100,4,2,1,80,0,1
111778,-588.2352941177,4,2,1,20,0,0
118831,-100,4,2,1,5,0,0

[Colours]
Combo1 : 163,82,82
Combo2 : 0,128,192
Combo3 : 251,202,4

[HitObjects]
26,207,422,5,8,2:3:0:0:
133,230,620,1,8,2:3:0:0:
60,357,819,2,0,L|71:251,1,76.5000000000191,8|0,2:0|2:0,2:0:0:0:
213,206,1216,5,8,2:3:0:0:
144,312,1415,1,8,2:3:0:0:
310,297,1614,2,0,L|208:285,1,76.5000000000191,8|0,2:0|2:0,2:0:0:0:
173,130,2011,5,8,2:3:0:0:
292,217,2210,1,8,2:3:0:0:
250,54,2408,2,0,L|260:164,1,76.5000000000191,8|0,2:0|2:0,2:0:0:0:
109,192,2806,5,8,2:3:0:0:
173,50,3004,1,8,2:3:0:0:
19,139,3203,1,8,2:0:0:0:
173,130,3402,1,4,2:3:0:0:
23,296,3600,6,0,L|33:193,1,76.5000000000191,4|0,2:0|2:0,2:0:0:0:
215,204,3998,1,8,2:0:0:0:
110,277,4196,1,8,2:3:0:0:
276,267,4395,2,0,B|261:192|261:192|266:185|266:185|252:96,1,153.000000000038,8|8,2:3|2:0,2:0:0:0:
160,50,4991,1,8,2:3:0:0:
394,98,5190,6,0,B|349:135|349:135|245:115,1,153.000000000038,8|8,2:3|2:0,2:0:0:0:
426,22,5786,2,0,P|463:55|478:98,1,76.5000000000191,8|0,2:3|2:3,2:0:0:0:
420,232,6183,2,0,P|430:183|459:148,1,76.5000000000191,8|8,2:3|2:0,2:0:0:0:
495,290,6580,1,4,2:3:0:0:
340,325,6779,6,0,B|308:342|259:322|269:317|223:304|169:330,1,153.000000000038,4|8,2:0|2:0,2:0:0:0:
72,358,7375,1,8,2:3:0:0:
128,204,7574,2,0,L|115:314,1,76.5000000000191,8|0,2:3|2:3,2:0:0:0:
9,203,7971,2,0,L|0:127,1,76.5000000000191,8|0,2:0|2:3,2:0:0:0:
178,42,8369,5,8,2:3:0:0:
80,137,8567,1,8,2:3:0:0:
273,125,8766,1,8,2:0:0:0:
97,289,8965,2,0,L|79:135,1,153.000000000038,8|8,2:3|2:3,2:0:0:0:
261,39,9561,1,8,2:0:0:0:
180,171,9759,1,4,2:3:0:0:
349,129,9958,6,0,L|241:122,1,76.5000000000191,4|0,2:0|2:0,2:0:0:0:
150,40,10355,1,8,2:0:0:0:
261,213,10554,1,8,2:3:0:0:
117,157,10753,2,0,B|76:183|76:183|202:167,1,153.000000000038,8|8,2:3|2:0,2:0:0:0:
344,218,11349,6,0,P|324:269|289:299,1,76.5000000000191,8|8,2:3|2:3,2:0:0:0:
305,136,11746,2,0,P|359:127|402:143,1,76.5000000000191,8|8,2:3|2:0,2:0:0:0:
244,206,12143,2,0,B|209:158|209:158|232:57,1,153.000000000038,8|8,2:3|2:3,2:0:0:0:
323,20,12739,1,8,2:0:0:0:
154,16,12938,6,0,L|117:186,1,153.000000000038,4|8,2:0|2:3,2:0:0:0:
251,291,13534,1,8,2:0:0:0:
214,139,13733,1,0,2:3:0:0:
131,299,13931,1,8,2:3:0:0:
306,197,14130,2,0,L|401:205,1,76.5000000000191,8|8,2:3|2:0,2:0:0:0:
251,291,14527,1,0,2:3:0:0:
214,139,14726,5,8,2:3:0:0:
196,362,14925,1,8,2:3:0:0:
306,197,15123,1,8,2:0:0:0:
92,293,15322,6,0,B|76:252|95:212|100:222|113:176|87:122,1,153.000000000038,8|8,2:3|2:3,2:0:0:0:
30,24,15918,2,0,L|130:37,1,76.5000000000191,8|4,2:0|2:3,2:0:0:0:
268,125,16316,6,0,L|150:142,1,90,4|0,2:0|2:0,2:0:0:0:
338,38,16713,2,0,P|378:91|384:143,1,90,8|0,2:0|2:0,2:0:0:0:
252,304,17110,2,0,L|269:108,1,180,4|8,2:3|2:0,2:0:0:0:
389,196,17706,1,4,2:3:0:0:
338,38,17905,6,0,L|230:48,1,90,4|0,2:3|2:3,2:0:0:0:
137,199,18302,1,8,2:0:0:0:
267,124,18501,1,4,2:3:0:0:
80,112,18700,1,4,2:3:0:0:
228,259,18898,2,0,L|441:278,1,180,0|0,2:0|2:0,2:0:0:0:
393,57,19494,6,0,P|367:99|365:159,1,90,4|0,2:3|2:0,2:0:0:0:
504,264,19892,2,0,P|480:220|429:188,1,90,8|0,2:0|2:0,2:0:0:0:
247,233,20289,1,4,2:3:0:0:
407,274,20488,1,0,2:0:0:0:
192,324,20686,1,8,2:0:0:0:
340,222,20885,1,4,2:3:0:0:
147,197,21084,5,4,2:3:0:0:
314,383,21282,2,0,L|299:266,1,90,0|8,2:0|2:0,2:0:0:0:
193,93,21680,2,0,B|234:141|234:141|357:125,1,180,0|0,2:0|2:0,2:0:0:0:
206,5,22276,2,0,P|132:24|104:59,1,90,8|4,2:0|2:3,2:0:0:0:
46,238,22673,6,0,L|34:116,1,90,4|0,2:0|2:0,2:0:0:0:
208,238,23071,2,0,L|199:327,1,90,8|0,2:0|2:0,2:0:0:0:
132,173,23468,1,4,2:3:0:0:
268,154,23667,1,0,2:0:0:0:
116,350,23865,2,0,L|125:261,1,90,8|0,2:0|2:0,2:0:0:0:
351,129,24263,6,0,P|311:151|238:143,1,90,4|0,2:3|2:0,2:0:0:0:
154,89,24660,1,8,2:0:0:0:
208,238,24859,1,0,2:0:0:0:
269,70,25057,1,4,2:3:0:0:
95,251,25256,2,0,L|299:270,1,180,4|0,2:3|2:0,2:0:0:0:
463,233,25852,5,4,2:3:0:0:
299,354,26051,1,0,2:0:0:0:
425,145,26249,1,8,2:0:0:0:
469,337,26448,1,0,2:0:0:0:
244,173,26647,2,0,L|364:185,1,90,4|4,2:3|2:3,2:0:0:0:
488,72,27044,1,8,2:0:0:0:
354,268,27243,1,4,2:3:0:0:
392,38,27441,5,4,2:3:0:0:
496,263,27640,1,4,2:3:0:0:
294,57,27839,1,8,2:0:0:0:
203,306,28037,1,4,1:0:0:0:
203,306,29031,6,0,L|82:316,1,99.000000000001,4|0,2:0|2:0,2:0:0:0:
196,144,29428,1,8,2:0:0:0:
308,300,29627,1,0,2:0:0:0:
316,104,29825,1,0,3:0:0:0:
203,306,30024,1,0,2:0:0:0:
134,79,30223,1,8,2:0:0:0:
326,200,30421,6,0,L|424:208,1,99.000000000001,0|0,3:0|3:0,2:0:0:0:
289,50,30819,1,0,2:0:0:0:
512,196,31018,2,0,P|503:244|473:283,1,99.000000000001,8|0,2:0|2:0,2:0:0:0:
288,290,31415,1,0,3:0:0:0:
424,208,31614,1,0,2:0:0:0:
207,128,31812,2,0,L|221:252,1,99.000000000001,8|0,2:0|3:0,2:0:0:0:
376,123,32210,6,0,L|387:24,1,99.000000000001,0|0,3:0|2:0,2:0:0:0:
207,128,32607,1,8,2:0:0:0:
336,244,32806,1,0,2:0:0:0:
133,238,33004,1,0,3:0:0:0:
376,123,33203,1,0,3:0:0:0:
115,151,33402,1,8,2:0:0:0:
344,342,33600,6,0,L|333:221,1,99.000000000001,0|0,3:0|3:0,2:0:0:0:
235,97,33998,1,0,3:0:0:0:
468,156,34196,2,0,L|459:254,1,99.000000000001,8|0,2:0|2:0,2:0:0:0:
272,170,34594,1,0,3:0:0:0:
470,67,34792,1,0,3:0:0:0:
377,251,34991,1,8,2:0:0:0:
350,43,35190,6,0,L|358:141,1,99.000000000001,0|0,3:0|3:0,2:0:0:0:
294,300,35587,1,0,2:0:0:0:
468,156,35786,1,8,2:0:0:0:
176,202,35984,2,0,B|127:182|127:182|271:169,1,198.000000000002,0|0,3:0|2:0,2:0:0:0:
377,251,36580,1,8,2:0:0:0:
202,375,36779,6,0,P|180:311|189:251,1,99.000000000001,0|0,3:0|3:0,2:0:0:0:
372,150,37176,1,0,3:0:0:0:
276,308,37375,1,8,2:0:0:0:
251,78,37574,2,0,L|265:200,1,99.000000000001,0|0,3:0|2:0,2:0:0:0:
460,214,37971,2,0,L|471:115,1,99.000000000001,0|8,3:0|2:0,2:0:0:0:
304,11,38369,1,0,2:0:0:0:
407,289,38567,5,4,3:2:0:0:
262,176,38766,1,0,2:0:0:0:
471,115,38965,1,8,2:0:0:0:
266,288,39163,1,0,2:0:0:0:
386,82,39362,1,0,3:0:0:0:
469,354,39561,1,0,2:0:0:0:
305,104,39759,1,8,2:0:0:0:
207,374,39958,1,0,2:0:0:0:
451,37,40157,5,0,3:0:0:0:
512,274,40355,1,8,2:0:0:0:
188,89,40554,1,8,2:0:0:0:
495,133,40753,1,0,3:0:0:0:
138,302,40951,2,0,L|153:170,1,99.000000000001,0|0,3:0|2:0,2:0:0:0:
376,63,41349,2,0,L|387:161,1,99.000000000001,8|0,2:0|2:0,2:0:0:0:
69,35,41746,6,0,B|118:63|171:41|163:33|222:18|278:41,1,198.000000000002,4|8,3:2|2:0,2:0:0:0:
340,226,42342,1,0,2:0:0:0:
216,117,42541,1,0,3:0:0:0:
252,321,42739,1,0,2:0:0:0:
322,111,42938,1,8,2:0:0:0:
102,248,43137,6,0,L|209:238,1,99.000000000001,0|0,3:0|3:0,2:0:0:0:
399,145,43534,1,0,3:0:0:0:
350,330,43733,2,0,L|243:320,1,99.000000000001,8|0,2:0|2:0,2:0:0:0:
62,173,44130,2,0,L|169:163,1,99.000000000001,0|0,3:0|2:0,2:0:0:0:
417,264,44527,2,0,P|448:320|449:378,1,99.000000000001,8|0,2:0|3:0,2:0:0:0:
269,217,44925,6,0,P|301:162|351:132,1,99.000000000001,0|0,3:0|2:0,2:0:0:0:
475,131,45322,1,8,2:0:0:0:
290,27,45521,1,0,2:0:0:0:
485,33,45720,1,0,3:0:0:0:
329,141,45918,1,0,2:0:0:0:
512,209,46117,1,8,2:0:0:0:
388,20,46316,6,0,L|274:27,1,99.000000000001,0|0,3:0|3:0,2:0:0:0:
176,119,46713,1,0,3:0:0:0:
400,206,46912,2,0,P|418:148|406:82,1,99.000000000001,8|0,2:0|2:0,2:0:0:0:
306,257,47309,1,0,3:0:0:0:
475,272,47508,1,0,2:0:0:0:
321,141,47706,1,8,2:0:0:0:
377,336,47905,1,0,2:0:0:0:
512,98,48104,6,0,L|410:110,1,99.000000000001,4|0,3:2|2:0,2:0:0:0:
212,138,48501,1,8,2:0:0:0:
420,10,48700,2,0,L|412:127,1,99.000000000001,0|0,3:0|3:0,2:0:0:0:
475,272,49097,1,0,2:0:0:0:
212,138,49296,1,8,2:0:0:0:
366,370,49494,6,0,L|346:159,1,198.000000000002,4|0,3:2|3:0,2:0:0:0:
250,49,50090,1,8,2:0:0:0:
223,317,50289,2,0,L|238:189,1,99.000000000001,0|0,3:0|2:0,2:0:0:0:
413,89,50686,2,0,L|424:187,1,99.000000000001,0|8,3:0|2:0,2:0:0:0:
332,301,51084,1,0,3:0:0:0:
511,145,51282,5,4,3:2:0:0:
476,350,51481,1,0,2:0:0:0:
278,129,51680,1,8,2:0:0:0:
386,368,51878,1,0,2:0:0:0:
430,89,52077,1,0,3:0:0:0:
236,307,52276,1,0,2:0:0:0:
257,26,52474,1,8,2:0:0:0:
447,266,52673,1,0,2:0:0:0:
116,160,52872,5,0,3:0:0:0:
363,16,53071,1,8,2:0:0:0:
315,334,53269,1,8,2:0:0:0:
142,36,53468,1,4,2:0:0:0:
138,30,54461,6,0,L|150:160,1,90,4|0,3:2|2:0,2:0:0:0:
216,223,54859,1,10,2:0:0:0:
37,150,55057,1,0,2:0:0:0:
95,295,55256,2,0,L|103:205,1,90,2|0,3:2|3:0,2:0:0:0:
288,95,55653,1,10,2:0:0:0:
216,223,55852,1,0,2:0:0:0:
213,37,56051,6,0,P|260:8|320:3,1,90,2|0,3:2|2:0,2:0:0:0:
436,132,56448,1,10,2:0:0:0:
288,95,56647,1,0,2:0:0:0:
420,243,56845,1,2,3:2:0:0:
383,46,57044,1,0,3:0:0:0:
265,224,57243,1,8,2:0:0:0:
512,151,57441,6,0,L|313:164,1,180,4|0,2:0|2:0,2:0:0:0:
280,365,58037,2,0,P|324:321|338:270,1,90,8|0,2:0|2:0,2:0:0:0:
332,162,58435,1,0,3:0:0:0:
482,319,58633,2,0,P|457:281|449:237,1,90,2|8,2:3|2:0,2:0:0:0:
321,72,59031,6,0,L|335:187,1,90,2|0,2:3|3:0,2:0:0:0:
434,111,59428,1,2,2:3:0:0:
268,231,59627,2,0,P|318:256|377:254,1,90,8|0,2:0|2:0,2:0:0:0:
184,164,60024,1,0,3:0:0:0:
204,311,60223,1,0,3:0:0:0:
96,135,60421,2,0,P|123:99|161:76,1,90,8|0,2:0|2:0,2:0:0:0:
385,35,60819,6,0,L|255:20,1,90,4|0,2:0|2:0,2:0:0:0:
96,135,61216,1,8,2:0:0:0:
211,0,61415,1,0,3:0:0:0:
215,198,61614,1,0,3:0:0:0:
86,45,61812,2,0,L|98:159,1,90,0|8,3:0|2:0,2:0:0:0:
196,281,62210,1,0,2:0:0:0:
35,202,62408,5,0,3:0:0:0:
270,153,62607,1,0,2:0:0:0:
186,370,62806,2,0,L|195:280,1,90,8|0,2:0|2:0,2:0:0:0:
121,109,63203,1,0,3:0:0:0:
286,251,63402,1,0,3:0:0:0:
229,43,63600,1,8,2:0:0:0:
117,225,63799,1,2,2:0:0:0:
327,98,63998,6,0,L|456:86,1,90,0|2,3:0|2:0,2:0:0:0:
328,328,64395,2,0,P|292:276|285:228,1,90,8|2,2:0|2:0,2:0:0:0:
229,43,64792,2,0,P|201:100|163:130,1,90,0|2,3:0|2:0,2:0:0:0:
55,169,65190,1,8,2:0:0:0:
269,168,65388,1,2,2:0:0:0:
133,310,65587,6,0,L|145:190,1,90,2|0,3:2|2:0,2:0:0:0:
209,114,65984,1,10,2:0:0:0:
55,169,66183,1,0,2:0:0:0:
216,30,66382,5,0,3:0:0:0:
216,30,66481,1,0,3:0:0:0:
216,30,66580,2,0,L|293:38,1,45,0|0,3:0|3:0,2:0:0:0:
302,110,66779,2,0,L|379:102,1,45,0|0,3:0|3:0,2:0:0:0:
389,31,66978,2,0,L|433:35,1,45,0|0,3:0|3:0,2:0:0:0:
505,125,67176,6,0,L|515:240,1,90,4|0,2:0|2:0,2:0:0:0:
314,342,67574,1,8,2:0:0:0:
418,174,67772,1,4,3:0:0:0:
212,192,67971,6,0,L|202:307,1,90,4|0,3:0|2:0,2:0:0:0:
409,354,68369,1,8,2:0:0:0:
302,208,68567,1,4,3:0:0:0:
502,260,68766,6,0,L|512:375,1,90,4|0,3:0|2:0,2:0:0:0:
373,254,69163,1,8,2:0:0:0:
495,130,69362,2,0,B|437:162|437:162|318:120,1,180,4|4,3:0|3:0,2:0:0:0:
168,133,69958,1,8,2:0:0:0:
324,17,70157,1,2,3:2:0:0:
75,18,70355,6,0,L|88:122,1,90,0|0,3:0|3:0,2:0:0:0:
243,196,70753,2,0,L|254:106,1,90,8|0,2:0|2:0,2:0:0:0:
10,148,71150,2,0,P|49:186|111:194,1,90,0|0,3:0|3:0,2:0:0:0:
243,196,71547,1,8,2:0:0:0:
127,339,71746,6,0,B|144:254|144:254|155:244|155:244|170:155,1,180,0|0,3:0|3:0,2:0:0:0:
306,27,72342,2,0,L|321:131,1,90,8|0,2:0|3:0,2:0:0:0:
462,290,72739,2,0,P|397:256|274:281,1,180,0|8,3:0|2:0,2:0:0:0:
136,332,73335,1,2,3:2:0:0:
136,332,73435,1,0,2:0:0:0:
136,332,73534,6,0,L|148:242,1,90,4|0,2:0|2:0,2:0:0:0:
238,102,73931,1,8,2:0:0:0:
55,191,74130,1,0,3:0:0:0:
268,216,74329,2,0,B|317:240|362:224|353:219|407:205|459:229,1,180,0|8,3:0|2:0,2:0:0:0:
287,384,74925,6,0,P|249:329|243:277,1,90,0|0,3:0|3:0,2:0:0:0:
358,184,75322,1,0,3:0:0:0:
178,227,75521,2,0,L|290:213,1,90,8|0,2:0|2:0,2:0:0:0:
428,318,75918,2,0,L|316:304,1,90,0|0,3:0|3:0,2:0:0:0:
212,361,76316,1,8,2:0:0:0:
365,191,76514,1,2,2:0:0:0:
365,191,76614,1,0,2:0:0:0:
365,191,76713,6,0,P|340:125|310:95,1,90,4|0,2:0|2:0,2:0:0:0:
193,28,77110,1,8,2:0:0:0:
89,202,77309,6,0,L|296:185,1,180.6961917782,0|0,3:0|3:0,2:0:0:0:
291,37,77892,1,8,2:0:0:0:
44,121,78084,6,0,L|251:104,1,180,0|10,2:0|2:0,2:0:0:0:
223,106,78565,1,0,3:0:0:0:
223,106,78653,5,0,3:0:0:0:
362,222,78871,1,10,2:0:0:0:
362,222,78964,1,0,3:0:0:0:
362,222,79073,1,0,3:0:0:0:
173,246,79270,2,0,L|250:254,1,45,2|0,3:2|3:0,2:0:0:0:
316,364,79467,2,0,L|271:368,1,45,0|0,3:0|3:0,2:0:0:0:
85,233,79656,1,0,3:0:0:0:
341,120,79854,6,0,P|392:125|443:155,1,90,4|0,2:0|2:0,2:0:0:0:
242,182,80287,2,0,P|220:135|221:76,1,90,8|0,2:0|2:0,2:0:0:0:
321,202,80689,1,0,3:0:0:0:
173,246,80891,1,0,3:0:0:0:
284,371,81092,2,0,L|293:263,1,90,8|0,2:0|3:0,2:0:0:0:
91,213,81484,6,0,L|98:302,1,90,0|0,3:0|2:0,2:0:0:0:
242,182,81881,2,0,L|249:92,1,90,8|0,2:0|3:0,2:0:0:0:
107,20,82278,1,0,3:0:0:0:
162,147,82477,1,0,2:0:0:0:
25,87,82676,1,8,2:0:0:0:
206,8,82874,1,0,2:0:0:0:
133,239,83073,6,0,P|74:192|63:148,1,90,0|0,3:0|2:0,2:0:0:0:
243,230,83469,2,0,P|231:304|199:336,1,90,8|0,2:0|2:0,2:0:0:0:
162,147,83865,1,0,3:0:0:0:
323,153,84063,1,0,2:0:0:0:
206,8,84261,2,0,L|95:18,1,90,8|0,2:0|2:0,2:0:0:0:
313,67,84657,6,0,L|424:77,1,90,0|0,3:0|3:0,2:0:0:0:
194,228,85053,2,0,P|164:171|163:131,1,90,8|0,2:0|3:0,2:0:0:0:
286,252,85449,1,0,3:0:0:0:
135,303,85647,1,0,2:0:0:0:
331,342,85845,1,8,2:0:0:0:
194,228,86043,1,0,2:0:0:0:
388,169,86241,6,0,L|377:286,1,90,4|0,2:0|2:0,2:0:0:0:
217,135,86638,2,0,L|208:45,1,90,8|0,2:0|2:0,2:0:0:0:
424,76,87035,1,0,3:0:0:0:
275,228,87234,1,0,2:0:0:0:
346,2,87433,1,8,2:0:0:0:
477,183,87631,1,0,2:0:0:0:
217,135,87830,6,0,P|173:183|164:231,1,90,0|0,3:0|2:0,2:0:0:0:
310,307,88227,2,0,P|290:244|253:213,1,90,8|0,2:0|2:0,2:0:0:0:
85,238,88625,1,0,3:0:0:0:
207,304,88823,1,0,3:0:0:0:
7,384,89022,2,0,L|18:268,1,90,10|0,2:0|3:0,2:0:0:0:
121,91,89419,5,8,0:0:0:0:
207,323,89618,1,0,3:0:0:0:
289,82,89817,5,8,0:0:0:0:
207,341,90015,1,0,3:0:0:0:
112,72,90214,5,8,0:0:0:0:
207,359,90413,1,0,3:0:0:0:
298,62,90611,1,8,0:0:0:0:
0,146,90810,5,6,0:0:0:0:
256,192,90909,12,0,92499,0:0:0:0:
448,335,92606,6,0,L|433:222,1,99.000000000001,4|0,2:0|2:0,2:0:0:0:
335,80,93003,1,10,2:0:0:0:
506,192,93202,1,0,3:0:0:0:
273,207,93400,1,2,3:2:0:0:
460,44,93599,1,0,3:0:0:0:
434,236,93798,1,10,2:0:0:0:
236,68,93996,6,0,L|348:81,1,99.000000000001,0|2,3:0|2:0,2:0:0:0:
203,274,94394,2,0,B|172:320|172:320|188:169,1,198.000000000002,0|0,3:0|2:0,2:0:0:0:
334,79,94990,1,2,3:2:0:0:
77,121,95188,1,0,3:0:0:0:
294,221,95387,2,0,L|472:210,1,148.500000000001,10|0,2:0|2:0,2:0:0:0:
508,289,95784,6,0,L|405:273,1,99.000000000001,0|0,3:0|2:0,2:0:0:0:
258,165,96182,1,10,2:0:0:0:
368,360,96380,1,0,2:0:0:0:
191,285,96579,1,2,3:2:0:0:
421,183,96778,1,0,3:0:0:0:
163,188,96976,1,10,2:0:0:0:
410,273,97175,1,0,3:0:0:0:
179,384,97374,6,0,L|192:278,1,99.000000000001,0|0,3:0|3:0,2:0:0:0:
350,137,97771,2,0,P|299:161|231:160,1,99.000000000001,10|0,2:0|2:0,2:0:0:0:
91,107,98168,1,2,3:2:0:0:
191,285,98367,1,0,3:0:0:0:
238,72,98566,1,10,2:0:0:0:
17,238,98764,6,0,L|149:224,1,99.000000000001,0|4,3:0|3:2,2:0:0:0:
265,280,99162,1,0,3:0:0:0:
170,121,99360,1,12,2:0:0:0:
387,206,99559,2,0,L|255:192,1,99.000000000001,0|4,2:0|3:2,2:0:0:0:
115,227,99956,1,0,3:0:0:0:
315,97,100155,1,8,2:0:0:0:
55,79,100354,6,0,L|73:277,1,198.000000000002,4|0,2:0|3:0,2:0:0:0:
271,342,100950,1,10,2:0:0:0:
174,120,101149,2,0,L|156:253,1,99.000000000001,0|4,3:0|2:0,2:0:0:0:
357,286,101546,2,0,L|343:187,1,99.000000000001,0|12,3:0|2:0,2:0:0:0:
192,303,101943,1,0,3:0:0:0:
327,80,102142,5,4,3:2:0:0:
364,367,102341,1,0,2:0:0:0:
224,93,102539,1,12,3:2:0:0:
126,350,102738,1,0,2:0:0:0:
393,207,102937,1,4,3:2:0:0:
99,142,103135,1,0,3:0:0:0:
353,287,103334,1,12,2:0:0:0:
39,339,103533,1,0,3:0:0:0:
339,98,103731,5,0,3:0:0:0:
229,384,103930,1,12,2:0:0:0:
128,19,104129,1,12,2:0:0:0:
444,177,104327,1,10,2:0:0:0:
444,177,105321,6,0,L|324:190,1,90,2|0,3:2|2:0,2:0:0:0:
112,100,105718,2,0,L|232:113,1,90,2|0,3:2|2:0,2:0:0:0:
500,265,106115,2,0,L|380:278,1,90,2|0,3:2|2:0,2:0:0:0:
69,7,106513,2,0,L|189:20,1,90,2|0,3:2|2:0,2:0:0:0:
167,344,106910,6,0,P|137:277|144:223,1,90,2|0,3:2|2:0,2:0:0:0:
315,179,107307,2,0,P|285:212|271:255,1,90,2|0,3:2|2:0,2:0:0:0:
70,379,107705,2,0,P|40:312|47:258,1,90,2|0,3:2|2:0,2:0:0:0:
401,218,108102,2,0,P|371:251|357:294,1,90,2|0,3:2|2:0,2:0:0:0:
99,101,108500,6,0,L|215:113,1,90,2|0,3:2|2:0,2:0:0:0:
446,284,108897,2,0,L|330:296,1,90,2|0,3:2|2:0,2:0:0:0:
38,384,109294,2,0,P|14:327|17:274,1,90,2|0,3:2|2:0,2:0:0:0:
313,194,109692,2,0,P|287:231|251:257,1,90,2|0,3:2|2:0,2:0:0:0:
197,29,110089,6,0,L|310:46,1,90,4|0,3:2|2:0,2:0:0:0:
96,228,110486,2,0,L|-17:245,1,90,4|0,3:2|2:0,2:0:0:0:
280,112,110884,1,4,3:2:0:0:
207,358,111082,1,4,3:2:0:0:
64,54,111281,1,4,3:2:0:0:
388,157,111480,1,4,3:2:0:0:
41,357,111678,5,4,1:0:0:0:
256,192,111778,12,0,118831,2:0:0:0:
