osu file format v14

[General]
AudioFilename: audio.mp3
AudioLeadIn: 0
PreviewTime: 28383
Countdown: 1
SampleSet: Normal
StackLeniency: 0.7
Mode: 0
LetterboxInBreaks: 0
WidescreenStoryboard: 0

[Editor]
Bookmarks: 16264,28979,41694
DistanceSpacing: 0.8
BeatDivisor: 4
GridSize: 32
TimelineZoom: 2.2

[Metadata]
Title:Uragiri no Yuuyake (TV Size)
TitleUnicode:裏切りの夕焼け (TV Size)
Artist:THEATRE BROOK
ArtistUnicode:THEATRE BROOK
Creator:Milan-
Version:deetz' Russian Sushi
Source:DuRaRaRa!!
Tags:deetz drrr!! デュラララ!!
BeatmapID:1679391
BeatmapSetID:674359

[Difficulty]
HPDrainRate:5
CircleSize:4
OverallDifficulty:8
ApproachRate:8.5
SliderMultiplier:1.6
SliderTickRate:1

[Events]
//Background and Video events
0,0,"simon.png",0,0
Video,0,"durarara.avi"
//Break Periods
//Storyboard Layer 0 (Background)
//Storyboard Layer 1 (Fail)
//Storyboard Layer 2 (Pass)
//Storyboard Layer 3 (Foreground)
//Storyboard Sound Samples

[TimingPoints]
370,397.350993377483,4,1,0,60,1,0
28383,-200,4,1,0,60,0,0
28979,-80,4,1,0,60,0,1
49244,-80,4,1,0,60,0,0
49442,-80,4,1,0,60,0,1
53416,-80,4,1,0,60,0,0
54409,-80,4,1,0,60,0,1
54608,-100,4,1,0,60,0,0
67124,-80,4,1,0,60,0,1
74674,-80,4,1,0,60,0,0
74873,-80,4,1,0,60,0,1
78846,-80,4,1,0,60,0,0
79840,-80,4,1,0,60,0,1
83019,-80,4,1,0,60,0,0

[Colours]
Combo1 : 255,94,55
Combo2 : 173,255,95
Combo3 : 17,254,176
Combo4 : 255,88,100

[HitObjects]
34,147,370,5,8,0:3:0:0:
34,147,568,1,8,0:3:0:0:
0,275,767,6,0,L|105:256,1,80,8|8,0:0|0:3,0:0:0:0:
173,330,1164,5,8,0:3:0:0:
173,330,1362,1,8,0:3:0:0:
137,197,1562,6,0,L|242:216,1,80,8|8,0:0|0:3,0:0:0:0:
290,135,1959,5,8,0:3:0:0:
290,135,2158,1,8,0:3:0:0:
268,279,2356,6,0,L|373:260,1,80,8|8,0:0|0:3,0:0:0:0:
483,363,2754,5,8,0:3:0:0:
483,363,2953,1,8,0:3:0:0:
487,183,3151,5,8,0:0:0:0:
332,343,3350,5,2,0:0:0:0:
504,291,3548,2,2,P|451:278|323:263,1,160,0|8,0:0|0:0,0:0:0:0:
229,143,4144,1,0,0:0:0:0:
351,18,4343,2,0,P|347:78|345:185,1,160,0|8,0:0|0:0,0:0:0:0:
340,338,4939,1,0,0:0:0:0:
164,331,5138,6,0,L|68:369,1,80
237,304,5535,1,8,0:0:0:0:
38,190,5734,2,0,P|68:229|144:242,1,120,0|0,0:0|2:0,0:0:0:0:
134,244,6131,2,0,L|217:216,1,80,0|8,0:0|0:0,0:0:0:0:
141,101,6528,5,2,0:0:0:0:
265,286,6727,2,2,P|238:211|209:111,1,160,2|8,0:0|0:0,0:0:0:0:
262,68,7323,1,0,0:0:0:0:
360,193,7522,2,0,P|432:170|537:137,1,160,0|8,0:0|0:0,0:0:0:0:
456,0,8118,2,0,P|399:16|363:27,1,80
365,109,8515,1,0,0:0:0:0:
440,83,8714,1,8,0:0:0:0:
271,43,8913,2,0,P|244:95|275:197,1,160
339,225,9509,1,8,0:0:0:0:
262,357,9707,5,2,0:0:0:0:
477,333,9906,2,2,P|399:313|302:304,1,160,2|8,0:0|0:0,0:0:0:0:
131,193,10502,1,0,0:0:0:0:
221,263,10701,2,0,P|143:283|46:292,1,160,0|8,0:0|0:0,0:0:0:0:
35,121,11297,2,0,P|113:101|210:92,1,160
258,140,11893,1,8,0:0:0:0:
321,25,12091,2,0,P|392:33|485:45,1,160
464,264,12687,1,8,0:0:0:0:
333,106,12886,5,2,0:0:0:0:
390,321,13085,2,2,P|387:254|390:151,1,160,2|8,0:0|0:0,0:0:0:0:
263,252,13681,2,0,L|181:326,1,80
165,175,14078,2,0,L|130:254,1,80,0|8,0:0|0:0,0:0:0:0:
31,156,14475,2,0,L|41:249,1,80
80,369,14873,1,0,0:0:0:0:
80,369,15071,1,8,0:0:0:0:
117,234,15270,6,0,P|112:160|109:60,1,160
179,36,15866,2,0,P|236:33|269:34,1,80,8|0,0:0|0:0,0:0:0:0:
435,172,16264,5,4,0:0:0:0:
435,172,16661,2,8,P|399:204|366:215,1,80
496,219,17058,2,0,P|458:258|353:292,2,160,4|8|4,0:3|0:0|0:3,0:0:0:0:
362,134,18052,6,0,P|307:122|261:121,1,80,0|8,0:0|0:0,0:0:0:0:
189,225,18449,1,8,0:0:0:0:
180,304,18648,1,4,0:3:0:0:
259,310,18846,2,0,P|267:258|271:211,1,80,4|8,0:3|0:0,0:0:0:0:
128,104,19244,2,0,P|119:155|115:202,1,80,4|4,0:3|2:0,0:0:0:0:
117,183,19840,6,8,L|25:224,1,80
253,209,20237,1,4,0:3:0:0:
178,238,20436,1,4,0:3:0:0:
392,290,20634,2,0,L|300:249,1,80,8|0,0:0|0:0,0:0:0:0:
483,131,21032,1,4,0:3:0:0:
415,174,21230,1,4,0:3:0:0:
462,238,21429,1,8,0:0:0:0:
500,50,21628,6,0,P|444:38|391:34,2,80,8|4|4,0:0|0:3|0:3,0:0:0:0:
415,174,22224,2,0,P|363:182|303:183,1,80,8|4,0:0|0:3,0:0:0:0:
192,37,22621,5,4,0:2:0:0:
192,37,23019,2,8,P|201:74|210:125,1,80
116,55,23416,2,0,P|128:109|144:220,2,160,4|8|4,0:3|0:0|0:3,0:0:0:0:
67,229,24409,5,4,0:3:0:0:
67,229,24608,2,0,P|58:192|49:141,1,80,8|0,0:0|0:0,0:0:0:0:
210,113,25005,1,4,0:3:0:0:
265,170,25204,2,0,P|274:207|283:258,1,80,0|8,0:0|0:0,0:0:0:0:
142,373,25601,2,0,P|149:333|158:294,1,80,8|4,0:0|0:3,0:0:0:0:
248,346,25999,1,0,0:0:0:0:
327,335,26197,1,8,0:0:0:0:
406,325,26396,1,0,0:0:0:0:
213,218,26595,5,4,0:3:0:0:
308,228,26793,1,0,0:0:0:0:
403,238,26992,1,8,0:0:0:0:
498,248,27191,1,0,0:0:0:0:
286,17,27389,5,8,0:0:0:0:
434,168,27588,1,8,0:0:0:0:
277,155,27787,1,8,0:0:0:0:
443,22,27985,1,8,0:0:0:0:
364,46,28383,6,2,L|357:157,1,100,2|0,2:0|2:0,2:0:0:0:
356,224,28979,6,0,P|395:273|459:279,1,100,4|0,0:0|0:0,0:0:0:0:
265,248,29376,2,8,P|257:310|298:359,1,100,8|0,0:0|0:0,0:0:0:0:
183,200,29773,2,4,P|134:239|128:303,1,100,4|4,0:3|0:3,0:3:0:0:
239,132,30171,5,8,0:0:0:0:
4,6,30369,2,4,P|47:65|185:90,1,200,4|4,0:3|0:3,0:3:0:0:
417,116,30966,1,8,0:0:0:0:
417,116,31363,1,4,0:3:0:0:
273,54,31562,2,2,P|208:84|165:224,1,200
182,315,32158,5,4,0:3:0:0:
182,315,32356,1,4,0:3:0:0:
346,224,32555,5,8,0:0:0:0:
264,241,32753,1,0,0:0:0:0:
359,304,32952,1,4,0:3:0:0:
351,107,33151,5,4,0:3:0:0:
278,319,33350,1,8,0:0:0:0:
475,384,33548,2,4,P|463:320|437:184,1,200,4|4,0:3|0:3,0:3:0:0:
496,28,34144,1,8,0:0:0:0:
496,28,34542,1,4,0:3:0:0:
295,58,34740,2,0,P|360:99|408:94,1,100,8|8,0:3|0:0,0:0:0:0:
512,174,35138,6,4,P|426:191|371:308,1,200,4|4,0:2|0:3,0:3:0:0:
403,376,35734,1,8,0:0:0:0:
308,207,35932,2,0,P|260:121|166:99,1,200,4|8,0:3|0:0,0:0:0:0:
166,99,36528,1,8,0:0:0:0:
79,372,36727,6,0,P|173:349|220:264,1,200,4|4,0:2|0:3,0:0:0:0:
25,153,37323,1,8,0:0:0:0:
85,294,37522,2,0,P|109:245|102:147,1,150,4|0,0:3|2:0,0:0:0:0:
103,151,37919,2,0,P|135:111|186:94,1,100,4|8,0:3|0:0,0:0:0:0:
82,45,38317,1,0,0:0:0:0:
244,136,38515,5,4,0:3:0:0:
339,106,38714,1,0,0:0:0:0:
249,160,38913,1,8,0:0:0:0:
346,128,39111,1,0,0:0:0:0:
437,247,39310,5,4,0:3:0:0:
321,206,39509,1,0,0:0:0:0:
432,271,39708,1,8,0:0:0:0:
314,228,39906,1,0,0:0:0:0:
198,384,40105,5,4,0:2:0:0:
340,347,40304,1,8,0:3:0:0:
161,265,40503,1,8,0:0:0:0:
262,340,40701,2,0,L|237:243,1,100,4|0,0:3|0:0,0:0:0:0:
195,49,41098,5,8,0:3:0:0:
318,232,41297,1,8,0:0:0:0:
318,232,41495,1,8,0:0:0:0:
512,129,41694,6,0,P|487:71|511:12,1,100,4|0,0:0|0:0,0:0:0:0:
448,199,42091,2,0,P|389:176|365:117,1,100,8|0,0:0|0:0,0:0:0:0:
452,294,42489,2,4,P|394:318|335:294,1,100,4|4,0:3|0:3,0:3:0:0:
263,148,42886,5,8,0:0:0:0:
256,384,43085,2,4,P|208:355|191:213,1,200,4|4,0:3|0:3,0:3:0:0:
183,73,43681,1,8,0:0:0:0:
183,73,44078,1,4,0:3:0:0:
110,196,44277,2,0,P|67:244|3:250,1,100,2|8,0:0|0:1,0:3:0:0:
109,54,44674,6,2,P|179:123|186:220,1,200
246,287,45270,5,8,0:0:0:0:
259,367,45468,1,0,0:0:0:0:
164,304,45667,1,4,0:3:0:0:
340,174,45866,5,4,0:3:0:0:
179,382,46065,1,8,0:0:0:0:
70,165,46264,2,4,P|136:182|268:209,1,200,4|4,0:3|0:3,0:3:0:0:
512,261,46860,1,8,0:0:0:0:
512,261,47257,1,4,0:3:0:0:
438,179,47456,2,0,P|383:208|369:250,1,100,8|8,0:3|0:0,0:0:0:0:
339,365,47853,6,0,P|316:321|270:303,1,100,0|4,0:0|0:0,0:0:0:0:
270,303,48250,1,4,0:3:0:0:
432,379,48449,1,8,0:0:0:0:
214,360,48648,2,0,P|156:351|10:337,1,200,4|2,0:3|0:3,0:0:0:0:
15,337,49244,1,4,0:3:0:0:
362,167,49442,6,0,P|262:175|163:189,1,200,4|4,0:0|0:3,0:0:0:0:
135,93,50038,1,8,0:0:0:0:
197,277,50237,2,0,P|161:233|61:202,1,150,4|0,0:3|2:0,0:0:0:0:
75,202,50634,2,0,P|42:147|52:97,1,100,4|8,0:3|0:0,0:0:0:0:
0,247,51032,1,0,0:0:0:0:
68,34,51230,5,4,0:3:0:0:
187,26,51429,1,0,0:0:0:0:
76,49,51628,1,8,0:0:0:0:
187,44,51826,1,0,0:0:0:0:
197,154,52025,5,4,0:3:0:0:
364,132,52224,1,0,0:0:0:0:
196,189,52422,1,8,0:0:0:0:
375,162,52621,1,0,0:0:0:0:
305,340,52820,5,8,0:0:0:0:
480,116,53018,1,8,0:0:0:0:
279,147,53217,1,8,0:0:0:0:
506,309,53415,1,8,0:0:0:0:
506,309,54409,5,4,0:0:0:0:
0,271,54807,6,0,L|19:356,1,80,2|0,0:3|0:0,0:0:0:0:
110,179,55204,2,0,L|32:197,1,80
202,289,55601,2,0,L|183:211,1,80,2|2,0:3|0:3,0:1:0:0:
251,72,55999,6,0,L|232:149,1,80
402,58,56396,2,0,L|324:39,1,80,2|0,0:3|0:0,0:0:0:0:
416,209,56793,2,0,L|434:131,1,80,0|0,0:3|0:3,0:0:0:0:
336,137,57191,1,2,0:3:0:0:
394,287,57389,6,0,P|335:294|229:312,1,160,4|0,0:2|0:0,0:0:0:0:
182,370,57985,2,0,P|123:363|17:345,1,160,2|0,0:3|0:0,0:0:0:0:
144,171,58581,6,0,P|136:232|112:258,1,80,0|2,0:0|0:3,0:0:0:0:
47,263,58979,2,0,P|11:215|22:101,1,160
72,65,59575,2,0,P|131:58|224:125,1,160,2|0,0:3|0:0,0:0:0:0:
291,131,60171,2,0,L|388:121,1,80,2|2,0:3|0:3,0:0:0:0:
450,119,60568,1,0,0:0:0:0:
364,41,60767,6,0,P|341:84|327:212,1,160,4|2,0:2|0:3,0:0:0:0:
254,231,61363,2,0,L|166:212,1,80
284,382,61760,2,0,L|303:294,1,80,0|2,0:0|0:3,0:0:0:0:
198,313,62158,1,2,0:3:0:0:
237,152,62356,6,0,L|253:230,1,80
362,62,62753,2,0,L|283:78,1,80,2|0,0:3|0:3,0:0:0:0:
345,167,63151,1,0,0:0:0:0:
435,108,63350,2,0,L|452:187,1,80,0|2,0:0|0:3,0:0:0:0:
472,264,63747,1,0,0:0:0:0:
316,333,63946,5,4,0:3:0:0:
236,321,64343,1,4,0:3:0:0:
156,309,64740,1,4,0:3:0:0:
76,297,65138,1,4,0:3:0:0:
33,229,65535,1,4,0:3:0:0:
50,151,65932,1,4,0:3:0:0:
119,111,66330,6,0,L|173:124,7,40
104,13,67124,6,0,P|156:-5|209:4,1,100,4|0,0:0|0:0,0:0:0:0:
119,111,67522,2,0,P|168:135|199:178,1,100,8|0,0:0|0:0,0:0:0:0:
60,190,67919,2,4,P|77:241|69:293,1,100,4|4,0:3|0:3,0:3:0:0:
312,258,68317,5,8,0:0:0:0:
147,344,68515,2,4,P|228:323|320:385,1,200,4|4,0:3|0:3,0:3:0:0:
506,281,69111,1,8,0:0:0:0:
506,281,69509,1,4,0:3:0:0:
375,304,69707,2,2,P|417:362|454:365,1,100,2|0,0:0|0:0,0:0:0:0:
512,167,70105,6,2,P|452:144|361:230,1,200
177,305,70701,5,8,0:0:0:0:
267,372,70899,1,0,0:0:0:0:
187,384,71098,1,4,0:3:0:0:
94,171,71297,5,4,0:3:0:0:
256,292,71495,1,8,0:0:0:0:
47,384,71694,2,4,P|37:323|10:172,1,200,4|4,0:3|0:3,0:3:0:0:
189,21,72290,1,8,0:0:0:0:
189,21,72687,1,4,0:3:0:0:
243,79,72886,2,0,P|198:124|160:135,1,100,8|8,0:3|0:0,0:0:0:0:
109,236,73283,6,0,P|155:254|187:291,1,100,0|4,0:0|0:1,0:0:0:0:
187,291,73681,1,0,0:0:0:0:
70,148,73879,1,8,0:0:0:0:
235,205,74078,2,0,P|292:211|444:238,1,200,4|2,0:3|0:3,0:3:0:0:
432,235,74674,1,4,0:3:0:0:
109,65,74873,6,0,P|166:59|318:32,1,200,4|4,0:0|0:3,0:0:0:0:
373,78,75469,1,8,0:0:0:0:
208,133,75668,2,0,P|261:150|309:230,1,150,4|0,0:3|2:0,0:0:0:0:
308,227,76065,2,0,L|327:338,1,100,4|8,0:3|0:0,0:0:0:0:
399,254,76462,1,0,0:0:0:0:
241,374,76661,5,4,0:3:0:0:
129,339,76860,1,0,0:0:0:0:
255,348,77058,1,8,0:0:0:0:
131,316,77257,1,0,0:0:0:0:
100,186,77456,5,4,0:3:0:0:
265,147,77655,1,0,0:0:0:0:
81,166,77853,1,8,0:0:0:0:
270,122,78052,1,0,0:0:0:0:
148,47,78250,5,8,0:0:0:0:
194,250,78449,1,8,0:0:0:0:
385,136,78648,1,8,0:0:0:0:
424,319,78846,1,8,0:0:0:0:
424,319,79840,5,4,0:2:0:0:
344,313,80038,1,4,0:3:0:0:
277,357,80237,1,4,0:3:0:0:
277,357,80436,1,4,0:3:0:0:
365,168,80634,5,4,0:2:0:0:
280,208,80832,1,4,0:3:0:0:
239,291,81031,1,4,0:3:0:0:
239,291,81230,1,4,0:3:0:0:
226,56,81429,5,4,0:2:0:0:
161,148,81627,1,4,0:3:0:0:
168,259,81826,1,4,0:3:0:0:
168,259,82025,1,4,0:3:0:0:
30,35,82224,5,4,0:2:0:0:
18,169,82422,1,4,0:3:0:0:
92,280,82621,1,4,0:3:0:0:
92,280,82820,1,4,0:3:0:0:
295,156,83019,5,4,0:2:0:0:
150,192,83217,1,4,0:3:0:0:
190,341,83416,1,4,0:3:0:0:
190,341,83615,1,4,0:3:0:0:
408,142,83813,5,4,0:2:0:0:
243,98,84012,1,4,0:3:0:0:
203,266,84211,1,4,0:3:0:0:
203,266,84409,1,4,0:3:0:0:
512,110,84608,5,4,0:2:0:0:
323,1,84807,1,4,0:3:0:0:
215,190,85005,1,4,0:3:0:0:
215,190,85203,1,4,0:3:0:0:
504,192,85403,5,4,0:2:0:0:
256,36,85601,1,4,0:2:0:0:
8,192,85800,1,4,0:2:0:0:
256,348,85999,1,4,0:2:0:0:
256,192,86197,5,4,0:0:0:0:
256,192,86297,12,0,93350,2:0:0:0:
