osu file format v14

[General]
AudioFilename: audio.mp3
AudioLeadIn: 0
PreviewTime: 28383
Countdown: 1
SampleSet: Normal
StackLeniency: 0.7
Mode: 0
LetterboxInBreaks: 0
WidescreenStoryboard: 1

[Editor]
Bookmarks: 16264,28979,41694
DistanceSpacing: 0.8
BeatDivisor: 4
GridSize: 32
TimelineZoom: 2.2

[Metadata]
Title:Uragiri no Yuuyake (TV Size)
TitleUnicode:裏切りの夕焼け (TV Size)
Artist:THEATRE BROOK
ArtistUnicode:THEATRE BROOK
Creator:Milan-
Version:Insane
Source:DuRaRaRa!!
Tags:deetz drrr!! デュラララ!!
BeatmapID:1426903
BeatmapSetID:674359

[Difficulty]
HPDrainRate:6
CircleSize:4.5
OverallDifficulty:8
ApproachRate:8.5
SliderMultiplier:1.7
SliderTickRate:1

[Events]
//Background and Video events
0,0,"457da9fd-99db-4e18-8bf8-f9019a41b5b8.jpg",0,0
Video,0,"durarara.avi"
//Break Periods
//Storyboard Layer 0 (Background)
//Storyboard Layer 1 (Fail)
//Storyboard Layer 2 (Pass)
//Storyboard Layer 3 (Foreground)
//Storyboard Sound Samples

[TimingPoints]
370,397.350993377483,4,1,0,40,1,0
3350,-83.3333333333333,4,1,0,40,0,0
3548,-125,4,1,0,40,0,0
6528,-83.3333333333333,4,1,0,40,0,0
6727,-125,4,1,0,40,0,0
9707,-83.3333333333333,4,1,0,40,0,0
9906,-125,4,1,0,40,0,0
12886,-83.3333333333333,4,1,0,40,0,0
13085,-125,4,1,0,40,0,0
16264,-111.111111111111,4,1,0,50,0,0
28383,-200,4,1,0,30,0,0
28979,-100,4,1,0,60,0,1
36528,-83.3333333333333,4,1,0,60,0,1
36727,-100,4,1,0,60,0,1
41495,-100,4,1,0,60,0,0
41694,-100,4,1,0,60,0,1
49244,-83.3333333333333,4,1,0,60,0,1
49442,-100,4,1,0,60,0,1
53416,-100,4,1,0,60,0,0
54409,-100,4,1,0,60,0,1
54608,-125,4,1,0,40,0,0
58979,-100,4,1,0,40,0,0
59177,-125,4,1,0,40,0,0
63747,-100,4,1,0,40,0,0
63946,-125,4,1,0,40,0,0
66330,-100,4,1,0,50,0,0
67124,-83.3333333333333,4,1,0,60,0,1
74674,-80,4,1,0,60,0,0
74873,-80,4,1,0,60,0,1
78846,-200,4,1,0,60,0,0
79840,-125,4,1,0,60,0,1
80634,-111.111111111111,4,1,0,60,0,1
81429,-100,4,1,0,60,0,1
82224,-90.9090909090909,4,1,0,60,0,1
83019,-83.3333333333333,4,1,0,60,0,1
83813,-76.9230769230769,4,1,0,60,0,1
84608,-71.4285714285714,4,1,0,60,0,1
86197,-71.4285714285714,4,1,0,60,0,0

[Colours]
Combo1 : 250,190,230
Combo2 : 130,200,230
Combo3 : 255,230,140
Combo4 : 170,245,170

[HitObjects]
0,40,370,5,8,0:3:0:0:
0,40,568,1,8,0:3:0:0:
75,24,767,1,8,0:0:0:0:
197,85,966,1,8,0:3:0:0:
122,101,1164,5,8,0:3:0:0:
122,101,1363,1,8,0:3:0:0:
197,85,1562,1,8,0:0:0:0:
319,146,1760,1,8,0:3:0:0:
244,162,1959,5,8,0:3:0:0:
244,162,2158,1,8,0:3:0:0:
319,146,2356,1,8,0:0:0:0:
441,207,2555,1,8,0:3:0:0:
366,223,2754,5,8,0:3:0:0:
366,223,2952,1,8,0:3:0:0:
441,207,3151,1,8,0:0:0:0:
303,313,3350,2,0,L|245:304,1,50.9999984436036,2|0,0:0|2:0,0:0:0:0:
189,263,3548,6,0,L|36:294,1,136,0|8,0:0|0:0,0:0:0:0:
2,236,4144,1,0,0:0:0:0:
32,167,4343,2,0,P|89:203|171:172,1,136,0|8,0:0|0:0,0:0:0:0:
204,57,4939,1,0,0:0:0:0:
234,126,5138,2,0,P|291:89|373:120,1,136,0|8,0:0|0:0,0:0:0:0:
433,300,5734,2,0,P|460:313|507:307,1,68,0|0,0:0|0:0,0:0:0:0:
346,222,6131,2,0,P|321:201|309:169,1,68,0|8,0:0|0:0,0:0:0:0:
326,336,6528,2,0,P|305:356|263:368,1,50.9999984436036,2|0,0:0|2:0,0:0:0:0:
218,335,6727,6,0,L|207:192,1,136,2|8,0:0|0:0,0:0:0:0:
158,142,7323,1,0,0:0:0:0:
107,87,7522,2,0,P|116:135|52:210,1,136,0|8,0:0|0:0,0:0:0:0:
239,127,8118,1,0,0:0:0:0:
282,34,8317,2,0,P|289:66|319:98,1,68,0|0,0:0|0:0,0:0:0:0:
409,46,8714,1,8,0:0:0:0:
468,129,8913,2,0,P|436:119|394:129,1,68,0|0,0:0|0:0,0:0:0:0:
290,240,9310,2,0,P|314:217|326:175,1,68,0|8,0:0|0:0,0:0:0:0:
331,326,9707,2,0,P|330:351|315:388,1,50.9999984436036,2|0,0:0|2:0,0:0:0:0:
254,340,9906,6,0,L|109:354,1,136,2|8,0:0|0:0,0:0:0:0:
79,288,10502,1,0,0:0:0:0:
35,227,10701,2,0,P|-3:266|14:365,1,136,0|8,0:0|0:0,0:0:0:0:
125,164,11297,2,0,P|163:203|146:302,1,136,0|0,0:0|0:0,0:0:0:0:
259,73,11893,1,8,0:0:0:0:
330,54,12091,2,0,P|292:93|309:192,1,136,0|0,0:0|0:0,0:0:0:0:
97,9,12687,1,8,0:0:0:0:
35,50,12886,2,0,P|26:26|25:-5,1,50.9999984436036,2|0,0:0|2:0,0:0:0:0:
97,9,13085,6,0,L|86:162,1,136,2|8,0:0|0:0,0:0:0:0:
26,187,13681,1,0,0:0:0:0:
42,259,13879,2,0,P|74:246|102:208,1,68,0|0,0:0|0:0,0:0:0:0:
206,310,14277,2,0,P|220:278|212:232,1,68,8|0,0:0|0:0,0:0:0:0:
406,257,14674,2,0,P|393:224|355:196,1,68,0|0,0:0|0:0,0:0:0:0:
453,0,15071,1,8,0:0:0:0:
488,65,15270,2,0,P|425:36|354:61,1,136,0|0,0:0|0:0,0:0:0:0:
512,342,15866,1,8,0:0:0:0:
512,342,16264,6,0,P|499:271|431:310,2,152.999995330811,4|8|4,0:0|0:0|0:3,0:0:0:0:
439,368,17257,1,0,0:0:0:0:
370,333,17456,2,0,P|359:276|380:236,1,76.4999976654053,8|0,0:0|0:0,0:0:0:0:
224,251,17853,2,0,P|256:202|299:189,1,76.4999976654053,4|0,0:3|0:0,0:0:0:0:
167,59,18250,2,0,P|224:48|264:68,1,76.4999976654053,8|8,0:0|0:0,0:0:0:0:
66,255,18648,1,4,0:3:0:0:
0,214,18846,2,0,P|74:215|114:126,1,152.999995330811,4|4,0:3|0:3,0:0:0:0:
370,333,19442,6,0,P|344:305|303:295,1,76.4999976654053,4|0,2:0|0:0,0:0:0:0:
361,175,19840,2,0,P|323:173|286:195,1,76.4999976654053,8|8,0:0|0:0,0:0:0:0:
227,56,20237,2,0,P|199:81|189:123,1,76.4999976654053,4|4,0:3|0:3,0:0:0:0:
18,77,20634,2,0,P|16:114|38:151,1,76.4999976654053,8|0,0:0|0:0,0:0:0:0:
87,372,21032,2,0,P|101:299|165:262,1,152.999995330811,4|8,0:3|0:0,0:0:0:0:
404,81,21628,1,8,0:0:0:0:
434,2,21826,2,0,P|448:74|512:111,1,152.999995330811,4|8,0:3|0:0,0:0:0:0:
512,111,22621,6,0,P|499:182|431:143,2,152.999995330811,4|8|4,0:2|0:0|0:3,0:0:0:0:
439,85,23615,1,0,0:0:0:0:
370,120,23813,2,0,P|359:177|380:217,1,76.4999976654053,8|0,0:0|0:0,0:0:0:0:
216,190,24211,2,0,P|248:238|291:251,1,76.4999976654053,4|4,0:3|0:3,0:0:0:0:
144,369,24608,2,0,P|201:380|241:359,1,76.4999976654053,8|0,0:0|0:0,0:0:0:0:
66,159,25005,1,4,0:3:0:0:
0,200,25204,2,0,P|74:199|114:288,1,152.999995330811,0|8,0:0|0:0,0:0:0:0:
339,16,25800,6,0,P|302:25|271:55,1,76.4999976654053,4|0,0:3|0:0,0:0:0:0:
190,8,26197,2,0,P|171:41|169:84,1,76.4999976654053,8|0,0:0|0:0,0:0:0:0:
439,126,26595,6,0,P|406:107|363:105,1,76.4999976654053,4|0,0:3|0:0,0:0:0:0:
80,109,26992,2,0,P|89:145|119:177,1,76.4999976654053,8|0,0:0|0:0,0:0:0:0:
432,275,27389,6,0,P|422:238|393:207,1,76.4999976654053,8|8,0:0|0:0,0:0:0:0:
72,257,27787,1,8,0:0:0:0:
143,279,27985,1,8,0:0:0:0:
406,0,28383,6,0,L|411:110,1,106.25,2|0,2:0|2:0,2:0:0:0:
399,88,28979,6,0,P|491:84|453:23,2,170,4|8|4,0:0|0:0|0:3,0:0:0:0:
244,65,29972,1,4,0:3:0:0:
317,39,30171,1,8,0:0:0:0:
326,114,30369,2,0,P|255:138|244:65,1,170,4|4,0:3|0:3,0:0:0:0:
312,225,30966,2,0,P|352:215|380:184,1,85,8|0,0:0|0:0,0:0:0:0:
173,149,31363,1,4,0:3:0:0:
109,191,31562,2,2,P|208:204|225:281,1,170
0,384,32158,1,4,0:3:0:0:
0,384,32555,6,0,P|19:347|57:330,1,85,8|0,0:0|0:0,0:0:0:0:
109,191,32952,2,0,P|128:227|166:244,1,85,4|4,0:3|0:3,0:0:0:0:
351,302,33350,1,8,0:0:0:0:
306,363,33548,2,0,P|381:333|443:384,1,170,4|4,0:3|0:3,0:0:0:0:
424,255,34144,2,0,P|396:222|347:215,1,85,8|0,0:0|0:0,0:0:0:0:
320,67,34542,2,0,P|278:63|237:93,1,85,4|8,0:3|0:3,0:0:0:0:
24,5,34939,1,8,0:0:0:0:
100,0,35138,6,0,P|35:54|27:148,1,170,4|4,0:2|0:3,0:0:0:0:
273,348,35734,1,8,0:0:0:0:
197,353,35932,2,0,P|261:298|269:204,1,170,4|8,0:3|0:0,0:0:0:0:
0,202,36528,2,0,P|10:231|23:248,1,50.9999984436036,8|0,0:0|2:0,0:0:0:0:
75,189,36727,6,0,P|141:139|224:146,1,170,4|4,0:2|0:3,0:0:0:0:
461,356,37323,1,8,0:0:0:0:
498,288,37522,2,0,P|431:337|348:330,1,170,4|4,0:3|0:3,0:0:0:0:
309,142,38118,1,8,0:0:0:0:
309,142,38515,6,0,P|373:139|401:94,1,85,4|0,0:3|0:0,0:0:0:0:
272,217,38913,2,0,P|319:260|370:248,1,85,8|0,0:0|0:0,0:0:0:0:
163,248,39310,2,0,P|166:312|211:340,1,85,4|0,0:3|0:0,0:0:0:0:
44,128,39707,2,0,P|10:153|0:194,1,85,8|0,0:0|0:0,0:0:0:0:
254,69,40105,6,0,P|250:28|220:0,1,85,4|8,0:2|0:3,0:0:0:0:
200,280,40502,2,0,P|238:296|279:285,1,85,8|4,0:0|0:3,0:0:0:0:
44,128,40899,1,0,0:0:0:0:
149,152,41098,1,8,0:3:0:0:
200,280,41297,1,8,0:0:0:0:
352,183,41495,1,8,0:0:0:0:
444,376,41694,6,0,P|376:313|359:383,2,170,4|8|4,0:0|0:0|0:3,0:0:0:0:
302,273,42687,1,4,0:3:0:0:
268,343,42886,1,8,0:0:0:0:
209,296,43085,2,0,P|242:228|301:272,1,170,4|4,0:3|0:3,0:0:0:0:
159,362,43681,2,0,P|132:333|134:268,1,85,8|0,0:0|0:0,0:0:0:0:
229,140,44078,1,4,0:3:0:0:
259,210,44277,2,2,P|313:160|303:57,1,170
51,6,44873,1,0,0:0:0:0:
51,6,45270,6,0,P|101:39|105:80,1,85,8|0,0:0|0:0,0:0:0:0:
229,140,45668,2,0,P|196:190|155:193,1,85,4|4,0:3|0:3,0:0:0:0:
160,384,46065,1,8,0:0:0:0:
235,374,46264,2,0,P|158:342|132:250,1,170,4|4,0:3|0:3,0:0:0:0:
309,353,46860,2,0,P|334:319|335:277,1,85,8|0,0:0|0:0,0:0:0:0:
447,182,47257,2,0,P|413:156|371:155,1,85,4|8,0:3|0:3,0:0:0:0:
203,27,47654,1,8,0:0:0:0:
275,0,47853,6,0,P|224:66|245:150,1,170,4|4,0:0|0:3,0:0:0:0:
423,357,48449,1,8,0:0:0:0:
351,384,48648,2,0,P|401:317|381:234,1,170,4|2,0:3|0:3,0:0:0:0:
169,171,49244,2,0,P|188:223|185:245,1,50.9999984436036,4|0,0:3|2:0,0:0:0:0:
192,287,49442,6,0,P|125:236|42:257,1,170,4|4,0:0|0:3,0:0:0:0:
334,54,50038,1,8,0:0:0:0:
329,124,50237,2,0,P|395:73|479:94,1,170,4|4,0:3|0:3,0:0:0:0:
8,189,50833,1,8,0:0:0:0:
8,189,51230,6,0,P|51:151|51:104,1,85,4|0,0:3|0:0,0:0:0:0:
147,254,51628,2,0,P|190:292|190:339,1,85,8|0,0:0|0:0,0:0:0:0:
154,108,52025,2,0,P|157:50|124:17,1,85,4|0,0:3|0:0,0:0:0:0:
297,306,52422,2,0,P|300:363|267:396,1,85,8|0,0:0|0:0,0:0:0:0:
252,2,52820,5,8,0:0:0:0:
364,64,53019,1,8,0:0:0:0:
436,213,53217,1,8,0:0:0:0:
406,384,53416,1,8,0:0:0:0:
0,67,54409,6,0,B|99:91|68:29|173:60,1,170,4|2,0:0|0:3,0:0:0:0:
165,57,55005,1,0,0:0:0:0:
130,124,55204,2,0,L|140:201,1,68,0|0,0:0|0:0,0:0:0:0:
236,161,55601,2,0,L|246:238,1,68,2|2,0:3|0:3,0:0:0:0:
356,194,55999,2,0,L|366:271,1,68,0|0,0:0|0:0,0:0:0:0:
504,223,56396,2,0,L|514:300,1,68,2|0,0:3|0:0,0:0:0:0:
454,89,56793,2,0,P|458:55|478:28,1,68,0|0,0:3|0:3,0:0:0:0:
279,168,57191,1,2,0:3:0:0:
335,119,57389,6,0,P|315:53|264:7,1,136,4|0,0:2|0:0,0:0:0:0:
207,197,57985,2,0,P|187:262|136:308,1,136,2|0,0:3|0:0,0:0:0:0:
64,302,58581,2,0,P|68:335|88:362,1,68,0|2,0:0|0:3,0:0:0:0:
278,250,58979,2,2,L|339:237,1,42.5,2|0,0:2|2:2,0:2:0:0:
355,179,59177,6,0,L|506:193,2,136,0|2|0,0:0|0:3|0:0,0:0:0:0:
306,121,60171,1,2,0:3:0:0:
237,150,60369,2,0,P|232:100|257:63,1,68,2|0,0:3|0:0,0:0:0:0:
190,240,60767,6,0,P|122:212|100:141,1,136,4|2,0:2|0:3,0:0:0:0:
99,157,61363,1,0,0:0:0:0:
67,90,61562,2,0,L|59:23,1,68,0|0,0:0|0:0,0:0:0:0:
173,127,61959,2,0,L|165:60,1,68,2|2,0:3|0:3,0:0:0:0:
293,160,62356,2,0,L|285:93,1,68,0|0,0:0|0:0,0:0:0:0:
441,193,62754,2,0,L|432:125,1,68,2|0,0:3|0:3,0:0:0:0:
287,293,63151,1,0,0:0:0:0:
356,320,63350,2,0,P|358:272|343:239,1,68,0|2,0:0|0:3,0:0:0:0:
130,198,63747,6,2,L|137:250,1,42.5,2|0,0:2|2:2,0:2:0:0:
204,271,63946,1,4,0:3:0:0:
259,221,64343,1,4,0:3:0:0:
315,171,64740,1,4,0:3:0:0:
369,119,65138,1,4,0:3:0:0:
421,66,65535,1,4,0:3:0:0:
351,253,65932,1,4,0:3:0:0:
194,129,66330,2,0,L|151:122,7,42.5
194,129,67124,6,0,P|102:125|136:43,2,203.999993774414,4|8|4,0:0|0:0|0:3,0:0:0:0:
361,65,68118,1,4,0:3:0:0:
279,69,68317,1,8,0:0:0:0:
296,149,68515,2,0,P|388:145|354:63,1,203.999993774414,4|4,0:3|0:3,0:0:0:0:
209,296,69111,2,0,P|241:258|290:256,1,101.999996887207,8|0,0:0|0:0,0:0:0:0:
66,135,69509,1,4,0:3:0:0:
121,195,69707,2,2,P|101:121|232:107,1,203.999993774414
2,294,70303,5,0,0:0:0:0:
1,294,70701,2,0,P|50:304|72:348,1,101.999996887207,8|0,0:0|0:0,0:0:0:0:
121,195,71098,2,0,P|169:184|191:140,1,101.999996887207,4|4,0:3|0:3,0:0:0:0:
344,255,71495,1,8,0:0:0:0:
287,313,71694,2,0,P|377:288|414:374,1,203.999993774414,4|4,0:3|0:3,0:0:0:0:
486,254,72290,2,0,P|463:209|415:199,1,101.999996887207,8|0,0:0|0:0,0:0:0:0:
245,70,72687,2,0,P|200:92|190:140,1,101.999996887207,4|8,0:3|0:3,0:0:0:0:
72,348,73085,1,8,0:0:0:0:
151,329,73283,6,0,P|147:236|50:203,1,203.999993774414,4|0,0:0|0:0,0:0:0:0:
381,4,73879,1,8,0:0:0:0:
302,23,74078,2,0,P|306:116|403:149,1,203.999993774414,4|2,0:3|0:3,0:0:0:0:
229,337,74674,2,0,P|239:366|254:387,1,53.125,4|0,0:3|2:0,0:0:0:0:
308,328,74873,6,0,P|372:249|473:264,1,212.5,4|4,0:0|0:3,0:0:0:0:
211,93,75469,1,8,0:0:0:0:
222,8,75668,2,0,P|158:87|57:72,1,212.5,4|4,0:3|0:3,0:0:0:0:
214,382,76264,1,8,0:0:0:0:
214,382,76661,6,0,P|228:333|277:317,1,106.25,4|0,0:3|0:0,0:0:0:0:
147,249,77058,2,0,P|132:199|83:184,1,106.25,8|0,0:0|0:0,0:0:0:0:
313,233,77456,2,0,P|362:221|400:255,1,106.25,4|0,0:3|0:0,0:0:0:0:
93,85,77853,2,0,P|43:73|5:107,1,106.25,8|0,0:0|0:0,0:0:0:0:
470,181,78250,5,8,0:0:0:0:
408,78,78449,1,8,0:0:0:0:
255,0,78648,1,8,0:0:0:0:
3,4,78846,1,8,0:0:0:0:
479,361,79840,6,0,P|454:327|451:289,1,68,4|4,0:2|0:3,0:0:0:0:
448,157,80237,2,0,P|423:180|412:212,1,68,4|4,0:3|0:3,0:0:0:0:
292,318,80634,2,0,P|329:315|357:290,1,76.4999976654053,4|4,0:2|0:3,0:0:0:0:
277,182,81032,2,0,P|246:202|234:239,1,76.4999976654053,4|4,0:3|0:3,0:0:0:0:
114,365,81429,6,0,P|155:360|189:335,1,85,4|4,0:2|0:3,0:0:0:0:
22,228,81826,2,0,P|17:269|36:309,1,85,4|4,0:3|0:3,0:0:0:0:
175,127,82224,2,0,P|142:159|96:166,1,93.5000028533936,4|4,0:2|0:3,0:0:0:0:
84,2,82621,2,0,P|130:1|168:27,1,93.5000028533936,4|4,0:3|0:3,0:0:0:0:
403,101,83019,6,0,P|402:151|374:193,1,101.999996887207,4|4,0:2|0:3,0:0:0:0:
376,363,83416,2,0,P|408:324|415:275,1,101.999996887207,4|4,0:3|0:3,0:0:0:0:
273,24,83813,2,0,P|304:64|307:125,1,110.499994941712,4|4,0:2|0:3,0:0:0:0:
232,335,84211,2,0,P|281:325|323:277,1,110.499994941712,4|4,0:3|0:3,0:0:0:0:
112,47,84608,6,0,P|169:57|210:99,1,118.999996368408,4|4,0:2|0:3,0:0:0:0:
101,266,85005,2,0,P|159:267|209:237,1,118.999996368408,4|4,0:3|0:3,0:0:0:0:
0,65,85403,5,4,0:2:0:0:
83,189,85601,1,4,0:2:0:0:
272,276,85800,1,4,0:2:0:0:
512,225,85999,1,4,0:2:0:0:
139,304,86197,5,4,0:0:0:0:
256,192,86297,12,0,93350,2:0:0:0:
