osu file format v14

[General]
AudioFilename: audio.mp3
AudioLeadIn: 0
PreviewTime: 28383
Countdown: 1
SampleSet: Normal
StackLeniency: 0.7
Mode: 0
LetterboxInBreaks: 0
WidescreenStoryboard: 1

[Editor]
Bookmarks: 16264,28979,41694
DistanceSpacing: 1.1
BeatDivisor: 4
GridSize: 32
TimelineZoom: 2.2

[Metadata]
Title:Uragiri no Yuuyake (TV Size)
TitleUnicode:裏切りの夕焼け (TV Size)
Artist:THEATRE BROOK
ArtistUnicode:THEATRE BROOK
Creator:Milan-
Version:Hard
Source:DuRaRaRa!!
Tags:deetz drrr!! デュラララ!!
BeatmapID:1679392
BeatmapSetID:674359

[Difficulty]
HPDrainRate:5
CircleSize:5
OverallDifficulty:6
ApproachRate:7
SliderMultiplier:1.4
SliderTickRate:1

[Events]
//Background and Video events
0,0,"457da9fd-99db-4e18-8bf8-f9019a41b5b8.jpg",0,0
Video,0,"durarara.avi"
//Break Periods
//Storyboard Layer 0 (Background)
//Storyboard Layer 1 (Fail)
//Storyboard Layer 2 (Pass)
//Storyboard Layer 3 (Foreground)
//Storyboard Sound Samples

[TimingPoints]
370,397.350993377483,4,1,0,40,1,0
3548,-133.333333333333,4,1,0,40,0,0
16264,-111.111111111111,4,1,0,50,0,0
28383,-200,4,1,0,30,0,0
28979,-100,4,1,0,60,0,1
36727,-100,4,1,0,60,0,1
41495,-100,4,1,0,60,0,0
41694,-100,4,1,0,60,0,1
49442,-100,4,1,0,60,0,1
53416,-100,4,1,0,60,0,0
54409,-133.333333333333,4,1,0,60,0,1
54608,-133.333333333333,4,1,0,40,0,0
66330,-111.111111111111,4,1,0,50,0,0
67124,-90.9090909090909,4,1,0,60,0,1
74873,-83.3333333333333,4,1,0,60,0,1
76661,-90.9090909090909,4,1,0,60,0,1
78846,-90.9090909090909,4,1,0,60,0,0
79840,-100,4,1,0,60,0,1
83019,-90.9090909090909,4,1,0,60,0,1
84608,-83.3333333333333,4,1,0,60,0,1
86197,-83.3333333333333,4,1,0,60,0,0

[Colours]
Combo1 : 250,190,230
Combo2 : 130,200,230
Combo3 : 255,230,140
Combo4 : 170,245,170

[HitObjects]
0,35,370,6,0,L|19:131,2,70,8|8|8,0:3|0:3|0:0,0:0:0:0:
73,59,966,1,8,0:3:0:0:
168,106,1164,2,0,L|187:10,2,70,8|8|8,0:3|0:3|0:0,0:0:0:0:
241,82,1760,1,8,0:3:0:0:
327,21,1959,2,0,L|346:117,2,70,8|8|8,0:3|0:3|0:0,0:0:0:0:
400,45,2555,1,8,0:3:0:0:
486,108,2754,2,0,L|505:12,2,70,8|8|8,0:3|0:3|0:0,0:0:0:0:
468,183,3350,1,2,0:0:0:0:
467,183,3548,6,0,P|418:199|366:198,1,105.000004005432,0|8,0:0|0:0,0:0:0:0:
44,183,4343,2,0,P|93:199|145:198,1,105.000004005432,0|8,0:0|0:0,0:0:0:0:
202,159,4939,1,0,0:0:0:0:
254,115,5138,2,0,P|306:113|355:130,1,105.000004005432,0|8,0:0|0:0,0:0:0:0:
409,172,5734,2,0,P|431:219|436:271,1,105.000004005432,0|0,0:0|0:0,0:0:0:0:
62,358,6528,5,2,0:0:0:0:
62,358,6727,2,0,P|98:319|118:252,1,105.000004005432,2|8,0:0|0:0,0:0:0:0:
101,7,7522,2,0,P|137:45|156:112,1,105.000004005432,0|8,0:0|0:0,0:0:0:0:
156,162,8118,1,0,0:0:0:0:
173,227,8317,2,0,P|210:268|266:299,1,105.000004005432,0|8,0:0|0:0,0:0:0:0:
319,303,8913,2,0,P|398:284|436:261,1,105.000004005432,0|0,0:0|0:0,0:0:0:0:
456,33,9707,5,2,0:0:0:0:
456,33,9906,2,0,P|440:84|443:140,1,105.000004005432,2|8,0:0|0:0,0:0:0:0:
274,355,10701,2,0,P|275:302|259:252,1,105.000004005432,0|8,0:0|0:0,0:0:0:0:
211,204,11297,2,0,P|192:193|110:185,1,105.000004005432,0|0,0:0|0:0,0:0:0:0:
55,225,11893,1,8,0:0:0:0:
110,184,12091,2,0,P|124:119|96:28,1,157.500006008148,0|8,0:0|0:0,0:0:0:0:
0,58,12886,1,2,0:0:0:0:
0,58,13085,6,0,P|47:98|98:116,1,105.000004005432,2|8,0:0|0:0,0:0:0:0:
155,109,13681,1,0,0:0:0:0:
202,60,13879,2,0,P|249:20|300:2,1,105.000004005432,0|8,0:0|0:0,0:0:0:0:
353,27,14475,1,0,0:0:0:0:
403,73,14674,2,0,P|450:113|501:131,1,105.000004005432,0|8,0:0|0:0,0:0:0:0:
500,196,15270,2,0,P|430:203|362:274,1,157.500006008148,0|8,0:0|0:0,0:0:0:0:
6,332,16264,6,0,B|67:343|67:343|131:283,2,125.999996154785,4|8|4,0:0|0:0|0:3,0:0:0:0:
44,260,17257,1,0,0:0:0:0:
122,284,17456,1,8,0:0:0:0:
248,177,17853,1,4,0:3:0:0:
281,244,18052,1,0,0:0:0:0:
254,314,18250,1,8,0:0:0:0:
512,304,18648,1,4,0:3:0:0:
452,350,18846,1,4,0:3:0:0:
383,317,19045,6,0,B|380:261|380:261|385:251|385:251|381:171,1,125.999996154785,8|4,0:0|2:0,0:0:0:0:
310,166,19641,1,0,0:0:0:0:
310,166,19840,2,0,B|313:222|313:222|308:232|308:232|312:312,1,125.999996154785,8|4,0:0|0:3,0:0:0:0:
0,304,20634,1,8,0:0:0:0:
60,350,20833,1,0,0:0:0:0:
129,317,21032,2,0,B|132:261|132:261|127:251|127:251|131:171,1,125.999996154785,4|8,0:3|0:0,0:0:0:0:
202,166,21628,1,8,0:0:0:0:
202,166,21826,2,0,B|199:222|199:222|204:232|204:232|200:312,1,125.999996154785,4|8,0:3|0:0,0:0:0:0:
506,52,22621,6,0,B|445:41|445:41|381:101,2,125.999996154785,4|8|4,0:2|0:0|0:3,0:0:0:0:
468,124,23615,1,0,0:0:0:0:
390,100,23813,1,8,0:0:0:0:
264,207,24211,1,4,0:3:0:0:
231,140,24409,1,4,0:3:0:0:
258,70,24608,1,8,0:0:0:0:
0,80,25005,1,4,0:3:0:0:
60,34,25204,1,0,0:0:0:0:
129,67,25403,2,0,L|133:135,1,62.9999980773926,8|8,0:0|0:0,0:0:0:0:
63,223,25800,6,0,L|-13:238,1,62.9999980773926,4|0,0:3|0:0,0:0:0:0:
0,310,26197,2,0,L|61:297,1,62.9999980773926,8|0,0:0|0:0,0:0:0:0:
168,244,26595,6,0,L|244:259,1,62.9999980773926,4|0,0:3|0:0,0:0:0:0:
212,329,26992,2,0,L|273:341,1,62.9999980773926,8|0,0:0|0:0,0:0:0:0:
385,296,27389,6,0,L|446:283,1,62.9999980773926,8|8,0:0|0:0,0:0:0:0:
445,358,27787,2,0,L|383:370,1,62.9999980773926,8|8,0:0|0:0,0:0:0:0:
488,68,28383,6,0,L|482:170,1,87.5,2|0,2:0|2:0,0:0:0:0:
469,168,28979,6,0,P|456:100|384:69,1,140,4|8,0:0|0:0,0:0:0:0:
61,131,29773,1,4,0:3:0:0:
137,136,29972,1,4,0:3:0:0:
200,92,30171,1,8,0:0:0:0:
201,15,30369,2,0,P|214:83|286:114,1,140,4|4,0:3|0:3,0:0:0:0:
347,132,30966,2,0,P|318:138|278:241,1,140,8|4,0:0|0:3,0:0:0:0:
160,238,31562,2,2,P|259:251|275:357,1,210,2|4,0:0|0:3,0:0:0:0:
280,346,32555,5,8,0:0:0:0:
246,276,32754,1,0,0:0:0:0:
308,232,32952,2,0,P|321:189|315:150,2,70,4|4|8,0:3|0:3|0:0,0:0:0:0:
246,276,33548,2,2,P|183:282|96:173,1,210,2|8,0:0|0:0,0:0:0:0:
388,6,34542,1,4,0:3:0:0:
372,81,34740,1,8,0:3:0:0:
302,114,34939,1,8,0:0:0:0:
227,95,35138,6,0,P|183:69|85:95,1,140,4|4,0:2|0:3,0:0:0:0:
39,133,35734,1,8,0:0:0:0:
98,83,35932,2,0,P|223:157|211:235,1,210,4|8,0:3|0:0,0:0:0:0:
214,310,36727,6,0,P|225:257|316:225,1,140,4|4,0:2|0:3,0:0:0:0:
373,230,37323,1,8,0:0:0:0:
297,221,37522,2,0,P|308:290|445:325,1,210,4|8,0:3|0:0,0:0:0:0:
501,69,38515,6,0,L|424:96,1,70,4|0,0:3|0:0,0:0:0:0:
383,34,38913,2,0,L|316:10,1,70,8|0,0:0|0:0,0:0:0:0:
294,159,39310,6,0,L|217:186,1,70,4|0,0:3|0:0,0:0:0:0:
193,251,39707,2,0,L|126:227,1,70,8|0,0:0|0:0,0:0:0:0:
10,104,40105,6,0,B|75:132|75:132|155:80,2,140,4|8|0,0:2|0:0|0:0,0:0:0:0:
70,49,41098,1,8,0:3:0:0:
147,86,41297,2,0,L|155:164,1,70,8|8,0:0|0:0,0:0:0:0:
43,216,41694,6,0,P|56:284|128:315,1,140,4|8,0:0|0:0,0:0:0:0:
451,253,42489,1,4,0:3:0:0:
375,248,42687,1,4,0:3:0:0:
312,292,42886,1,8,0:0:0:0:
311,369,43085,2,0,P|298:301|226:270,1,140,4|4,0:3|0:3,0:0:0:0:
165,252,43681,2,0,P|194:246|234:143,1,140,8|4,0:0|0:3,0:0:0:0:
352,146,44277,2,2,P|253:133|237:27,1,210,2|0,0:0|0:0,0:0:0:0:
232,38,45270,5,8,0:0:0:0:
266,108,45469,1,0,0:0:0:0:
204,152,45668,2,0,P|191:195|197:234,2,70,4|4|8,0:3|0:3|0:0,0:0:0:0:
266,108,46264,2,2,P|329:102|416:211,1,210,2|8,0:0|0:0,0:0:0:0:
124,378,47257,1,4,0:3:0:0:
140,303,47456,1,8,0:3:0:0:
210,270,47654,1,8,0:0:0:0:
285,289,47853,6,0,P|329:315|427:289,1,140,4|4,0:0|0:3,0:0:0:0:
473,251,48449,1,8,0:0:0:0:
414,301,48648,2,0,P|289:227|301:149,1,210,4|4,0:3|0:3,0:0:0:0:
298,74,49442,6,0,P|287:127|196:159,1,140,4|4,0:0|0:3,0:0:0:0:
139,154,50038,1,8,0:0:0:0:
215,163,50237,2,0,P|204:94|67:59,1,210,4|8,0:3|0:0,0:0:0:0:
11,315,51230,6,0,L|88:288,1,70,4|0,0:3|0:0,0:0:0:0:
129,350,51628,2,0,L|195:373,1,70,8|0,0:0|0:0,0:0:0:0:
218,225,52025,6,0,L|295:198,1,70,4|0,0:3|0:0,0:0:0:0:
319,133,52422,2,0,L|385:156,1,70,8|0,0:0|0:0,0:0:0:0:
491,282,52820,5,8,0:0:0:0:
414,269,53019,1,8,0:0:0:0:
354,317,53217,1,8,0:0:0:0:
277,304,53416,1,8,0:0:0:0:
27,45,54409,5,4,0:0:0:0:
27,45,54807,2,0,L|91:34,1,52.5000020027161,2|0,0:3|0:0,0:0:0:0:
77,104,55204,2,0,L|141:93,1,52.5000020027161,0|0,0:0|0:0,0:0:0:0:
209,135,55601,2,0,L|273:146,1,52.5000020027161,2|2,0:3|0:3,0:0:0:0:
259,76,55999,2,0,L|323:87,1,52.5000020027161,0|0,0:0|0:0,0:0:0:0:
392,47,56396,2,0,L|456:36,1,52.5000020027161,2|0,0:3|0:0,0:0:0:0:
442,106,56793,2,0,L|506:95,2,52.5000020027161,0|0|2,0:3|0:3|0:3,0:0:0:0:
365,157,57389,6,0,P|334:194|399:282,1,157.500006008148,4|2,0:2|0:3,0:0:0:0:
105,384,58383,1,0,0:0:0:0:
153,335,58581,2,0,P|165:285|141:239,1,105.000004005432,0|0,0:0|0:0,0:0:0:0:
79,201,59177,5,0,0:0:0:0:
29,147,59376,2,0,P|16:97|40:51,1,105.000004005432,0|0,0:0|0:0,0:0:0:0:
101,20,59972,1,0,0:0:0:0:
348,28,60369,1,2,0:3:0:0:
101,20,60767,5,4,0:2:0:0:
348,28,61164,2,0,L|362:93,1,52.5000020027161,2|0,0:3|0:0,0:0:0:0:
305,121,61562,2,0,L|319:186,1,52.5000020027161,0|0,0:0|0:0,0:0:0:0:
410,200,61959,2,0,L|396:265,1,52.5000020027161,2|2,0:3|0:3,0:0:0:0:
453,293,62356,2,0,L|439:358,1,52.5000020027161,0|0,0:0|0:0,0:0:0:0:
346,375,62754,2,0,L|220:367,1,105.000004005432,2|0,0:3|0:0,0:0:0:0:
197,316,63350,2,0,L|92:322,1,105.000004005432,0|0,0:0|0:0,0:0:0:0:
25,350,63946,5,4,0:3:0:0:
109,218,64343,1,4,0:3:0:0:
265,206,64740,1,4,0:3:0:0:
349,74,65138,1,4,0:3:0:0:
505,65,65535,1,4,0:3:0:0:
409,175,65932,1,4,0:3:0:0:
265,206,66330,2,0,L|225:217,7,31.4999990386963,0|0|0|0|0|0|0|0,0:0|0:0|0:0|0:0|0:0|0:0|0:0|0:0,0:0:0:0:
280,211,67124,6,0,P|267:143|179:122,2,154.000004699707,4|8|4,0:0|0:0|0:3,0:0:0:0:
237,284,68118,1,4,0:3:0:0:
276,359,68317,1,8,0:0:0:0:
359,373,68515,2,0,P|426:356|449:268,1,154.000004699707,4|4,0:3|0:3,0:0:0:0:
466,198,69111,2,0,P|428:127|347:118,1,154.000004699707,8|4,0:0|0:3,0:0:0:0:
264,55,69707,2,2,B|130:20|175:106|22:72,1,231.000007049561,2|0,0:0|0:0,0:0:0:0:
40,75,70701,5,8,0:0:0:0:
119,104,70899,1,0,0:0:0:0:
108,187,71098,2,0,P|95:230|107:277,2,77.0000023498536,4|4|8,0:3|0:3|0:0,0:0:0:0:
187,156,71694,2,2,P|253:179|279:335,1,231.000007049561,2|8,0:0|0:0,0:0:0:0:
492,27,72687,1,4,0:3:0:0:
449,100,72886,1,8,0:3:0:0:
364,105,73085,1,8,0:0:0:0:
292,59,73283,6,0,P|232:44|154:102,1,154.000004699707,4|0,0:0|0:0,0:0:0:0:
107,159,73879,1,8,0:0:0:0:
39,210,74078,2,0,P|25:274|165:371,1,231.000007049561,4|4,0:3|0:3,0:0:0:0:
242,335,74873,6,0,P|302:350|387:280,1,167.999994873047,4|4,0:0|0:3,0:0:0:0:
421,207,75469,1,8,0:0:0:0:
502,162,75668,2,0,P|516:98|436:19,1,167.999994873047,4|4,0:3|0:3,0:0:0:0:
362,16,76264,1,8,0:0:0:0:
221,169,76661,6,0,L|198:90,1,77.0000023498536,4|0,0:3|0:0,0:0:0:0:
115,83,77058,2,0,L|136:156,1,77.0000023498536,8|0,0:0|0:0,0:0:0:0:
47,254,77456,6,0,L|128:237,1,77.0000023498536,4|0,0:3|0:0,0:0:0:0:
115,322,77853,2,0,L|190:306,1,77.0000023498536,8|0,0:0|0:0,0:0:0:0:
297,364,78250,5,8,0:0:0:0:
366,315,78449,1,8,0:0:0:0:
377,231,78648,1,8,0:0:0:0:
447,183,78846,1,8,0:0:0:0:
0,46,79840,6,0,L|70:69,1,70,4|4,0:2|0:3,0:0:0:0:
78,144,80237,2,0,L|148:121,1,70,4|4,0:3|0:3,0:0:0:0:
181,35,80634,2,0,L|251:58,1,70,4|4,0:2|0:3,0:0:0:0:
259,133,81032,2,0,L|329:110,1,70,4|4,0:3|0:3,0:0:0:0:
368,25,81429,2,0,L|438:48,1,70,4|4,0:2|0:3,0:0:0:0:
446,123,81826,2,0,L|516:100,1,70,4|4,0:3|0:3,0:0:0:0:
510,224,82224,6,0,L|440:201,1,70,4|4,0:2|0:3,0:0:0:0:
379,244,82621,2,0,L|376:317,1,70,4|4,0:3|0:3,0:0:0:0:
287,368,83019,6,0,P|255:366|195:328,1,77.0000023498536,4|4,0:2|0:3,0:0:0:0:
130,358,83416,2,0,P|115:329|118:258,1,77.0000023498536,4|4,0:3|0:3,0:0:0:0:
205,233,83813,2,0,P|226:208|241:139,1,77.0000023498536,4|4,0:2|0:3,0:0:0:0:
308,114,84211,2,0,P|297:83|245:35,1,77.0000023498536,4|4,0:3|0:3,0:0:0:0:
159,24,84608,6,0,P|120:35|73:80,1,83.9999974365235,4|4,0:2|0:3,0:0:0:0:
52,147,85005,2,0,P|67:108|96:78,1,83.9999974365235,4|4,0:3|0:3,0:0:0:0:
182,43,85403,1,4,0:2:0:0:
274,44,85601,1,4,0:2:0:0:
356,85,85800,1,4,0:2:0:0:
448,86,85999,1,4,0:2:0:0:
509,17,86197,5,4,0:0:0:0:
256,192,86297,12,0,93350,2:0:0:0:
