osu file format v14

[General]
AudioFilename: audio.mp3
AudioLeadIn: 0
PreviewTime: 43553
Countdown: 0
SampleSet: Soft
StackLeniency: 0.4
Mode: 0
LetterboxInBreaks: 0
WidescreenStoryboard: 1

[Editor]
Bookmarks: 51173,81812,86599
DistanceSpacing: 1
BeatDivisor: 4
GridSize: 4
TimelineZoom: 2

[Metadata]
Title:Shadow is the Light (TV Size)
TitleUnicode:Shadow is the Light (TV Size)
Artist:THE SIXTH LIE
ArtistUnicode:THE SIXTH LIE
Creator:AirinCat
Version:Normal
Source:とある科学の一方通行
Tags:a_r_m_i_n armin kowari anime japanese rock アクセラレータ A Certain Scientific Accelerator ray reiji tsuyoshi sato To Aru Majutsu no Index Gaiden toaru Kagaku Ippou Tsuukou
BeatmapID:2272862
BeatmapSetID:1086898

[Difficulty]
HPDrainRate:3
CircleSize:3.4
OverallDifficulty:4
ApproachRate:5.2
SliderMultiplier:1
SliderTickRate:1

[Events]
//Background and Video events
0,0,"edgy.jpg",0,0
Video,-98,"accelerator.mp4"
//Break Periods
//Storyboard Layer 0 (Background)
//Storyboard Layer 1 (Fail)
//Storyboard Layer 2 (Pass)
//Storyboard Layer 3 (Foreground)
//Storyboard Layer 4 (Overlay)
//Storyboard Sound Samples

[TimingPoints]
2862,319.148936170213,4,2,1,60,1,0
2862,-149.253731343283,4,2,1,60,0,0
7968,-125,4,2,1,64,0,0
9244,-125,4,2,1,68,0,0
9564,-125,4,2,1,72,0,0
9883,-125,4,2,1,76,0,0
10202,-125,4,2,1,80,0,0
10521,-111.111111111111,4,2,1,80,0,0
13074,-100,4,2,1,80,0,0
13393,-100,4,2,1,80,0,0
23287,-111.111111111111,4,2,1,58,0,0
30947,-100,4,2,1,70,0,0
32702,-100,4,2,1,74,0,0
33500,-111.111111111111,4,2,1,58,0,0
41159,-83.3333333333333,4,2,1,80,0,0
41239,-83.3333333333333,4,2,1,40,0,0
43633,-83.3333333333333,4,2,1,5,0,0
43713,-149.253731343284,4,2,24,44,0,0
44351,-149.253731343284,4,2,1,46,0,0
44989,-149.253731343284,4,2,1,48,0,0
45627,-149.253731343284,4,2,1,52,0,0
46106,-149.253731343284,4,2,1,54,0,0
46266,-142.857142857143,4,2,1,56,0,0
46904,-142.857142857143,4,2,1,60,0,0
47542,-142.857142857143,4,2,1,64,0,0
48181,-142.857142857143,4,2,1,68,0,0
48819,-125,4,2,1,72,0,0
49138,-125,4,2,1,76,0,0
49457,-125,4,2,1,80,0,0
49776,-125,4,2,1,84,0,0
49936,-125,4,2,1,88,0,0
52968,-133.333333333333,4,2,1,50,0,0
53287,-153.846153846153,4,2,1,50,0,0
53925,-95.2380952380952,4,2,1,86,0,1
63181,-95.2380952380952,4,2,1,86,0,0
64138,-95.2380952380952,4,2,1,86,0,1
71798,-95.2380952380952,4,2,1,82,0,1
74351,-100,4,2,1,80,0,0
83925,-100,4,2,1,60,0,0
84564,-100,4,2,1,80,0,0
84643,-100,4,2,1,50,0,0
85202,-100,4,2,1,45,0,0
85840,-100,4,2,1,40,0,0
86479,-100,4,2,1,35,0,0
87117,-100,4,2,1,30,0,0
87755,-100,4,2,1,25,0,0
88393,-100,4,2,1,20,0,0
88713,-100,4,2,1,15,0,0
89032,-100,4,2,1,10,0,0
89351,-100,4,2,1,5,0,0

[Colours]
Combo1 : 180,186,239
Combo2 : 233,131,149
Combo3 : 205,164,238
Combo4 : 153,149,166

[HitObjects]
129,279,2862,6,0,L|-6:297,2,133.999993661499,4|0|0,1:2|1:0|1:0,0:0:0:0:
247,341,4776,1,0,1:0:0:0:
364,276,5415,6,0,L|502:297,2,133.999993661499,0|0|0,1:0|1:0|1:0,0:0:0:0:
247,341,7330,1,0,1:0:0:0:
117,246,7968,5,12,1:2:0:0:
55,296,8287,1,0,1:0:0:0:
0,237,8606,2,0,L|10:157,1,80,0|0,1:0|1:0,0:0:0:0:
61,96,9244,1,0,1:0:0:0:
125,144,9564,1,0,1:0:0:0:
204,137,9883,1,0,1:0:0:0:
241,66,10202,1,0,1:0:0:0:
318,90,10521,6,0,P|359:79|455:172,2,179.999994506836,0|0|0,1:0|1:0|0:0,0:0:0:0:
36,327,13074,6,0,B|6:285|6:285|22:239,1,100,4|10,1:1|0:2,0:0:0:0:
75,153,13713,2,0,L|132:147,1,50,2|0,0:0|1:0,0:0:0:0:
174,171,14032,1,8,0:2:0:0:
174,171,14191,2,0,L|282:159,1,100,2|0,1:2|1:0,0:0:0:0:
321,175,14670,2,0,L|329:231,1,50,8|2,0:0|0:0,0:0:0:0:
275,308,15149,2,0,L|224:313,2,50,2|10|2,1:2|1:2|0:0,0:0:0:0:
308,345,15627,5,6,1:2:0:0:
408,337,15947,1,10,0:2:0:0:
445,244,16266,2,0,L|439:187,1,50,2|0,0:0|1:0,0:0:0:0:
470,156,16585,1,8,0:2:0:0:
470,156,16744,2,0,L|456:51,1,100,2|0,1:2|1:0,0:0:0:0:
416,26,17223,2,0,L|359:31,1,50,8|2,0:0|1:2,0:0:0:0:
290,92,17702,2,0,L|297:149,2,50,2|10|8,1:2|0:2|0:0,0:0:0:0:
243,73,18181,5,6,1:2:0:0:
156,23,18500,1,10,0:2:0:0:
65,66,18819,2,0,L|69:122,1,50,2|0,0:0|1:2,0:0:0:0:
33,151,19138,1,8,0:2:0:0:
33,151,19298,2,0,L|38:258,1,100,2|0,1:2|1:0,0:0:0:0:
39,300,19776,1,8,0:0:0:0:
111,368,20096,2,0,L|170:361,1,50,0|2,1:0|1:2,0:0:0:0:
191,322,20415,2,0,L|250:315,1,50,10|2,0:0|0:0,0:0:0:0:
290,310,20734,5,6,1:2:0:0:
337,222,21053,1,10,0:2:0:0:
250,172,21372,2,0,L|182:177,1,50,2|0,0:0|1:0,0:0:0:0:
154,182,21691,1,8,0:2:0:0:
154,182,21851,2,0,L|144:64,1,100,2|0,1:2|1:0,0:0:0:0:
143,32,22330,1,8,0:0:0:0:
242,25,22649,2,0,L|304:21,1,50,8|10,0:0|0:0,0:0:0:0:
330,53,22968,2,0,L|385:47,1,50,8|2,1:3|1:2,0:0:0:0:
412,78,23287,5,4,1:2:0:0:
417,168,23606,1,10,0:0:0:0:
343,220,23925,2,0,L|350:324,1,89.9999972534181,2|10,0:0|0:0,0:0:0:0:
272,357,24564,2,0,P|230:371|189:355,1,89.9999972534181,2|8,0:0|0:0,0:0:0:0:
155,325,25042,2,0,L|59:333,1,89.9999972534181,2|2,0:0|1:2,0:0:0:0:
20,337,25521,1,8,0:0:0:0:
30,249,25840,5,2,1:3:0:0:
5,162,26159,1,10,0:0:0:0:
85,120,26479,2,0,L|181:134,1,89.9999972534181,2|10,0:0|0:0,0:0:0:0:
242,191,27117,2,0,P|265:153|258:109,1,89.9999972534181,2|10,0:0|0:0,0:0:0:0:
291,79,27596,2,0,L|387:90,1,89.9999972534181,2|2,0:0|1:2,0:0:0:0:
423,75,28074,2,0,L|427:19,2,44.999998626709,10|0|4,3:2|1:0|1:2,0:0:0:0:
493,131,28713,5,10,0:0:0:0:
490,220,29032,1,2,0:0:0:0:
408,259,29351,1,10,0:0:0:0:
332,210,29670,2,0,L|275:218,1,44.999998626709,2|2,0:0|1:2,0:0:0:0:
206,255,30149,2,0,L|195:165,1,89.9999972534181,2|2,0:0|1:2,0:0:0:0:
189,121,30627,1,8,0:0:0:0:
91,96,30947,6,0,L|29:103,1,50,6|2,1:2|1:2,0:0:0:0:
7,138,31266,1,10,0:2:0:0:
7,138,31425,2,0,L|22:240,1,100,2|2,0:0|1:2,0:0:0:0:
31,285,31904,1,8,0:0:0:0:
127,258,32223,2,0,L|117:193,2,50,2|2|10,1:2|1:2|1:2,0:0:0:0:
165,289,32702,1,2,1:1:0:0:
250,237,33021,2,0,B|295:216|295:216|341:235,1,100,2|8,1:0|0:2,0:0:0:0:
380,257,33500,5,4,1:2:0:0:
450,201,33819,1,10,0:0:0:0:
403,123,34138,2,0,L|415:32,1,89.9999972534181,2|10,0:0|0:0,0:0:0:0:
327,53,34776,2,0,L|231:41,1,89.9999972534181,2|10,0:0|0:0,0:0:0:0:
194,28,35255,2,0,L|181:122,1,89.9999972534181,2|2,0:0|1:2,0:0:0:0:
209,152,35734,1,8,0:0:0:0:
161,228,36053,5,2,1:3:0:0:
81,185,36372,1,10,0:0:0:0:
14,245,36691,2,0,L|32:350,1,89.9999972534181,2|10,0:0|0:0,0:0:0:0:
112,368,37330,2,0,L|166:359,1,44.999998626709,2|2,0:0|1:2,0:0:0:0:
235,310,37808,2,0,P|220:269|230:226,1,89.9999972534181,2|2,0:0|1:2,0:0:0:0:
262,195,38287,1,8,0:0:0:0:
349,216,38606,5,2,1:3:0:0:
423,165,38925,2,0,P|423:112|424:68,1,89.9999972534181,10|2,0:0|0:0,0:0:0:0:
343,33,39564,1,10,0:0:0:0:
257,60,39883,2,0,L|201:53,1,44.999998626709,2|2,0:0|1:2,0:0:0:0:
171,66,40202,1,8,0:0:0:0:
171,66,40362,2,0,L|180:161,1,89.9999972534181,2|0,0:0|1:0,0:0:0:0:
127,229,41000,1,8,1:3:0:0:
127,229,41159,5,4,1:2:0:0:
158,336,43713,6,0,L|28:300,2,133.999993661499,4|0|0,1:0|1:0|1:0,0:0:0:0:
253,241,45627,1,0,1:0:0:0:
357,334,46266,6,0,L|506:299,2,139.999995727539,0|0|0,1:0|1:0|1:0,0:0:0:0:
253,241,48181,1,0,1:0:0:0:
134,347,48819,6,0,L|53:335,1,80,0|0,1:0|1:0,0:0:0:0:
9,269,49457,2,0,L|22:186,1,80,0|0,1:0|1:0,0:0:0:0:
57,169,49936,1,2,0:0:0:0:
57,169,50096,2,0,L|147:177,2,80,0|2|2,1:0|1:2|1:2,0:0:0:0:
24,95,51053,1,2,1:2:0:0:
256,192,51372,12,0,52649,0:0:0:0:
227,33,53925,6,0,B|179:15|179:15|130:40,1,104.999996795654,4|8,1:0|0:2,0:0:0:0:
49,106,54564,2,0,L|62:165,1,52.4999983978272,0|0,1:0|1:0,0:0:0:0:
39,207,54883,1,8,0:2:0:0:
39,207,55042,2,0,L|61:313,1,104.999996795654,2|0,1:2|1:0,0:0:0:0:
78,359,55521,1,10,0:2:0:0:
181,377,55840,1,2,1:2:0:0:
278,333,56159,5,8,0:0:0:0:
278,333,56319,2,0,L|386:341,1,104.999996795654,6|0,1:2|1:0,0:0:0:0:
435,339,56798,2,0,P|465:296|451:239,1,104.999996795654,10|0,0:2|1:0,0:0:0:0:
393,169,57436,1,8,0:2:0:0:
393,169,57596,2,0,L|401:62,1,104.999996795654,2|0,1:2|1:0,0:0:0:0:
401,11,58074,1,8,0:2:0:0:
299,37,58393,2,0,L|228:32,1,52.4999983978272,2|2,1:2|1:2,0:0:0:0:
146,20,58872,5,2,1:2:0:0:
146,20,59032,2,0,L|142:134,1,104.999996795654,6|10,1:2|0:2,0:0:0:0:
222,192,59670,2,0,L|275:194,1,52.4999983978272,2|2,1:2|1:2,0:0:0:0:
330,201,59989,1,8,0:0:0:0:
330,201,60149,2,0,P|350:248|336:297,1,104.999996795654,2|0,1:2|1:0,0:0:0:0:
309,342,60627,1,10,0:2:0:0:
205,321,60947,2,0,L|150:318,1,52.4999983978272,2|0,1:2|1:2,0:0:0:0:
59,362,61425,5,2,1:2:0:0:
59,362,61585,2,0,P|18:329|15:275,1,104.999996795654,4|10,1:2|0:2,0:0:0:0:
64,187,62223,2,0,L|59:129,1,52.4999983978272,2|2,1:2|1:2,0:0:0:0:
37,92,62542,1,8,0:0:0:0:
37,92,62702,2,0,L|147:79,1,104.999996795654,2|0,1:2|1:0,0:0:0:0:
193,73,63181,5,8,1:2:0:0:
297,60,63500,1,8,1:2:0:0:
305,164,63819,2,0,L|243:172,1,52.4999983978272,8|8,0:0|0:0,0:0:0:0:
204,194,64138,6,0,B|183:242|183:242|207:288,1,104.999996795654,4|8,1:0|0:2,0:0:0:0:
302,332,64776,2,0,L|358:323,1,52.4999983978272,0|0,1:0|1:0,0:0:0:0:
410,333,65096,1,8,0:2:0:0:
410,333,65255,2,0,L|388:219,1,104.999996795654,2|0,1:2|1:0,0:0:0:0:
427,193,65734,1,10,0:2:0:0:
484,105,66053,1,2,1:2:0:0:
407,42,66372,5,8,0:0:0:0:
407,42,66532,2,0,L|289:60,1,104.999996795654,6|0,1:2|1:0,0:0:0:0:
255,36,67010,2,0,B|258:83|258:83|263:90|263:90|268:157,1,104.999996795654,10|0,0:2|1:0,0:0:0:0:
323,234,67649,1,8,0:2:0:0:
323,234,67808,2,0,L|314:353,1,104.999996795654,2|0,1:2|1:0,0:0:0:0:
272,370,68287,1,8,0:2:0:0:
186,309,68606,2,0,L|192:245,1,52.4999983978272,2|2,1:2|1:2,0:0:0:0:
256,175,69085,5,0,1:0:0:0:
256,175,69244,2,0,L|264:63,1,104.999996795654,6|10,1:2|0:2,0:0:0:0:
168,24,69883,2,0,L|110:21,1,52.4999983978272,2|2,1:2|1:2,0:0:0:0:
67,29,70202,1,8,0:2:0:0:
67,29,70362,2,0,P|38:72|54:122,1,104.999996795654,2|0,1:2|1:0,0:0:0:0:
92,155,70840,1,10,0:2:0:0:
37,244,71159,2,0,L|42:303,1,52.4999983978272,2|2,1:2|1:2,0:0:0:0:
126,367,71638,5,2,1:2:0:0:
126,367,71798,2,0,L|235:358,1,104.999996795654,6|10,1:2|1:2,0:0:0:0:
310,289,72436,2,0,L|300:228,1,52.4999983978272,2|8,1:2|1:2,0:0:0:0:
346,142,72915,2,0,B|390:111|390:111|454:136,1,104.999996795654,6|0,1:2|1:3,0:0:0:0:
476,165,73393,1,10,1:2:0:0:
473,270,73713,1,10,1:2:0:0:
476,374,74032,1,10,1:2:0:0:
378,351,74351,6,0,L|265:359,1,100,4|10,1:1|0:0,0:0:0:0:
236,341,74830,1,2,0:0:0:0:
236,341,74989,2,0,L|225:231,1,100,2|8,0:0|0:0,0:0:0:0:
217,192,75468,1,2,1:2:0:0:
132,139,75787,1,2,1:2:0:0:
53,199,76106,2,0,L|59:258,1,50,2|2,0:0|0:0,0:0:0:0:
33,346,76585,6,0,L|149:330,1,100,8|4,0:0|1:2,0:0:0:0:
226,364,77223,1,10,0:0:0:0:
300,296,77542,2,0,L|286:187,1,100,2|8,0:0|0:0,0:0:0:0:
305,150,78021,1,2,1:2:0:0:
393,103,78340,1,2,1:2:0:0:
473,161,78659,2,0,L|477:217,1,50,2|2,1:2|1:2,0:0:0:0:
420,294,79138,2,0,L|361:303,1,50,8|8,0:0|0:0,0:0:0:0:
322,286,79457,6,0,P|270:270|225:289,1,100,4|10,1:2|0:0,0:0:0:0:
188,312,79936,1,2,0:0:0:0:
188,312,80096,2,0,L|178:207,1,100,2|8,0:0|0:0,0:0:0:0:
167,163,80574,1,2,1:2:0:0:
92,96,80893,1,2,1:2:0:0:
152,16,81213,2,0,L|212:13,1,50,2|2,0:0|1:2,0:0:0:0:
283,70,81691,1,10,0:0:0:0:
218,146,82010,6,0,B|198:191|198:191|225:247,1,100,4|10,1:2|0:0,0:0:0:0:
265,268,82489,1,2,0:0:0:0:
265,268,82649,2,0,L|372:254,1,100,2|8,0:0|0:0,0:0:0:0:
407,280,83127,1,2,1:2:0:0:
482,213,83447,1,2,1:2:0:0:
437,129,83766,1,2,1:2:0:0:
437,129,83925,2,0,L|331:142,1,100,2|2,0:0|0:0,0:0:0:0:
239,159,84564,5,4,1:0:0:0:
256,192,84723,12,0,89351,0:0:0:0:
