osu file format v14

[General]
AudioFilename: audio.mp3
AudioLeadIn: 0
PreviewTime: 43553
Countdown: 0
SampleSet: Soft
StackLeniency: 0.5
Mode: 0
LetterboxInBreaks: 0
WidescreenStoryboard: 1

[Editor]
Bookmarks: 51173,81812,86599
DistanceSpacing: 0.6
BeatDivisor: 4
GridSize: 4
TimelineZoom: 2

[Metadata]
Title:Shadow is the Light (TV Size)
TitleUnicode:Shadow is the Light (TV Size)
Artist:THE SIXTH LIE
ArtistUnicode:THE SIXTH LIE
Creator:AirinCat
Version:Insane
Source:とある科学の一方通行
Tags:a_r_m_i_n armin kowari anime japanese rock アクセラレータ A Certain Scientific Accelerator ray reiji tsuyoshi sato To Aru Majutsu no Index Gaiden toaru Kagaku Ippou Tsuukou
BeatmapID:2273602
BeatmapSetID:1086898

[Difficulty]
HPDrainRate:5.2
CircleSize:3.8
OverallDifficulty:8
ApproachRate:9
SliderMultiplier:1.6
SliderTickRate:1

[Events]
//Background and Video events
0,0,"edgy.jpg",0,0
Video,-98,"accelerator.mp4"
//Break Periods
//Storyboard Layer 0 (Background)
//Storyboard Layer 1 (Fail)
//Storyboard Layer 2 (Pass)
//Storyboard Layer 3 (Foreground)
//Storyboard Layer 4 (Overlay)
//Storyboard Sound Samples

[TimingPoints]
2862,319.148936170213,4,2,1,60,1,0
2862,-333.333333333333,4,2,1,60,0,0
7968,-250.000000000001,4,2,1,64,0,0
9244,-125,4,2,1,68,0,0
9284,-125,4,2,1,38,0,0
9564,-99.9999999999999,4,2,1,72,0,0
9604,-99.9999999999999,4,2,1,42,0,0
9883,-76.9230769230769,4,2,1,76,0,0
9923,-76.9230769230769,4,2,1,46,0,0
10202,-62.5,4,2,1,80,0,0
10242,-62.5,4,2,1,50,0,0
10521,-100,4,2,1,80,0,0
13074,-83.3333333333333,4,2,1,80,0,0
13393,-90.9090909090909,4,2,1,80,0,0
23287,-111.111111111111,4,2,1,58,0,0
30947,-99.9999999999999,4,2,1,70,0,0
32702,-83.3333333333334,4,2,1,74,0,0
33500,-111.111111111111,4,2,1,58,0,0
41159,-83.3333333333333,4,2,1,80,0,0
41239,-83.3333333333333,4,2,1,40,0,0
43633,-83.3333333333333,4,2,1,5,0,0
43713,-333.333333333333,4,2,24,44,0,0
44351,-333.333333333333,4,2,1,46,0,0
44989,-333.333333333333,4,2,1,48,0,0
45627,-333.333333333333,4,2,1,52,0,0
46106,-333.333333333333,4,2,1,54,0,0
46266,-285.714285714286,4,2,1,56,0,0
46904,-285.714285714286,4,2,1,60,0,0
47542,-285.714285714286,4,2,1,64,0,0
48181,-285.714285714286,4,2,1,68,0,0
48819,-285.714285714286,4,2,1,72,0,0
49138,-285.714285714286,4,2,1,76,0,0
49457,-285.714285714286,4,2,1,80,0,0
49776,-285.714285714286,4,2,1,84,0,0
49936,-285.714285714286,4,2,1,88,0,0
50255,-222.222222222222,4,2,1,88,0,0
50574,-153.846153846154,4,2,1,88,0,0
51053,-117.647058823529,4,2,1,88,0,0
52968,-153.846153846153,4,2,1,50,0,0
53287,-222.222222222221,4,2,1,50,0,0
53925,-76.9230769230769,4,2,1,86,0,1
54564,-83.3333333333333,4,2,1,86,0,1
63181,-83.3333333333333,4,2,1,86,0,0
64138,-76.9230769230769,4,2,1,86,0,1
64776,-83.3333333333333,4,2,1,86,0,1
71798,-86.9565217391304,4,2,1,82,0,1
74351,-100,4,2,1,80,0,0
83925,-100,4,2,1,60,0,0
84564,-100,4,2,1,80,0,0
84643,-100,4,2,1,50,0,0
85202,-100,4,2,1,45,0,0
85840,-100,4,2,1,40,0,0
86479,-100,4,2,1,35,0,0
87117,-100,4,2,1,30,0,0
87755,-100,4,2,1,25,0,0
88393,-100,4,2,1,20,0,0
88713,-100,4,2,1,15,0,0
89032,-100,4,2,1,10,0,0
89351,-100,4,2,1,5,0,0

[Colours]
Combo1 : 180,186,239
Combo2 : 233,131,149
Combo3 : 205,164,238
Combo4 : 153,149,166

[HitObjects]
38,328,2862,6,0,L|19:228,2,95.9999970703126,4|0|0,1:2|1:0|1:0,0:0:0:0:
38,328,4776,1,0,1:0:0:0:
495,301,5415,6,0,L|514:201,2,95.9999970703126,0|0|0,1:0|1:0|1:0,0:0:0:0:
495,301,7329,1,0,1:0:0:0:
256,384,7968,5,12,1:2:0:0:
200,326,8287,1,0,1:0:0:0:
257,271,8606,1,0,1:0:0:0:
312,326,8925,1,0,1:0:0:0:
179,244,9244,6,0,L|174:216,6,16,0|0|0|0|0|0|0,1:0|0:0|0:0|0:0|0:0|0:0|0:0,0:0:0:0:
257,171,9564,6,0,L|250:134,6,20,0|0|0|0|0|0|0,1:0|0:0|0:0|0:0|0:0|0:0|0:0,0:0:0:0:
152,125,9883,6,0,L|145:88,6,25.9999988098145,0|0|0|0|0|0|0,1:0|0:0|0:0|0:0|0:0|0:0|0:0,0:0:0:0:
228,31,10202,6,0,L|221:-5,6,32,0|0|0|0|0|0|0,1:0|0:0|0:0|0:0|0:0|0:0|0:0,0:0:0:0:
314,75,10521,6,0,L|392:60,1,80,0|0,1:0|1:0,0:0:0:0:
486,150,10840,1,0,1:0:0:0:
330,245,11000,1,0,1:0:0:0:
480,339,11159,1,0,1:0:0:0:
478,315,11239,1,0,1:0:0:0:
474,291,11319,1,0,1:0:0:0:
471,267,11399,1,0,1:0:0:0:
467,243,11479,2,0,L|416:246,1,40,0|0,1:0|1:0,0:0:0:0:
340,351,11638,2,0,L|403:348,1,40,0|0,1:0|1:0,0:0:0:0:
399,171,13074,6,0,P|333:151|287:201,1,143.999995605469,4|0,1:1|0:0,0:0:0:0:
299,211,13393,2,0,P|316:171|306:129,1,88.000002685547,10|0,0:2|0:0,0:0:0:0:
224,12,13713,1,2,0:0:0:0:
118,146,13872,1,0,1:0:0:0:
50,0,14032,1,8,0:2:0:0:
210,112,14191,6,0,P|198:204|185:287,1,176.000005371094,2|0,1:2|1:0,0:0:0:0:
19,196,14670,1,10,0:2:0:0:
113,355,14830,1,2,0:0:0:0:
125,366,15149,1,2,1:2:0:0:
125,366,15229,1,0,1:0:0:0:
125,366,15308,2,0,L|37:375,1,88.000002685547,10|2,1:2|0:0,0:0:0:0:
206,131,15627,6,0,P|267:143|286:203,1,132.00000402832,6|0,1:2|0:0,0:0:0:0:
272,224,15947,2,0,L|372:212,1,88.000002685547,10|0,0:2|0:0,0:0:0:0:
512,263,16266,1,2,0:0:0:0:
393,330,16425,1,0,1:0:0:0:
448,140,16585,1,8,0:2:0:0:
279,315,16744,6,0,B|216:304|216:304|193:259|193:259|131:244,1,176.000005371094,2|0,1:2|1:0,0:0:0:0:
30,382,17223,1,10,0:2:0:0:
0,206,17383,1,2,1:2:0:0:
18,213,17702,1,2,1:2:0:0:
161,140,17862,1,10,0:2:0:0:
9,30,18021,1,8,0:0:0:0:
6,48,18101,1,8,0:0:0:0:
6,66,18181,6,0,P|62:81|104:23,1,132.00000402832,6|0,1:2|0:0,0:0:0:0:
88,22,18500,2,0,L|78:109,1,88.000002685547,10|0,0:2|0:0,0:0:0:0:
173,239,18819,1,2,0:0:0:0:
327,158,18979,1,0,1:2:0:0:
194,85,19138,1,8,0:2:0:0:
348,258,19298,6,0,B|409:258|435:213|398:198|429:161|477:162,1,176.000005371094,2|0,1:2|1:0,0:0:0:0:
327,158,19776,1,8,0:2:0:0:
324,362,19936,1,2,0:0:0:0:
262,273,20096,1,0,1:0:0:0:
262,273,20175,1,0,1:0:0:0:
262,273,20255,1,2,1:2:0:0:
262,273,20335,1,0,1:0:0:0:
262,273,20415,2,0,L|363:256,1,88.000002685547,10|2,0:2|0:0,0:0:0:0:
95,375,20734,6,0,P|83:309|74:241,1,132.00000402832,6|0,1:2|0:0,0:0:0:0:
86,229,21053,2,0,P|45:237|0:244,1,88.000002685547,10|0,0:2|0:0,0:0:0:0:
119,113,21372,1,2,0:0:0:0:
258,176,21532,1,0,1:0:0:0:
166,304,21691,1,8,0:2:0:0:
212,100,21851,6,0,B|284:82|331:58|331:58|373:108,1,176.000005371094,2|0,1:2|1:0,0:0:0:0:
478,269,22330,1,10,0:2:0:0:
512,72,22489,1,2,1:2:0:0:
465,169,22649,1,8,0:0:0:0:
443,171,22729,1,8,0:0:0:0:
421,175,22808,1,8,1:3:0:0:
399,177,22888,1,8,1:3:0:0:
377,179,22968,2,0,P|380:135|362:95,1,88.000002685547,8|2,1:3|1:2,0:0:0:0:
174,161,23287,6,0,P|244:189|294:128,2,143.999995605469,4|10|2,1:2|0:0|0:0,0:0:0:0:
111,81,24085,1,0,1:2:0:0:
15,149,24244,2,0,P|9:113|2:78,1,71.9999978027344,10|0,0:0|1:0,0:0:0:0:
93,198,24564,6,0,P|80:232|70:286,1,71.9999978027344,2|0,0:0|1:0,0:0:0:0:
159,384,24883,1,8,0:0:0:0:
220,334,25042,2,0,P|161:344|68:358,1,143.999995605469,2|2,0:0|1:2,0:0:0:0:
222,238,25521,1,8,0:0:0:0:
319,320,25681,1,2,0:3:0:0:
319,320,25760,1,2,0:3:0:0:
319,320,25840,1,2,1:3:0:0:
415,90,26159,6,0,P|347:99|330:165,1,143.999995605469,10|2,0:0|0:0,0:0:0:0:
426,193,26638,1,0,1:0:0:0:
505,123,26798,2,0,P|509:84|516:41,1,71.9999978027344,10|0,0:0|1:0,0:0:0:0:
426,193,27117,6,0,L|436:266,1,71.9999978027344,2|0,0:0|1:0,0:0:0:0:
314,376,27436,1,10,0:0:0:0:
236,355,27596,2,0,B|292:345|292:345|312:315|312:315|374:306,1,143.999995605469,2|2,0:0|1:2,0:0:0:0:
208,215,28074,1,10,3:2:0:0:
129,357,28234,1,0,1:0:0:0:
0,259,28393,5,6,1:2:0:0:
65,14,28713,6,0,L|82:164,1,143.999995605469,10|2,0:0|0:0,0:0:0:0:
157,215,29191,1,0,1:0:0:0:
71,249,29351,2,0,L|-11:260,1,71.9999978027344,10|0,0:0|1:0,0:0:0:0:
147,380,29670,5,2,0:0:0:0:
147,380,29830,2,0,L|138:295,1,71.9999978027344,2|8,1:2|0:0,0:0:0:0:
241,222,30149,2,0,B|275:207|275:207|307:220,1,71.9999978027344,2|0,0:0|0:0,0:0:0:0:
406,342,30468,1,2,1:2:0:0:
290,331,30627,1,8,0:0:0:0:
290,331,30947,5,6,1:2:0:0:
419,237,31106,1,2,1:2:0:0:
296,141,31266,2,0,L|310:245,1,80,10|0,0:2|0:0,0:0:0:0:
320,235,31505,1,8,0:0:0:0:
320,235,31585,1,2,0:0:0:0:
419,131,31744,2,0,L|406:39,1,80,2|8,1:2|0:0,0:0:0:0:
287,5,32064,1,2,1:2:0:0:
198,161,32223,5,2,1:2:0:0:
48,150,32383,1,2,1:2:0:0:
55,14,32542,1,10,1:2:0:0:
105,235,32702,5,2,1:1:0:0:
105,235,33021,1,2,1:0:0:0:
91,253,33101,1,0,1:0:0:0:
80,269,33181,1,8,1:2:0:0:
159,359,33340,1,8,0:2:0:0:
188,357,33420,1,8,0:2:0:0:
213,355,33500,6,0,P|206:292|277:248,2,143.999995605469,4|10|2,1:2|0:0|0:0,0:0:0:0:
307,338,34298,1,0,1:0:0:0:
349,226,34457,2,0,L|330:155,1,71.9999978027344,10|0,0:0|1:0,0:0:0:0:
436,300,34776,6,0,L|421:383,1,71.9999978027344,2|0,0:0|1:0,0:0:0:0:
510,196,35096,1,10,0:0:0:0:
512,285,35255,2,0,B|425:284|465:226|372:236,1,143.999995605469,2|2,0:0|1:2,0:0:0:0:
289,355,35734,1,8,0:0:0:0:
203,287,35893,1,2,0:3:0:0:
203,287,35973,1,2,0:3:0:0:
203,287,36053,1,2,1:3:0:0:
209,62,36372,6,0,P|260:77|259:160,1,143.999995605469,10|2,0:0|0:0,0:0:0:0:
174,178,36851,1,0,1:0:0:0:
100,122,37010,2,0,B|63:116|63:116|36:138,1,71.9999978027344,10|0,0:0|1:0,0:0:0:0:
104,286,37330,5,2,0:0:0:0:
104,286,37489,2,0,L|85:212,1,71.9999978027344,2|8,1:2|0:0,0:0:0:0:
0,268,37808,2,0,L|19:342,1,71.9999978027344,2|0,0:0|0:0,0:0:0:0:
127,381,38127,1,2,1:2:0:0:
218,293,38287,1,8,0:0:0:0:
321,360,38447,1,2,0:3:0:0:
321,360,38526,1,2,0:3:0:0:
321,360,38606,1,2,1:3:0:0:
384,144,38925,6,0,P|403:220|419:294,1,143.999995605469,10|2,0:0|0:0,0:0:0:0:
506,237,39404,1,0,1:0:0:0:
417,284,39564,2,0,P|382:275|346:268,1,71.9999978027344,10|0,0:0|1:0,0:0:0:0:
199,371,39883,5,2,0:0:0:0:
199,371,40042,2,0,P|238:362|278:353,1,71.9999978027344,2|8,1:2|0:0,0:0:0:0:
166,204,40362,1,2,0:0:0:0:
50,277,40521,1,8,0:0:0:0:
56,301,40601,1,8,0:0:0:0:
61,325,40681,1,0,1:0:0:0:
65,349,40760,1,0,1:0:0:0:
70,373,40840,2,0,L|29:378,3,35.9999989013672,4|4|8|8,0:3|0:3|1:3|0:3,0:0:0:0:
149,307,41159,5,4,1:2:0:0:
256,192,41239,12,0,43234,0:0:0:0:
30,351,43713,6,0,L|12:254,2,95.9999970703126,4|0|0,1:0|1:0|1:0,0:0:0:0:
30,351,45627,1,0,1:0:0:0:
382,227,45947,1,2,0:0:0:0:
382,227,46106,1,2,0:0:0:0:
470,264,46266,6,0,L|490:150,2,111.999996582031,0|0|0,1:0|1:0|1:0,0:0:0:0:
470,264,48181,1,0,1:0:0:0:
167,72,48500,1,2,0:0:0:0:
167,72,48659,1,2,0:0:0:0:
106,124,48819,5,0,1:0:0:0:
120,201,49138,1,0,1:0:0:0:
137,276,49457,1,0,1:0:0:0:
158,353,49776,1,0,1:0:0:0:
361,350,49936,6,0,L|368:317,1,27.9999991455078,2|0,0:0|1:0,0:0:0:0:
301,244,50255,6,0,L|292:204,1,35.9999989013672,2|0,0:0|1:0,0:0:0:0:
406,158,50574,5,2,0:0:0:0:
406,158,50734,2,0,L|416:106,1,51.999997619629,2|0,1:2|0:0,0:0:0:0:
262,80,51053,6,0,L|246:8,1,68.0000012969971,2|2,1:2|0:0,0:0:0:0:
178,148,51372,5,0,1:0:0:0:
61,184,51532,1,0,1:0:0:0:
19,59,51691,1,2,1:2:0:0:
136,22,51851,1,0,1:0:0:0:
167,244,52010,2,0,L|123:231,1,34.0000006484985,2|0,1:2|1:0,0:0:0:0:
271,169,52170,2,0,L|355:199,1,68.0000012969971,2|0,1:2|1:0,0:0:0:0:
473,239,52489,1,0,1:0:0:0:
473,239,52968,6,2,L|461:171,1,51.999997619629,2|2,0:0|0:0,0:2:0:0:
426,119,53287,2,0,B|447:102|447:102|473:109,2,53.9999983520508,2|2|2,0:0|0:0|0:0,0:0:0:0:
218,308,53925,6,0,P|135:282|160:172,2,207.999990478516,4|8|0,1:0|0:2|1:0,0:0:0:0:
233,136,54723,1,0,1:0:0:0:
55,169,54883,1,8,0:2:0:0:
146,0,55042,6,0,B|162:63|162:63|134:106|134:106|151:185,1,191.999994140625,2|0,1:2|1:0,0:0:0:0:
393,259,55521,2,0,B|413:216|413:216|395:170,1,95.9999970703126,10|2,0:2|0:0,0:0:0:0:
171,269,55840,1,2,1:2:0:0:
286,379,56000,1,2,1:2:0:0:
301,160,56159,1,8,0:0:0:0:
130,369,56319,6,0,P|84:352|39:338,1,95.9999970703126,6|0,1:2|0:0,0:0:0:0:
151,178,56638,1,0,1:0:0:0:
342,296,56798,2,0,B|399:295|441:257|382:237|438:191|488:199,1,191.999994140625,10|0,0:2|1:0,0:0:0:0:
506,305,57276,1,0,1:0:0:0:
357,150,57436,1,8,0:2:0:0:
266,378,57596,6,0,P|256:282|240:187,1,191.999994140625,2|0,1:2|1:0,0:0:0:0:
387,48,58074,1,8,0:2:0:0:
387,33,58393,1,2,1:2:0:0:
502,176,58553,2,0,L|513:128,2,47.9999985351563,2|0|8,1:2|1:0|1:2,0:0:0:0:
306,93,58872,5,2,1:2:0:0:
306,93,58952,1,0,1:0:0:0:
306,93,59032,2,0,P|230:89|200:150,1,143.999995605469,6|0,1:2|0:0,0:0:0:0:
211,155,59351,2,0,P|220:105|195:64,1,95.9999970703126,10|0,0:2|0:0,0:0:0:0:
85,253,59670,1,2,1:2:0:0:
0,161,59830,2,0,P|52:146|112:133,1,95.9999970703126,2|8,1:2|0:0,0:0:0:0:
321,250,60149,6,0,P|233:246|224:333,1,191.999994140625,2|0,1:2|1:0,0:0:0:0:
464,374,60627,2,0,P|492:336|490:289,1,95.9999970703126,10|0,0:2|0:0,0:0:0:0:
365,104,60947,1,2,1:2:0:0:
487,100,61106,2,0,P|468:144|450:188,1,95.9999970703126,0|8,1:2|0:0,0:0:0:0:
315,0,61425,1,2,1:2:0:0:
234,81,61585,6,0,P|176:117|117:83,1,143.999995605469,4|0,1:2|0:0,0:0:0:0:
119,65,61904,2,0,P|148:102|153:149,1,95.9999970703126,10|0,0:2|0:0,0:0:0:0:
8,322,62223,1,2,1:2:0:0:
117,335,62383,2,0,P|104:292|88:240,1,95.9999970703126,2|8,1:2|0:0,0:0:0:0:
267,80,62702,6,0,P|250:168|236:270,1,191.999994140625,2|0,1:2|1:0,0:0:0:0:
378,325,63181,1,8,1:2:0:0:
440,195,63340,1,4,1:3:0:0:
384,348,63500,1,8,1:2:0:0:
225,282,63659,1,0,1:0:0:0:
392,371,63819,1,8,1:2:0:0:
453,175,63979,5,8,0:0:0:0:
465,151,64058,1,8,0:0:0:0:
473,130,64138,2,0,B|420:123|420:123|376:153|376:153|311:153|298:91,2,207.999990478516,4|8|0,1:0|0:2|1:0,0:0:0:0:
375,40,64936,1,0,1:0:0:0:
297,218,65096,1,8,0:2:0:0:
147,97,65255,6,0,P|196:53|303:106,1,191.999994140625,2|0,1:2|1:0,0:0:0:0:
65,265,65734,2,0,B|36:226|36:226|50:176,1,95.9999970703126,10|2,0:2|0:0,0:0:0:0:
216,155,66053,1,2,1:2:0:0:
157,322,66213,1,2,1:2:0:0:
110,91,66372,1,8,0:0:0:0:
279,265,66532,6,0,P|334:257|399:247,1,95.9999970703126,6|0,1:2|0:0,0:0:0:0:
470,124,66851,1,0,1:0:0:0:
282,60,67010,1,10,0:2:0:0:
379,7,67170,2,0,B|400:47|400:47|384:94,1,95.9999970703126,2|0,0:0|1:0,0:0:0:0:
287,248,67489,1,0,1:0:0:0:
370,114,67649,1,8,0:2:0:0:
279,266,67808,6,0,P|174:256|72:247,1,191.999994140625,2|0,1:2|1:0,0:0:0:0:
15,85,68287,1,8,0:2:0:0:
4,78,68606,1,2,1:2:0:0:
201,8,68766,2,0,L|189:54,2,47.9999985351563,2|0|10,1:2|1:0|1:2,0:0:0:0:
338,153,69085,5,0,1:0:0:0:
338,153,69165,1,0,1:0:0:0:
338,153,69244,2,0,P|403:130|421:63,1,143.999995605469,6|0,1:2|0:0,0:0:0:0:
409,52,69564,2,0,P|411:95|421:158,1,95.9999970703126,10|0,0:2|0:0,0:0:0:0:
281,332,69883,1,2,1:2:0:0:
219,254,70042,2,0,B|258:225|258:225|304:237,1,95.9999970703126,2|8,1:2|0:2,0:0:0:0:
92,384,70362,6,0,P|108:319|-3:268,1,191.999994140625,2|0,1:2|1:0,0:0:0:0:
172,83,70840,2,0,P|162:133|151:180,1,95.9999970703126,10|0,0:2|0:0,0:0:0:0:
335,337,71159,1,2,1:2:0:0:
393,248,71319,2,0,P|350:227|303:236,1,95.9999970703126,2|8,1:2|0:2,0:0:0:0:
97,354,71638,1,2,1:2:0:0:
14,261,71798,6,0,L|35:153,1,92.0000017547608,6|8,1:2|1:2,0:0:0:0:
29,154,72037,1,8,1:2:0:0:
24,137,72117,2,0,B|65:115|65:115|102:140,1,92.0000017547608,10|4,1:2|1:2,0:0:0:0:
205,305,72436,1,2,1:2:0:0:
297,143,72596,1,10,1:2:0:0:
297,143,72675,1,8,1:2:0:0:
297,143,72755,2,0,L|295:86,1,46.0000008773804,8|8,1:2|1:2,0:0:0:0:
217,212,72915,2,0,L|162:212,3,46.0000008773804,6|4|8|8,1:2|1:3|1:2|1:2,0:0:0:0:
303,284,73234,5,4,1:3:0:0:
303,284,73313,1,4,1:3:0:0:
303,284,73393,2,0,L|306:345,3,46.0000008773804,10|0|4|4,1:2|1:0|1:3|1:3,0:0:0:0:
368,215,73713,1,10,1:2:0:0:
464,316,73872,1,2,1:2:0:0:
499,187,74032,1,10,1:2:0:0:
502,159,74112,1,8,1:2:0:0:
505,131,74191,1,8,1:2:0:0:
507,103,74271,1,8,1:2:0:0:
510,77,74351,6,0,B|469:67|422:87|452:119|411:129|361:121,1,160,4|10,1:1|0:0,0:0:0:0:
229,185,74830,1,2,0:0:0:0:
105,81,74989,2,0,P|115:37|121:-15,1,80,2|0,0:0|1:0,0:0:0:0:
246,89,75308,1,8,0:0:0:0:
111,200,75468,6,0,P|62:184|19:175,1,80,2|0,1:2|0:0,0:0:0:0:
119,323,75787,2,0,P|70:339|27:348,1,80,2|8,1:2|0:0,0:0:0:0:
207,252,76106,1,2,0:0:0:0:
111,185,76266,2,0,P|62:169|19:160,1,80,2|0,0:0|1:0,0:0:0:0:
25,145,76505,1,0,1:0:0:0:
25,145,76585,2,0,B|48:110|48:110|36:63,1,80,8|2,0:0|0:0,0:0:0:0:
216,174,76904,6,0,P|274:162|346:150,1,120,4|0,1:2|0:0,0:0:0:0:
357,155,77223,2,0,P|339:190|346:232,1,80,10|0,0:0|0:0,0:0:0:0:
501,251,77542,2,0,P|518:215|512:174,1,80,2|0,0:0|1:0,0:0:0:0:
413,335,77862,1,8,0:0:0:0:
271,269,78021,6,0,L|182:282,1,80,2|0,1:2|0:0,0:0:0:0:
96,182,78340,2,0,B|128:157|128:157|175:174,1,80,2|8,1:2|0:0,0:0:0:0:
82,285,78659,1,2,1:2:0:0:
0,189,78819,2,0,P|8:147|14:110,1,80,2|0,1:2|1:0,0:0:0:0:
144,27,79138,1,8,0:0:0:0:
272,119,79298,5,8,0:0:0:0:
272,119,79377,1,8,0:0:0:0:
272,119,79457,2,0,P|333:74|409:118,1,160,4|10,1:2|0:0,0:0:0:0:
479,241,79936,1,2,0:0:0:0:
362,336,80096,2,0,P|360:294|355:251,1,80,2|0,0:0|1:0,0:0:0:0:
261,199,80415,1,8,0:0:0:0:
98,347,80574,6,0,L|183:332,1,80,2|0,1:2|0:0,0:0:0:0:
101,169,80893,2,0,L|185:187,1,80,2|8,1:2|0:0,0:0:0:0:
15,259,81213,1,2,0:0:0:0:
102,359,81372,1,2,1:2:0:0:
124,356,81452,1,0,1:0:0:0:
147,351,81532,1,0,1:0:0:0:
171,349,81612,1,0,1:0:0:0:
190,345,81691,2,0,P|179:300|199:265,1,80,10|2,0:0|0:0,0:0:0:0:
437,282,82010,6,0,P|371:336|311:303,1,160,4|10,1:2|0:0,0:0:0:0:
248,170,82489,1,2,0:0:0:0:
351,50,82649,2,0,P|405:57|448:62,1,80,2|0,0:0|1:0,0:0:0:0:
358,212,82968,1,8,0:0:0:0:
162,50,83127,6,0,P|156:89|145:127,1,80,2|0,1:2|0:0,0:0:0:0:
351,50,83447,2,0,P|357:89|367:127,1,80,2|8,1:2|0:0,0:0:0:0:
254,0,83766,1,2,1:2:0:0:
254,0,83925,1,2,0:0:0:0:
252,285,84244,1,2,0:0:0:0:
254,296,84564,5,4,1:0:0:0:
256,192,84643,12,0,89351,0:0:0:0:
