osu file format v14

[General]
AudioFilename: audio.mp3
AudioLeadIn: 0
PreviewTime: 43553
Countdown: 0
SampleSet: Soft
StackLeniency: 0.5
Mode: 0
LetterboxInBreaks: 0
WidescreenStoryboard: 0

[Editor]
Bookmarks: 51173,81812,86599
DistanceSpacing: 2
BeatDivisor: 4
GridSize: 4
TimelineZoom: 2

[Metadata]
Title:Shadow is the Light (TV Size)
TitleUnicode:Shadow is the Light (TV Size)
Artist:THE SIXTH LIE
ArtistUnicode:THE SIXTH LIE
Creator:AirinCat
Version:Darkness
Source:とある科学の一方通行
Tags:a_r_m_i_n armin kowari anime japanese rock アクセラレータ A Certain Scientific Accelerator ray reiji tsuyoshi sato To Aru Majutsu no Index Gaiden toaru Kagaku Ippou Tsuukou
BeatmapID:2272860
BeatmapSetID:1086898

[Difficulty]
HPDrainRate:6
CircleSize:4
OverallDifficulty:9
ApproachRate:9.3
SliderMultiplier:1.7
SliderTickRate:1

[Events]
//Background and Video events
0,0,"edgy.jpg",0,0
Video,-98,"accelerator.mp4"
//Break Periods
//Storyboard Layer 0 (Background)
//Storyboard Layer 1 (Fail)
//Storyboard Layer 2 (Pass)
//Storyboard Layer 3 (Foreground)
//Storyboard Layer 4 (Overlay)
//Storyboard Sound Samples

[TimingPoints]
2862,319.148936170213,4,2,1,60,1,0
2862,-370.37037037037,4,2,1,60,0,0
7968,-250.000000000001,4,2,1,64,0,0
9244,-142.857142857143,4,2,1,68,0,0
9284,-142.857142857143,4,2,1,38,0,0
9564,-111.111111111111,4,2,1,72,0,0
9604,-111.111111111111,4,2,1,42,0,0
9883,-76.9230769230769,4,2,1,76,0,0
9923,-76.9230769230769,4,2,1,46,0,0
10202,-62.5,4,2,1,80,0,0
10242,-62.5,4,2,1,50,0,0
10521,-100,4,2,1,80,0,0
13074,-71.4285714285714,4,2,1,80,0,0
13393,-76.9230769230769,4,2,1,80,0,0
23287,-111.111111111111,4,2,1,58,0,0
30947,-90.9090909090909,4,2,1,70,0,0
32702,-83.3333333333334,4,2,1,74,0,0
33500,-111.111111111111,4,2,1,58,0,0
41159,-83.3333333333333,4,2,1,80,0,0
41239,-83.3333333333333,4,2,1,40,0,0
43633,-83.3333333333333,4,2,1,5,0,0
43713,-370.37037037037,4,2,24,44,0,0
44351,-370.37037037037,4,2,1,46,0,0
44989,-370.37037037037,4,2,1,48,0,0
45627,-370.37037037037,4,2,1,52,0,0
46106,-370.37037037037,4,2,1,54,0,0
46266,-285.714285714286,4,2,1,56,0,0
46904,-285.714285714286,4,2,1,60,0,0
47542,-285.714285714286,4,2,1,64,0,0
48181,-285.714285714286,4,2,1,68,0,0
48819,-285.714285714286,4,2,1,72,0,0
49138,-285.714285714286,4,2,1,76,0,0
49457,-285.714285714286,4,2,1,80,0,0
49776,-285.714285714286,4,2,1,84,0,0
49936,-285.714285714286,4,2,1,88,0,0
50255,-200,4,2,1,88,0,0
50574,-142.857142857143,4,2,1,88,0,0
51053,-105.263157894737,4,2,1,88,0,0
52968,-133.333333333333,4,2,1,50,0,0
53287,-200,4,2,1,50,0,0
53925,-71.4285714285714,4,2,1,86,0,1
63181,-71.4285714285714,4,2,1,86,0,0
64138,-71.4285714285714,4,2,1,86,0,1
71798,-74.0740740740741,4,2,1,82,0,1
74351,-83.3333333333333,4,2,1,80,0,0
83925,-83.3333333333333,4,2,1,60,0,0
84564,-83.3333333333333,4,2,1,80,0,0
84643,-83.3333333333333,4,2,1,50,0,0
85202,-83.3333333333333,4,2,1,45,0,0
85840,-83.3333333333333,4,2,1,40,0,0
86479,-83.3333333333333,4,2,1,35,0,0
87117,-83.3333333333333,4,2,1,30,0,0
87755,-83.3333333333333,4,2,1,25,0,0
88393,-83.3333333333333,4,2,1,20,0,0
88713,-83.3333333333333,4,2,1,15,0,0
89032,-83.3333333333333,4,2,1,10,0,0
89351,-83.3333333333333,4,2,1,5,0,0

[Colours]
Combo1 : 180,186,239
Combo2 : 233,131,149
Combo3 : 205,164,238
Combo4 : 153,149,166

[HitObjects]
43,288,2862,6,0,L|24:192,2,91.800002241211,4|0|0,1:2|1:0|1:0,0:0:0:0:
43,288,4776,1,0,1:0:0:0:
493,265,5415,6,0,L|512:176,2,91.800002241211,0|0|0,1:0|1:0|1:0,0:0:0:0:
493,265,7330,1,0,1:0:0:0:
252,384,7968,5,12,1:2:0:0:
235,365,8287,1,0,1:0:0:0:
248,345,8606,1,0,1:0:0:0:
266,360,8925,1,0,1:0:0:0:
163,331,9244,6,0,L|160:316,6,14.874999546051,0|0|0|0|0|0|0,1:0|0:0|0:0|0:0|0:0|0:0|0:0,0:0:0:0:
267,243,9564,6,0,L|262:216,6,19.1249994163513,0|0|0|0|0|0|0,1:0|0:0|0:0|0:0|0:0|0:0|0:0,0:0:0:0:
131,133,9883,6,0,L|126:106,6,27.6249987354279,0|0|0|0|0|0|0,1:0|0:0|0:0|0:0|0:0|0:0|0:0,0:0:0:0:
328,33,10202,6,0,L|319:-11,6,34,0|0|0|0|0|0|0,1:0|0:0|0:0|0:0|0:0|0:0|0:0,0:0:0:0:
275,137,10521,5,0,1:0:0:0:
413,257,10681,1,0,1:0:0:0:
512,113,10840,1,0,1:0:0:0:
418,276,11000,1,0,1:0:0:0:
275,137,11159,5,0,1:0:0:0:
311,129,11239,1,0,1:0:0:0:
349,123,11319,1,0,1:0:0:0:
387,117,11399,1,0,1:0:0:0:
425,113,11479,1,0,1:0:0:0:
436,166,11558,1,0,1:0:0:0:
409,215,11638,1,0,1:0:0:0:
357,231,11718,1,0,1:0:0:0:
14,347,13074,6,0,B|78:347|103:298|55:289|107:242|146:254,1,178.499994552612,4|0,1:1|0:0,0:0:0:0:
249,270,13393,2,0,P|202:294|152:273,1,110.499994941712,10|0,0:2|0:0,0:0:0:0:
374,109,13713,1,2,0:0:0:0:
378,297,13872,1,0,1:0:0:0:
202,177,14032,1,8,0:2:0:0:
467,337,14191,6,0,L|475:222,1,110.499994941712,2|0,1:2|0:0,0:0:0:0:
481,72,14510,1,0,1:0:0:0:
305,190,14670,1,10,0:2:0:0:
136,48,14830,1,2,0:0:0:0:
153,40,15149,1,2,1:2:0:0:
174,32,15229,1,0,1:0:0:0:
195,24,15308,1,10,1:2:0:0:
227,186,15468,1,2,0:0:0:0:
0,258,15627,6,0,B|49:240|49:240|93:266|93:266|157:245,1,165.749992412568,6|0,1:2|0:0,0:0:0:0:
162,131,15947,2,0,B|133:179|133:179|157:229,1,110.499994941712,10|0,0:2|0:0,0:0:0:0:
419,277,16266,1,2,0:0:0:0:
289,133,16425,1,0,1:0:0:0:
238,319,16585,1,8,0:2:0:0:
460,83,16744,6,0,P|447:137|433:206,1,110.499994941712,2|0,1:2|0:0,0:0:0:0:
388,366,17064,1,0,1:0:0:0:
224,215,17223,1,10,0:2:0:0:
73,361,17383,1,2,1:2:0:0:
88,371,17702,1,2,1:2:0:0:
208,226,17862,1,10,0:2:0:0:
31,121,18021,1,8,0:0:0:0:
24,142,18101,1,8,0:0:0:0:
19,159,18181,6,0,P|114:166|133:99,1,165.749992412568,6|0,1:2|0:0,0:0:0:0:
133,3,18500,2,0,B|100:47|100:47|115:100,1,110.499994941712,10|0,0:2|0:0,0:0:0:0:
265,307,18819,1,2,0:0:0:0:
342,149,18979,1,0,1:2:0:0:
125,237,19138,1,8,0:2:0:0:
258,60,19298,6,0,P|253:121|250:175,1,110.499994941712,2|0,1:2|0:0,0:0:0:0:
90,370,19617,1,0,1:0:0:0:
158,166,19776,1,8,0:2:0:0:
363,292,19936,1,2,0:0:0:0:
278,384,20096,1,0,1:0:0:0:
275,360,20175,1,0,1:0:0:0:
273,338,20255,1,2,1:2:0:0:
268,315,20335,1,0,1:0:0:0:
266,294,20415,2,0,B|316:267|316:267|370:296,1,110.499994941712,10|2,0:2|0:0,0:0:0:0:
32,236,20734,6,0,P|26:157|105:135,1,165.749992412568,6|0,1:2|0:0,0:0:0:0:
206,149,21053,2,0,P|155:172|108:151,1,110.499994941712,10|0,0:2|0:0,0:0:0:0:
264,17,21372,1,2,0:0:0:0:
371,190,21532,1,0,1:0:0:0:
512,54,21691,1,8,0:2:0:0:
240,275,21851,6,0,P|227:221|212:168,1,110.499994941712,2|0,1:2|0:0,0:0:0:0:
403,5,22170,1,0,1:0:0:0:
345,181,22330,1,10,0:2:0:0:
131,110,22489,1,2,1:2:0:0:
185,24,22649,1,8,0:2:0:0:
223,44,22729,1,8,0:2:0:0:
242,84,22808,1,8,1:3:0:0:
240,128,22888,1,8,1:3:0:0:
212,168,22968,1,8,1:3:0:0:
131,110,23127,1,2,1:2:0:0:
313,267,23287,6,0,P|309:204|380:154,2,152.999995330811,4|10|2,1:2|0:0|0:0,0:0:0:0:
426,227,24085,1,0,1:2:0:0:
435,79,24244,1,10,0:0:0:0:
504,144,24404,1,0,1:0:0:0:
425,65,24564,6,0,L|347:78,1,76.4999976654053,2|0,0:0|1:0,0:0:0:0:
181,107,24883,1,8,0:0:0:0:
244,0,25042,2,0,P|260:74|274:137,1,114.749996498108,2|0,0:0|0:0,0:0:0:0:
268,112,25362,1,2,1:2:0:0:
102,99,25521,1,8,0:0:0:0:
59,240,25681,1,2,0:3:0:0:
59,240,25760,1,2,0:3:0:0:
59,240,25840,1,2,1:3:0:0:
192,183,26159,6,0,B|98:180|154:242|56:239,1,152.999995330811,10|2,0:0|0:0,0:0:0:0:
198,277,26638,1,0,1:0:0:0:
294,173,26798,1,10,0:0:0:0:
341,252,26957,1,0,1:0:0:0:
280,164,27117,6,0,L|291:85,1,76.4999976654053,2|0,0:0|1:0,0:0:0:0:
450,14,27436,1,10,0:0:0:0:
490,112,27596,2,0,B|441:104|441:104|432:92|432:92|376:83,1,114.749996498108,2|0,0:0|0:0,0:0:0:0:
383,85,27915,1,2,1:2:0:0:
499,222,28074,1,10,3:2:0:0:
373,337,28234,1,0,1:0:0:0:
256,211,28393,5,6,1:2:0:0:
282,360,28713,6,0,P|274:284|255:210,1,152.999995330811,10|2,0:0|0:0,0:0:0:0:
349,226,29191,1,0,1:0:0:0:
201,332,29351,1,10,0:0:0:0:
157,255,29510,1,0,1:0:0:0:
29,341,29670,5,2,0:0:0:0:
29,341,29830,2,0,L|113:325,1,76.4999976654053,2|8,1:2|0:0,0:0:0:0:
24,157,30149,2,0,L|39:247,1,76.4999976654053,2|0,0:0|0:0,0:0:0:0:
139,107,30468,1,2,1:2:0:0:
24,39,30627,1,8,0:0:0:0:
17,55,30947,5,6,1:2:0:0:
136,218,31106,1,2,1:2:0:0:
300,78,31266,2,0,B|259:52|259:52|218:71,1,93.5000028533936,10|0,0:2|0:0,0:0:0:0:
139,107,31505,1,8,0:0:0:0:
139,107,31585,1,2,0:0:0:0:
248,271,31744,2,0,L|257:167,1,93.5000028533936,2|8,1:2|0:0,0:0:0:0:
54,165,32064,1,2,1:2:0:0:
392,138,32223,5,2,1:2:0:0:
288,376,32383,1,2,1:2:0:0:
81,242,32542,1,10,1:2:0:0:
436,243,32702,6,0,L|490:226,1,50.9999984436036,2|0,1:1|0:0,0:0:0:0:
484,246,33021,1,2,1:0:0:0:
485,270,33101,1,0,1:0:0:0:
485,288,33181,1,8,1:2:0:0:
211,157,33340,1,8,0:2:0:0:
219,136,33420,1,8,0:2:0:0:
225,116,33500,6,0,B|246:198|300:149|314:229,2,152.999995330811,4|10|2,1:2|0:0|0:0,0:0:0:0:
323,99,34298,1,0,1:0:0:0:
225,259,34457,1,10,0:0:0:0:
161,184,34617,1,0,1:0:0:0:
237,276,34776,6,0,L|218:358,1,76.4999976654053,2|0,0:0|1:0,0:0:0:0:
76,199,35096,1,10,0:0:0:0:
12,273,35255,2,0,L|42:407,1,114.749996498108,2|0,0:0|0:0,0:0:0:0:
37,384,35574,1,2,1:2:0:0:
149,261,35734,1,8,0:0:0:0:
32,131,35893,1,2,0:3:0:0:
32,131,35973,1,2,0:3:0:0:
32,131,36053,1,2,1:3:0:0:
147,111,36372,6,0,P|92:79|31:146,1,152.999995330811,10|2,0:0|0:0,0:0:0:0:
196,188,36851,1,0,1:0:0:0:
256,58,37010,1,10,0:0:0:0:
175,22,37170,1,0,1:0:0:0:
286,144,37330,5,2,0:0:0:0:
286,144,37489,2,0,P|324:137|361:131,1,76.4999976654053,2|8,1:2|0:0,0:0:0:0:
490,27,37808,2,0,P|451:20|414:14,1,76.4999976654053,2|0,0:0|0:0,0:0:0:0:
410,203,38127,1,2,1:2:0:0:
512,123,38287,1,8,0:0:0:0:
423,311,38447,1,2,0:3:0:0:
423,311,38526,1,2,0:3:0:0:
423,311,38606,1,2,1:3:0:0:
271,327,38925,6,0,P|342:313|423:311,1,152.999995330811,10|2,0:0|0:0,0:0:0:0:
286,233,39404,1,0,1:0:0:0:
188,371,39564,1,10,0:0:0:0:
114,325,39723,1,0,1:0:0:0:
176,180,39883,5,2,0:0:0:0:
176,180,40042,2,0,L|193:269,1,76.4999976654053,2|8,1:2|0:0,0:0:0:0:
51,142,40362,1,2,0:0:0:0:
244,53,40521,1,8,0:0:0:0:
244,53,40601,1,8,0:0:0:0:
244,53,40681,2,0,L|254:108,1,38.2499988327027,0|0,1:0|1:0,0:0:0:0:
336,190,40840,1,4,0:3:0:0:
370,194,40920,1,4,0:3:0:0:
401,179,41000,1,8,1:3:0:0:
422,152,41080,1,8,0:3:0:0:
424,116,41159,5,4,1:2:0:0:
256,192,41239,12,0,43633,0:0:0:0:
24,367,43713,6,0,L|5:270,2,91.800002241211,4|0|0,1:0|1:0|1:0,0:0:0:0:
24,367,45627,1,0,1:0:0:0:
473,145,45947,1,2,0:0:0:0:
508,215,46106,1,2,0:0:0:0:
416,329,46266,6,0,L|431:205,2,118.999996368408,0|0|0,1:0|1:0|1:0,0:0:0:0:
416,329,48181,1,0,1:0:0:0:
65,105,48500,1,2,0:0:0:0:
0,185,48659,1,2,0:0:0:0:
129,330,48819,5,0,1:0:0:0:
96,210,49138,1,0,1:0:0:0:
211,181,49457,1,0,1:0:0:0:
242,297,49776,1,0,1:0:0:0:
419,346,49936,6,0,L|424:317,1,29.7499990921021,2|0,0:0|1:0,0:0:0:0:
320,195,50255,6,0,L|327:236,1,42.5,2|0,0:0|1:0,0:0:0:0:
488,133,50574,5,2,0:0:0:0:
488,133,50734,2,0,L|498:74,1,59.4999981842042,2|0,1:2|0:0,0:0:0:0:
227,0,51053,6,0,L|241:82,1,80.7499978437424,2|2,1:2|0:0,0:0:0:0:
261,346,51372,5,0,1:0:0:0:
397,121,51532,1,0,1:0:0:0:
255,362,51691,1,2,1:2:0:0:
91,149,51851,1,0,1:0:0:0:
413,341,52010,2,0,L|402:279,1,40.3749989218712,2|0,1:2|1:0,0:0:0:0:
356,1,52170,1,2,1:2:0:0:
177,215,52330,1,0,1:0:0:0:
485,254,52489,1,0,1:0:0:0:
485,254,52968,6,2,L|470:181,1,63.7500024318696,2|2,0:0|0:0,0:2:0:0:
432,131,53287,2,0,B|456:109|456:109|497:123,2,63.75,2|2|2,0:0|0:0|0:0,0:0:0:0:
233,382,53925,6,0,P|158:337|177:252,1,178.499994552612,4|0,1:0|0:0,0:0:0:0:
185,145,54244,2,0,P|212:197|188:252,1,118.999996368408,8|0,0:2|0:0,0:0:0:0:
4,122,54564,1,0,1:0:0:0:
281,12,54723,1,0,1:0:0:0:
8,142,54883,1,8,0:2:0:0:
330,276,55042,6,0,B|359:220|359:220|329:166,1,118.999996368408,2|0,1:2|0:0,0:0:0:0:
169,9,55362,1,0,1:0:0:0:
145,240,55521,1,10,0:2:0:0:
8,142,55681,1,2,0:0:0:0:
272,220,55840,1,2,1:2:0:0:
28,368,56000,1,2,1:2:0:0:
208,89,56159,1,8,0:0:0:0:
443,355,56319,6,0,P|456:292|472:232,1,118.999996368408,6|0,1:2|0:0,0:0:0:0:
406,59,56638,1,0,1:0:0:0:
152,256,56798,2,0,B|92:256|54:189|112:186|64:139|13:142,1,178.499994552612,10|0,0:2|0:0,0:0:0:0:
3,217,57117,1,0,1:0:0:0:
208,89,57276,1,0,1:0:0:0:
348,330,57436,1,8,0:2:0:0:
443,121,57596,6,0,P|383:125|347:173,1,118.999996368408,2|0,1:2|0:0,0:0:0:0:
477,298,57915,1,0,1:0:0:0:
494,20,58074,1,8,0:2:0:0:
497,39,58393,5,2,1:2:0:0:
397,259,58553,1,2,1:2:0:0:
397,259,58633,1,0,1:0:0:0:
397,259,58713,1,8,1:2:0:0:
231,99,58872,5,2,1:2:0:0:
207,105,58952,1,0,1:0:0:0:
186,111,59032,2,0,B|266:141|309:72|278:21|238:33,1,178.499994552612,6|0,1:2|0:0,0:0:0:0:
121,44,59351,2,0,P|90:93|107:151,1,118.999996368408,10|0,0:2|0:0,0:0:0:0:
337,383,59670,1,2,1:2:0:0:
411,279,59830,2,0,B|367:237|367:237|308:258,1,118.999996368408,2|8,1:2|0:0,0:0:0:0:
27,384,60149,6,0,L|-13:252,1,118.999996368408,2|0,1:2|0:0,0:0:0:0:
81,112,60468,1,0,1:0:0:0:
312,256,60627,2,0,B|377:240|377:240|391:192|391:192|467:173,1,178.499994552612,10|0,0:2|0:0,0:0:0:0:
459,260,60947,1,2,1:2:0:0:
272,92,61106,2,0,B|272:31|272:31|324:74,1,118.999996368408,0|8,1:2|0:0,0:0:0:0:
398,332,61425,1,2,1:2:0:0:
312,256,61585,6,0,P|238:211|162:250,1,178.499994552612,4|0,1:2|0:0,0:0:0:0:
119,340,61904,2,0,P|166:359|224:325,1,118.999996368408,10|0,0:2|0:0,0:0:0:0:
26,34,62223,1,2,1:2:0:0:
176,4,62383,2,0,P|166:62|152:120,1,118.999996368408,2|8,1:2|0:0,0:0:0:0:
450,296,62702,6,0,P|437:242|426:177,1,118.999996368408,2|0,1:2|0:0,0:0:0:0:
248,370,63021,1,0,1:0:0:0:
248,370,63101,1,0,1:0:0:0:
248,370,63181,1,8,1:2:0:0:
152,120,63340,1,4,1:3:0:0:
271,211,63500,1,8,1:2:0:0:
0,206,63659,1,0,1:0:0:0:
160,0,63819,1,8,1:2:0:0:
427,180,63979,5,8,0:0:0:0:
432,194,64058,1,8,0:0:0:0:
436,209,64138,2,0,B|376:222|376:222|337:195|337:195|300:188|257:222,1,178.499994552612,4|0,1:0|0:0,0:0:0:0:
234,341,64457,2,0,P|266:290|251:233,1,118.999996368408,8|0,0:2|0:0,0:0:0:0:
48,69,64776,1,0,1:0:0:0:
46,329,64936,1,0,1:0:0:0:
28,73,65096,1,8,0:2:0:0:
359,205,65255,6,0,P|428:194|487:186,1,118.999996368408,2|0,1:2|0:0,0:0:0:0:
349,11,65574,1,0,1:0:0:0:
245,254,65734,1,10,0:2:0:0:
118,128,65893,1,2,0:0:0:0:
220,381,66053,1,2,1:2:0:0:
332,94,66213,1,2,1:2:0:0:
0,186,66372,1,8,0:0:0:0:
325,327,66532,6,0,B|367:280|367:280|348:227,1,118.999996368408,6|0,1:2|0:0,0:0:0:0:
242,32,66851,1,0,1:0:0:0:
82,323,67010,1,10,0:2:0:0:
0,186,67170,2,0,P|61:179|120:170,1,118.999996368408,2|0,0:0|1:0,0:0:0:0:
313,354,67489,1,0,1:0:0:0:
136,186,67649,1,8,0:2:0:0:
328,362,67808,6,0,P|385:356|411:305,1,118.999996368408,2|0,1:2|0:0,0:0:0:0:
272,148,68127,1,0,1:0:0:0:
98,363,68287,1,8,0:2:0:0:
90,379,68606,5,2,1:2:0:0:
60,150,68766,1,2,1:2:0:0:
60,150,68846,1,0,1:0:0:0:
60,150,68925,1,10,1:2:0:0:
270,240,69085,5,0,1:0:0:0:
264,258,69165,1,0,1:0:0:0:
257,277,69244,2,0,B|201:273|166:227|219:212|185:165|141:159,1,178.499994552612,6|0,1:2|0:0,0:0:0:0:
1,231,69564,2,0,P|53:261|108:237,1,118.999996368408,10|0,0:2|0:0,0:0:0:0:
381,23,69883,1,2,1:2:0:0:
250,0,70042,2,0,B|260:46|260:46|250:65|250:65|264:123,1,118.999996368408,2|8,1:2|0:2,0:0:0:0:
492,368,70362,6,0,P|502:300|511:247,1,118.999996368408,2|0,1:2|0:0,0:0:0:0:
509,78,70681,1,0,1:0:0:0:
284,199,70840,2,0,B|225:215|191:167|191:167|152:181|152:181|164:224,1,178.499994552612,10|0,0:2|0:0,0:0:0:0:
261,114,71159,1,2,1:2:0:0:
382,368,71319,2,0,P|424:326|412:268,1,118.999996368408,2|8,1:2|0:2,0:0:0:0:
70,360,71638,1,2,1:2:0:0:
5,239,71798,6,0,L|26:118,1,114.750000437737,6|8,1:2|1:2,0:0:0:0:
32,133,72037,1,8,1:2:0:0:
32,133,72117,1,10,1:2:0:0:
231,354,72276,1,4,1:2:0:0:
364,123,72436,1,2,1:2:0:0:
210,182,72596,1,10,1:2:0:0:
210,182,72675,1,8,1:2:0:0:
210,182,72755,2,0,L|219:240,1,57.3750002188683,8|8,1:2|1:2,0:0:0:0:
365,370,72915,5,6,1:2:0:0:
413,372,72994,1,4,1:3:0:0:
455,345,73074,1,8,1:2:0:0:
478,301,73154,1,8,1:2:0:0:
472,252,73234,1,4,1:3:0:0:
439,214,73314,1,4,1:3:0:0:
394,205,73393,1,10,1:2:0:0:
236,349,73553,5,4,1:3:0:0:
236,349,73633,1,4,1:3:0:0:
236,349,73713,1,10,1:2:0:0:
323,109,73872,1,2,1:2:0:0:
69,152,74032,1,10,1:2:0:0:
76,197,74112,1,8,1:2:0:0:
82,241,74191,1,8,1:2:0:0:
89,286,74271,1,8,1:2:0:0:
52,324,74351,6,0,P|102:272|170:299,1,152.999995330811,4|0,1:1|0:0,0:0:0:0:
236,349,74670,1,10,0:0:0:0:
328,220,74830,1,2,0:0:0:0:
192,92,74989,2,0,L|206:201,1,101.999996887207,2|0,0:0|1:0,0:0:0:0:
373,50,75308,1,8,0:0:0:0:
493,289,75468,6,0,P|504:230|514:184,1,101.999996887207,2|0,1:2|0:0,0:0:0:0:
225,294,75787,2,0,P|214:235|204:189,1,101.999996887207,2|8,1:2|0:0,0:0:0:0:
358,381,76106,1,2,0:0:0:0:
478,298,76266,2,0,P|489:239|499:193,1,101.999996887207,2|0,0:0|1:0,0:0:0:0:
497,197,76505,1,0,1:0:0:0:
497,197,76585,1,8,0:0:0:0:
369,95,76744,1,2,0:0:0:0:
159,228,76904,6,0,P|87:216|73:146,1,152.999995330811,4|0,1:2|0:0,0:0:0:0:
83,57,77223,2,0,P|105:100|93:148,1,101.999996887207,10|0,0:0|0:0,0:0:0:0:
33,365,77542,2,0,P|10:321|22:273,1,101.999996887207,2|0,0:0|1:0,0:0:0:0:
198,112,77862,1,8,0:0:0:0:
298,334,78021,6,0,P|252:322|200:309,1,101.999996887207,2|0,1:2|0:0,0:0:0:0:
418,152,78340,2,0,P|372:164|320:177,1,101.999996887207,2|8,1:2|0:0,0:0:0:0:
509,267,78659,1,2,1:2:0:0:
437,384,78819,1,2,1:2:0:0:
298,334,78979,1,0,1:0:0:0:
494,110,79138,1,8,0:0:0:0:
405,258,79298,5,8,0:0:0:0:
398,277,79377,1,8,0:0:0:0:
394,290,79457,2,0,P|385:218|373:132,1,152.999995330811,4|0,1:2|0:0,0:0:0:0:
354,63,79776,1,10,0:0:0:0:
200,185,79936,1,2,0:0:0:0:
79,34,80096,2,0,P|133:18|172:48,1,101.999996887207,2|0,0:0|1:0,0:0:0:0:
0,141,80415,1,8,0:0:0:0:
109,299,80574,6,0,L|93:198,1,101.999996887207,2|0,1:2|0:0,0:0:0:0:
335,303,80893,2,0,L|350:202,1,101.999996887207,2|8,1:2|0:0,0:0:0:0:
215,384,81213,1,2,0:0:0:0:
87,313,81372,1,2,1:2:0:0:
80,277,81452,1,0,1:0:0:0:
75,241,81532,1,0,1:0:0:0:
69,205,81612,1,0,1:0:0:0:
63,170,81691,1,10,0:0:0:0:
213,250,81851,1,2,0:0:0:0:
332,8,82010,6,0,P|251:9|233:81,1,152.999995330811,4|0,1:2|0:0,0:0:0:0:
262,143,82330,1,10,0:0:0:0:
442,57,82489,1,2,0:0:0:0:
484,226,82649,2,0,L|379:208,1,101.999996887207,2|0,0:0|1:0,0:0:0:0:
244,295,82968,1,8,0:0:0:0:
143,107,83127,6,0,P|138:156|127:217,1,101.999996887207,2|0,1:2|0:0,0:0:0:0:
369,107,83447,2,0,P|374:156|385:217,1,101.999996887207,2|8,1:2|0:0,0:0:0:0:
257,20,83766,1,2,1:2:0:0:
257,20,83925,1,2,0:0:0:0:
251,364,84244,1,2,0:0:0:0:
253,373,84564,5,4,1:0:0:0:
256,192,84643,12,0,89351,0:0:0:0:
