osu file format v14

[General]
AudioFilename: audio.mp3
AudioLeadIn: 0
PreviewTime: 68468
Countdown: 0
SampleSet: Soft
StackLeniency: 0.7
Mode: 0
LetterboxInBreaks: 0
WidescreenStoryboard: 0

[Editor]
Bookmarks: 1726,149704
DistanceSpacing: 1.5
BeatDivisor: 8
GridSize: 8
TimelineZoom: 1.900005

[Metadata]
Title:One day (TV Size)
TitleUnicode:One day (TV Size)
Artist:The ROOTLESS
ArtistUnicode:The ROOTLESS
Creator:iYiyo
Version:Brothers
Source:ONE PIECE
Tags:Atsuro Janssen hypercyte hypercute Chaoslitz Sh1n1 Shini -Sh1n1- Irohas mugiwarasekai opening 13 toei animation pirates Anime Japanese
BeatmapID:1780771
BeatmapSetID:851838

[Difficulty]
HPDrainRate:6
CircleSize:4.5
OverallDifficulty:8
ApproachRate:9
SliderMultiplier:2.2
SliderTickRate:1

[Events]
//Background and Video events
0,0,"luffyace.jpg",0,0
Video,1025,"OP.mp4"
//Break Periods
//Storyboard Layer 0 (Background)
//Storyboard Layer 1 (Fail)
//Storyboard Layer 2 (Pass)
//Storyboard Layer 3 (Foreground)
//Storyboard Sound Samples

[TimingPoints]
-961,674.157303370787,4,2,1,50,1,0
20612,-166.666666666667,4,2,1,50,0,0
25331,-166.666666666667,4,2,1,5,0,0
25700,659.34065934066,4,2,1,40,1,0
26005,674.157303370787,4,2,1,40,1,0
26005,-100,4,2,1,40,0,0
47578,-83.3333333333333,4,2,1,50,0,0
63758,-83.3333333333333,4,2,1,60,0,0
66454,-83.3333333333333,4,2,1,70,0,0
67794,714.285714285715,4,2,1,70,1,0
67794,-83.3333333333333,4,2,1,70,0,0
68318,674.157303370787,4,2,1,70,1,0
69156,674.157303370787,4,2,1,70,1,1
69156,-71.4285714285714,4,2,1,70,0,1
74464,-71.4285714285714,4,2,1,5,0,1
74549,-71.4285714285714,4,2,1,70,0,1
90732,674.157303370787,4,2,1,50,1,0
90732,-83.3333333333333,4,2,1,50,0,0
101193,659.34065934066,4,2,1,50,1,0
101521,674.157303370787,4,2,1,50,1,0
101521,-83.3333333333333,4,2,1,50,0,0
104212,674.157303370787,4,2,1,50,1,0
104212,-83.3333333333333,4,2,1,50,0,0
106919,674.157303370787,4,2,1,50,1,0
106919,-83.3333333333333,4,2,1,50,0,0
109615,-90.9090909090909,4,2,1,60,0,0
110289,-71.4285714285714,4,2,1,60,0,0
110963,-58.8235294117647,4,2,1,60,0,0
111638,-50,4,2,1,60,0,0
112312,-43.4782608695652,4,2,1,60,0,0
113148,689.655172413794,4,2,1,60,1,0
113668,714.285714285715,4,2,1,60,1,0
113668,-83.3333333333333,4,2,1,60,0,0
114177,612.244897959184,4,2,1,60,1,0
114330,705.882352941176,4,2,1,60,1,0
114682,-133.333333333333,4,2,1,60,0,0
114947,-133.333333333333,4,2,1,5,0,0
114998,674.157303370787,4,2,1,85,1,1
114998,-58.8235294117647,4,2,1,85,0,1
120306,-58.8235294117647,4,2,1,5,0,1
120391,-58.8235294117647,4,2,1,85,0,1
140615,-100,4,2,1,85,0,0

[Colours]
Combo1 : 238,51,55
Combo2 : 67,203,78
Combo3 : 83,160,255
Combo4 : 186,71,37
Combo5 : 255,255,128

[HitObjects]
362,146,724,5,8,0:0:0:0:
390,275,1061,1,8,0:0:0:0:
390,275,1230,1,8,0:0:0:0:
390,275,1398,1,4,3:0:0:0:
208,192,1735,6,0,L|135:199,1,55,6|0,0:0|0:0,0:0:0:0:
70,202,2072,2,0,L|92:151,2,55,0|0|8,0:0|0:0|0:0,0:0:0:0:
202,300,2746,1,0,0:0:0:0:
220,136,3083,1,2,0:0:0:0:
70,202,3421,1,2,0:0:0:0:
202,300,3758,2,0,L|256:294,2,55,8|2|0,0:0|0:0|0:0,0:0:0:0:
220,136,4432,6,0,L|225:190,1,55,2|0,0:0|0:0,0:0:0:0:
271,72,4769,2,0,L|220:49,2,55,0|0|8,0:0|0:0|0:0,0:0:0:0:
434,46,5443,1,0,0:0:0:0:
375,200,5780,1,2,0:0:0:0:
271,72,6117,1,2,0:0:0:0:
434,46,6454,2,0,L|439:100,2,55,8|2|0,0:0|0:0|0:0,0:0:0:0:
375,200,7128,6,0,L|320:205,1,55,2|0,0:0|0:0,0:0:0:0:
238,219,7465,2,0,L|269:263,2,55,0|0|8,0:0|0:0|0:0,0:0:0:0:
145,81,8140,1,0,0:0:0:0:
72,229,8477,1,2,0:0:0:0:
238,219,8814,1,2,0:0:0:0:
145,81,9151,2,0,L|90:86,2,55,8|2|0,0:0|0:0|0:0,0:0:0:0:
72,229,9825,6,0,L|77:283,1,55,2|0,0:0|0:0,0:0:0:0:
93,364,10162,2,0,L|137:332,2,55,0|0|8,0:0|0:0|0:0,0:0:0:0:
223,263,10836,2,0,L|304:276,1,55,2|0,0:0|0:0,0:0:0:0:
377,123,11173,1,2,0:0:0:0:
327,197,11342,2,0,L|273:189,1,55,2|2,0:0|0:0,0:0:0:0:
193,177,11679,1,2,0:0:0:0:
275,48,11847,2,0,B|329:55,1,55,8|0,0:0|0:0,0:0:0:0:
463,52,12185,1,8,0:0:0:0:
463,52,12353,1,8,0:0:0:0:
463,52,12522,6,0,L|468:106,1,55,6|0,0:0|0:0,0:0:0:0:
425,179,12859,2,0,L|430:233,2,55,0|0|8,0:0|0:0|0:0,0:0:0:0:
288,86,13533,1,0,0:0:0:0:
275,251,13870,1,2,0:0:0:0:
138,157,14207,1,2,0:0:0:0:
125,322,14544,1,8,0:0:0:0:
125,322,14713,1,2,0:0:0:0:
125,322,14881,1,0,0:0:0:0:
275,251,15218,6,0,L|280:305,1,55,2|0,0:0|0:0,0:0:0:0:
202,275,15555,2,0,L|152:252,2,55,0|0|8,0:0|0:0|0:0,0:0:0:0:
148,130,16230,1,0,0:0:0:0:
10,222,16567,1,2,0:0:0:0:
159,296,16904,1,2,0:0:0:0:
148,130,17241,1,8,0:0:0:0:
148,130,17409,1,0,0:0:0:0:
148,130,17578,1,2,0:0:0:0:
351,201,17915,6,0,L|346:254,1,55,2|0,0:0|0:0,0:0:0:0:
330,336,18252,2,0,L|285:304,2,55,0|0|8,0:0|0:0|0:0,0:0:0:0:
165,341,18926,1,2,0:0:0:0:
243,195,19263,1,2,0:0:0:0:
78,201,19600,1,2,0:0:0:0:
156,55,19937,1,8,0:0:0:0:
156,55,20106,1,2,0:0:0:0:
156,55,20274,1,0,0:0:0:0:
241,194,20612,6,0,P|180:215|117:197,1,131.99999597168,6|0,0:0|0:0,0:0:0:0:
211,66,21623,2,0,L|242:194,1,131.99999597168
323,150,22634,1,0,0:0:0:0:
406,189,22971,6,0,L|398:221,1,32.99999899292
440,239,23308,2,0,B|398:309|308:303|247:237|247:237|94:310,1,395.999987915039
22,119,26005,6,0,P|72:142|126:132,1,110,6|0,0:0|0:0,0:0:0:0:
208,61,26679,2,0,L|317:66,1,110,8|0,0:0|0:0,0:0:0:0:
487,161,27353,2,0,P|437:138|383:148,1,110,2|0,0:0|0:0,0:0:0:0:
301,219,28027,2,0,L|191:213,1,110,8|0,0:0|0:0,0:0:0:0:
99,274,28701,5,2,0:0:0:0:
188,339,29039,1,0,0:0:0:0:
294,310,29376,1,8,0:0:0:0:
383,375,29713,2,0,L|437:371,1,55
505,348,30050,2,0,L|395:354,1,110,2|0,0:0|0:0,0:0:0:0:
294,310,30724,1,8,0:0:0:0:
188,339,31061,1,2,0:0:0:0:
188,339,31230,1,0,0:0:0:0:
188,339,31398,6,0,L|78:333,1,110,2|0,0:0|0:0,0:0:0:0:
24,130,32072,2,0,L|19:240,1,110,8|0,0:0|0:0,0:0:0:0:
128,226,32746,2,0,L|237:220,1,110,2|0,0:0|0:0,0:0:0:0:
291,17,33420,2,0,L|296:126,1,110,8|0,0:0|0:0,0:0:0:0:
365,229,34095,5,2,0:0:0:0:
462,177,34432,1,0,0:0:0:0:
458,287,34769,1,8,0:0:0:0:
365,229,35106,2,0,P|338:228|311:243,1,55
295,262,35443,2,0,P|243:285|183:261,1,110,2|0,0:0|0:0,0:0:0:0:
105,333,36117,2,0,P|98:278|112:225,1,110,8|0,0:0|0:0,0:0:0:0:
99,152,36623,1,0,0:0:0:0:
99,152,36791,6,0,L|227:161,1,110,2|0,0:0|0:0,0:0:0:0:
317,176,37465,2,0,L|255:267,1,110,8|0,0:0|0:0,0:0:0:0:
364,280,38140,2,0,L|425:188,1,110,2|0,0:0|0:0,0:0:0:0:
482,94,38814,2,0,L|372:86,1,110,8|0,0:0|0:0,0:0:0:0:
273,38,39488,5,2,0:0:0:0:
178,94,39825,1,0,0:0:0:0:
105,11,40162,1,8,0:0:0:0:
9,66,40499,2,0,P|6:92|19:119,1,55
15,158,40836,2,0,P|51:170|124:158,1,110,2|0,0:0|0:0,0:0:0:0:
210,95,41510,1,8,0:0:0:0:
126,262,41847,1,2,0:0:0:0:
314,251,42185,6,0,B|363:224|419:249|419:249|448:184|498:179,1,220,2|8,0:0|0:0,0:0:0:0:
448,81,43196,1,0,0:0:0:0:
356,142,43533,2,0,B|307:114|251:139|251:139|222:74|171:70,1,220,2|8,0:0|0:0,0:0:0:0:
49,91,44544,6,0,L|34:161,1,55
28,176,44881,2,0,L|136:190,1,110,2|0,0:0|0:0,0:0:0:0:
73,281,45555,2,0,L|181:295,1,110,8|0,0:0|0:0,0:0:0:0:
300,319,46230,2,0,L|292:373,2,55,2|0|8,0:0|0:0|0:0,0:0:0:0:
320,199,46904,1,4,3:0:0:0:
72,158,47241,5,2,0:0:0:0:
72,158,47409,1,2,0:0:0:0:
72,158,47578,1,6,0:0:0:0:
215,63,47915,1,0,0:0:0:0:
320,199,48252,1,8,0:0:0:0:
177,294,48589,1,0,0:0:0:0:
72,157,48926,2,0,P|133:136|195:155,1,131.99999597168,2|0,0:0|0:0,0:0:0:0:
300,291,49600,2,0,P|238:312|176:293,1,131.99999597168,8|0,0:0|0:0,0:0:0:0:
72,157,50274,5,2,0:0:0:0:
176,293,50612,1,0,0:0:0:0:
242,135,50949,1,8,0:0:0:0:
72,157,51286,1,0,0:0:0:0:
273,240,51623,5,2,0:0:0:0:
68,267,51960,1,0,0:0:0:0:
148,76,52297,1,8,0:0:0:0:
426,243,52634,6,0,P|421:210|433:179,1,65.9999979858399
452,147,52971,2,0,L|320:131,1,131.99999597168,2|0,0:0|0:0,0:0:0:0:
166,56,53645,2,0,L|182:188,1,131.99999597168,8|0,0:0|0:0,0:0:0:0:
326,279,54319,1,2,0:0:0:0:
164,337,54656,1,0,0:0:0:0:
50,171,54994,2,0,L|182:187,1,131.99999597168,8|0,0:0|0:0,0:0:0:0:
436,145,55668,5,2,0:0:0:0:
274,203,56005,1,0,0:0:0:0:
304,33,56342,1,8,0:0:0:0:
436,145,56679,1,0,0:0:0:0:
219,105,57016,5,2,0:0:0:0:
378,240,57353,1,2,0:0:0:0:
415,34,57690,1,8,0:0:0:0:
274,203,58027,5,0,0:0:0:0:
274,203,58196,1,0,0:0:0:0:
274,203,58364,2,0,P|213:177|148:190,1,131.99999597168,6|0,0:0|0:0,0:0:0:0:
349,275,59039,2,0,P|375:214|361:149,1,131.99999597168,8|0,0:0|0:0,0:0:0:0:
236,34,59713,1,2,0:0:0:0:
274,203,60050,1,0,0:0:0:0:
187,351,60387,2,0,P|123:363|63:337,1,131.99999597168,8|0,0:0|0:0,0:0:0:0:
101,169,61061,5,2,0:0:0:0:
191,314,61398,1,0,0:0:0:0:
411,169,61735,1,8,0:0:0:0:
321,314,62072,1,0,0:0:0:0:
196,112,62409,2,0,P|255:87|315:111,2,131.99999597168,2|0|8,0:0|0:0|0:0,0:0:0:0:
44,57,63421,6,0,P|58:89|57:120,1,65.9999979858399,2|0,0:0|0:0,0:0:0:0:
43,150,63758,2,0,P|13:207|24:270,1,131.99999597168,6|0,0:0|0:0,0:0:0:0:
169,255,64432,1,8,0:0:0:0:
276,331,64769,1,8,0:0:0:0:
414,160,65106,5,2,0:0:0:0:
196,126,65443,1,8,0:0:0:0:
276,331,65780,1,8,0:0:0:0:
414,160,66117,1,2,0:0:0:0:
196,126,66454,6,0,L|201:191,1,65.9999979858399,6|0,0:0|0:0,0:0:0:0:
113,186,66791,2,0,L|145:242,1,65.9999979858399,2|0,0:0|0:0,0:0:0:0:
285,178,67128,2,0,L|262:239,1,65.9999979858399,2|0,0:0|0:0,0:0:0:0:
63,275,67465,2,0,L|116:312,1,65.9999979858399,8|0,0:0|0:0,0:0:0:0:
343,262,67794,2,0,L|296:307,1,65.9999979858399,6|0,0:0|0:3,0:3:0:0:
267,335,68061,1,8,0:0:0:0:
267,335,68151,1,8,0:0:0:0:
143,333,68318,1,8,0:0:0:0:
343,262,68486,5,8,0:0:0:0:
343,262,68655,1,4,3:0:0:0:
113,186,68823,1,4,3:0:0:0:
293,24,68992,1,4,3:0:0:0:
431,251,69156,6,0,P|374:343|270:315,1,230.99999295044,6|0,0:0|0:0,0:0:0:0:
113,186,69830,2,0,L|188:200,1,76.9999976501466,8|0,0:0|0:0,0:0:0:0:
293,294,70167,2,0,L|218:280,1,76.9999976501466,2|0,0:0|0:0,0:0:0:0:
312,58,70504,2,0,B|331:100|309:128|309:128|276:169|310:218,2,153.999995300293,2|2|8,0:0|0:0|0:0,0:0:0:0:
38,184,71515,1,0,0:0:0:0:
65,42,71684,1,0,0:0:0:0:
22,168,71852,6,0,L|98:158,1,76.9999976501466,2|0,0:0|0:0,0:0:0:0:
234,271,72190,2,0,L|157:280,1,76.9999976501466,2|0,0:0|0:0,0:0:0:0:
287,150,72527,2,0,L|363:140,1,76.9999976501466,8|0,0:0|0:0,0:0:0:0:
499,253,72863,2,0,L|422:262,1,76.9999976501466
144,122,73201,6,0,B|192:115|192:115|227:81|227:81|283:74,1,153.999995300293,2|0,0:0|0:0,0:0:0:0:
388,22,73706,1,2,0:0:0:0:
270,171,73875,1,8,0:0:0:0:
409,65,74044,2,0,P|473:119|393:142,1,192.499994125366,2|0,0:0|0:0,0:0:0:0:
375,134,74549,6,0,P|339:120|301:121,1,76.9999976501466,6|0,0:0|0:0,0:0:0:0:
91,205,74886,2,0,P|126:218|164:217,1,76.9999976501466
128,36,75223,2,0,L|154:116,1,76.9999976501466,8|0,0:0|0:0,0:0:0:0:
266,294,75560,2,0,L|289:220,1,76.9999976501466,2|0,0:0|0:0,0:0:0:0:
91,205,75897,2,0,B|67:239|100:280|100:280|122:308|103:348,2,153.999995300293,2|2|8,0:0|0:0|0:0,0:0:0:0:
300,247,76909,1,0,0:0:0:0:
366,35,77246,6,0,P|365:70|358:111,1,76.9999976501466,2|0,0:0|0:0,0:0:0:0:
280,177,77583,2,0,P|280:212|287:253,1,76.9999976501466,2|0,0:0|0:0,0:0:0:0:
490,339,77920,2,0,P|374:334|261:356,1,230.99999295044,8|0,0:0|0:0,0:0:0:0:
143,384,78594,2,0,P|136:346|135:307,1,76.9999976501466,2|0,0:0|0:0,0:0:0:0:
119,173,78931,2,0,P|155:186|188:204,1,76.9999976501466,2|0,0:0|0:0,0:0:0:0:
264,313,79268,1,8,0:0:0:0:
246,334,79605,5,8,0:0:0:0:
477,269,79773,1,8,0:0:0:0:
325,76,79942,6,0,B|249:92|177:68|177:68|93:108,1,230.99999295044,6|0,0:0|0:0,0:0:0:0:
28,200,80617,2,0,P|44:236|52:273,1,76.9999976501466,8|0,0:0|0:0,0:0:0:0:
174,279,80954,2,0,P|158:314|150:351,1,76.9999976501466,2|0,0:0|0:0,0:0:0:0:
216,156,81291,2,0,P|287:136|351:175,2,153.999995300293,2|2|8,0:0|0:0|0:0,0:0:0:0:
505,180,82302,1,0,0:0:0:0:
451,338,82470,1,0,0:0:0:0:
473,186,82639,6,0,L|483:110,1,76.9999976501466,2|0,0:0|0:0,0:0:0:0:
355,0,82976,2,0,L|365:76,1,76.9999976501466,2|0,0:0|0:0,0:0:0:0:
409,326,83313,2,0,L|419:250,1,76.9999976501466,8|0,0:0|0:0,0:0:0:0:
291,140,83650,2,0,L|301:216,1,76.9999976501466
218,354,83987,6,0,P|181:361|144:352,1,76.9999976501466,6|0,0:0|0:0,0:0:0:0:
206,120,84324,2,0,P|230:148|241:185,1,76.9999976501466,2|0,0:0|0:0,0:0:0:0:
10,248,84661,2,0,P|22:212|48:184,1,76.9999976501466,8|0,0:0|0:0,0:0:0:0:
218,354,84999,2,0,P|181:361|144:352,1,76.9999976501466,6|0,0:0|0:0,0:0:0:0:
381,105,85336,6,0,B|384:146|349:174|349:174|381:205|373:242,1,153.999995300293,6|0,0:0|0:0,0:0:0:0:
321,346,85841,1,0,0:0:0:0:
188,357,86010,2,0,P|188:322|200:271,1,76.9999976501466,8|0,0:0|0:0,0:0:0:0:
92,236,86347,2,0,P|91:201|80:150,1,76.9999976501466,2|0,0:0|0:0,0:0:0:0:
201,52,86684,2,0,P|139:42|47:36,2,153.999995300293,2|2|8,0:0|0:0|0:0,0:0:0:0:
434,5,87695,1,0,0:0:0:0:
492,213,88032,6,0,P|455:223|419:213,1,76.9999976501466,2|0,0:0|0:0,0:0:0:0:
163,65,88369,2,0,L|250:74,1,76.9999976501466,8|0,0:0|0:0,0:0:0:0:
318,310,88706,2,0,L|241:317,1,76.9999976501466,8|0,0:0|0:0,0:0:0:0:
56,229,89044,2,0,P|93:219|129:229,1,76.9999976501466,2|0,0:0|0:0,0:0:0:0:
166,349,89381,1,2,0:0:0:0:
229,179,89549,1,2,0:0:0:0:
233,193,89633,1,2,0:0:0:0:
237,207,89718,2,0,B|253:256|253:256|220:257,1,76.9999976501466,8|0,0:0|0:0,0:0:0:0:
74,142,90055,5,8,0:0:0:0:
301,87,90223,1,8,0:0:0:0:
63,126,90392,1,2,0:0:0:0:
290,71,90560,1,2,0:0:0:0:
399,309,90732,6,0,L|321:292,1,65.9999979858399,12|0,0:0|0:0,0:0:0:0:
63,126,91069,2,0,L|83:188,1,65.9999979858399,2|0,0:0|0:0,0:0:0:0:
20,262,91406,2,0,L|84:276,1,65.9999979858399,8|0,0:0|0:0,0:0:0:0:
116,367,91743,2,0,L|160:318,1,65.9999979858399,2|0,0:0|0:0,0:0:0:0:
196,49,92080,6,0,L|181:113,1,65.9999979858399,8|0,0:0|0:0,0:0:0:0:
307,384,92417,2,0,L|350:335,1,65.9999979858399,2|0,0:0|0:0,0:0:0:0:
446,353,92754,2,0,L|426:290,1,65.9999979858399,8|0,0:0|0:0,0:0:0:0:
489,217,93091,2,0,L|424:203,1,65.9999979858399,2|0,0:0|0:0,0:0:0:0:
140,187,93428,6,0,L|203:166,1,65.9999979858399,8|0,0:0|0:0,0:0:0:0:
406,49,93765,2,0,L|469:28,1,65.9999979858399,2|0,0:0|0:0,0:0:0:0:
451,123,94102,2,0,L|499:167,1,65.9999979858399,8|0,0:0|0:0,0:0:0:0:
407,200,94439,2,0,L|394:263,1,65.9999979858399,2|0,0:0|0:0,0:0:0:0:
80,323,94776,6,0,P|71:292|76:260,1,65.9999979858399,8|0,0:0|0:0,0:0:0:0:
253,47,95114,2,0,P|262:78|257:110,1,65.9999979858399,2|0,0:0|0:0,0:0:0:0:
62,313,95451,2,0,P|52:281|57:249,1,65.9999979858399,8|0,0:0|0:0,0:0:0:0:
161,39,95788,1,2,0:0:0:0:
209,238,95956,1,2,0:0:0:0:
410,209,96125,6,0,P|415:178|409:143,1,65.9999979858399,12|0,0:0|0:0,0:0:0:0:
32,100,96462,2,0,P|55:120|88:131,1,65.9999979858399,2|0,0:0|0:0,0:0:0:0:
92,215,96799,2,0,P|121:204|148:181,1,65.9999979858399,8|0,0:0|0:0,0:0:0:0:
221,220,97136,2,0,P|226:189|220:154,1,65.9999979858399,2|0,0:0|0:0,0:0:0:0:
450,27,97473,6,0,P|443:59|449:91,1,65.9999979858399,8|0,0:0|0:0,0:0:0:0:
283,340,97810,2,0,P|253:329|226:306,1,65.9999979858399,2|0,0:0|0:0,0:0:0:0:
153,345,98147,2,0,P|147:314|153:279,1,65.9999979858399,8|0,0:0|0:0,0:0:0:0:
84,236,98484,2,0,P|107:215|140:204,1,65.9999979858399,2|0,0:0|0:0,0:0:0:0:
448,247,98821,6,0,P|416:236|391:215,1,65.9999979858399,8|0,0:0|0:0,0:0:0:0:
165,22,99158,2,0,P|144:45|132:79,1,65.9999979858399,2|0,0:0|0:0,0:0:0:0:
49,82,99496,2,0,P|58:110|81:138,1,65.9999979858399,8|0,0:0|0:0,0:0:0:0:
44,211,99833,2,0,P|73:216|107:209,1,65.9999979858399,2|0,0:0|0:0,0:0:0:0:
415,318,100170,6,0,L|419:247,1,65.9999979858399,8|0,0:0|0:0,0:0:0:0:
262,46,100507,2,0,L|257:111,1,65.9999979858399,2|0,0:0|0:0,0:0:0:0:
447,337,100844,2,0,L|451:266,1,65.9999979858399,8|0,0:0|0:0,0:0:0:0:
354,35,101193,1,2,0:0:0:0:
150,62,101357,1,2,0:0:0:0:
365,57,101521,6,0,P|397:60|428:49,1,65.9999979858399,12|0,0:0|0:0,0:0:0:0:
138,39,101858,2,0,P|105:35|74:46,1,65.9999979858399,2|0,0:0|0:0,0:0:0:0:
72,232,102195,2,0,P|102:243|211:212,1,131.99999597168,8|2,0:0|0:0,0:0:0:0:
262,149,102700,1,0,0:0:0:0:
383,39,102869,6,0,L|367:104,1,65.9999979858399,8|0,0:0|0:0,0:0:0:0:
432,189,103206,2,0,L|368:202,1,65.9999979858399,2|0,0:0|0:0,0:0:0:0:
357,305,103543,2,0,L|230:272,1,131.99999597168,8|2,0:0|0:0,0:0:0:0:
141,188,104049,1,0,0:0:0:0:
202,74,104212,6,0,L|137:86,1,65.9999979858399,8|0,0:0|0:0,0:0:0:0:
297,161,104549,2,0,L|361:173,1,65.9999979858399,2|0,0:0|0:0,0:0:0:0:
141,188,104886,2,0,L|5:215,1,131.99999597168,8|2,0:0|0:0,0:0:0:0:
137,85,105392,1,0,0:0:0:0:
214,296,105560,6,0,L|227:214,1,65.9999979858399,8|0,0:0|0:0,0:0:0:0:
75,305,105898,2,0,L|64:370,1,65.9999979858399,2|0,0:0|0:0,0:0:0:0:
246,260,106235,2,0,L|271:100,1,131.99999597168,8|2,0:0|0:0,0:0:0:0:
137,243,106740,1,0,0:0:0:0:
333,341,106919,6,0,B|377:329|377:329|359:318,1,65.9999979858399,12|0,0:0|0:0,0:0:0:0:
429,193,107256,2,0,B|430:147|430:147|415:160,1,65.9999979858399,2|0,0:0|0:0,0:0:0:0:
317,56,107593,2,0,B|273:40|273:40|281:59,1,65.9999979858399,8|0,0:0|0:0,0:0:0:0:
152,119,107930,2,0,B|124:155|124:155|144:153,1,65.9999979858399,2|0,0:0|0:0,0:0:0:0:
192,313,108267,6,0,B|187:332|187:332|162:295,1,65.9999979858399,12|0,0:0|0:0,0:0:0:0:
144,153,108604,2,0,B|124:155|124:155|152:119,1,65.9999979858399,2|0,0:0|0:0,0:0:0:0:
281,59,108941,2,0,B|273:40|273:40|317:56,1,65.9999979858399,8|0,0:0|0:0,0:0:0:0:
415,160,109278,2,0,B|430:147|430:147|429:193,1,65.9999979858399,2|0,0:0|0:0,0:0:0:0:
333,341,109615,6,0,P|343:362|344:338,1,60.5000018463135,12|0,0:0|0:0,0:0:0:0:
269,209,109953,2,0,P|267:185|257:206,1,60.5000018463135,2|0,0:0|0:0,0:0:0:0:
367,62,110290,6,0,P|396:58|368:46,1,76.9999976501466,8|0,0:0|0:0,0:0:0:0:
180,81,110627,2,0,P|151:74|172:94,1,76.9999976501466,2|0,0:0|0:0,0:0:0:0:
235,298,110964,6,0,P|201:315|221:282,1,93.500001783371,8|0,0:0|0:0,0:0:0:0:
254,51,111301,2,0,P|280:23|272:60,1,93.500001783371,2|0,0:0|0:0,0:0:0:0:
375,294,111638,6,0,P|380:334|353:303,1,110,8|0,0:0|0:0,0:0:0:0:
106,181,111975,2,0,P|86:144|122:165,1,110,2|0,0:0|0:0,0:0:0:0:
426,219,112312,6,0,P|307:225|267:340,2,253.000004825592,12|2|2,0:0|0:0|0:0,0:0:0:0:
426,119,113148,1,8,0:0:0:0:
372,313,113320,1,8,0:0:0:0:
248,162,113492,1,8,0:0:0:0:
197,337,113668,6,0,L|131:331,1,65.9999979858399,6|0,0:0|0:0,0:0:0:0:
114,321,113935,1,8,0:0:0:0:
97,311,114025,1,8,0:0:0:0:
39,155,114177,1,8,0:0:0:0:
145,27,114330,1,8,0:0:0:0:
308,54,114506,1,8,0:0:0:0:
366,208,114682,6,0,L|302:200,1,61.875002360344,4|0,3:0|0:0,0:0:0:0:
229,264,114998,6,0,P|358:262|382:135,1,280.500005350113,6|0,0:0|0:0,0:0:0:0:
205,24,115672,2,0,P|210:70|222:115,1,93.500001783371,8|0,0:0|0:0,0:0:0:0:
49,233,116009,2,0,P|60:187|66:141,1,93.500001783371,2|0,0:0|0:0,0:0:0:0:
332,291,116346,2,0,P|262:349|173:334,2,187.000003566742,2|2|8,0:0|0:0|0:0,0:0:0:0:
468,39,117357,1,0,0:0:0:0:
271,100,117526,1,0,0:0:0:0:
455,62,117694,6,0,P|446:108|442:154,1,93.500001783371,2|0,0:0|0:0,0:0:0:0:
408,336,118031,2,0,P|404:289|395:243,1,93.500001783371,2|0,0:0|0:0,0:0:0:0:
343,28,118368,2,0,P|334:74|330:120,1,93.500001783371,8|0,0:0|0:0,0:0:0:0:
296,302,118705,2,0,P|292:255|283:209,1,93.500001783371
150,46,119043,6,0,P|63:44|29:125,1,187.000003566742,2|0,0:0|0:0,0:0:0:0:
63,297,119548,1,2,0:0:0:0:
105,109,119717,1,8,0:0:0:0:
78,325,119885,2,0,L|314:318,1,233.750004458428,2|0,0:0|0:0,0:0:0:0:
381,307,120391,6,0,P|338:289|292:297,1,93.500001783371,6|0,0:0|0:0,0:0:0:0:
440,148,120728,2,0,P|446:193|476:228,1,93.500001783371
334,98,121065,2,0,P|340:52|370:17,1,93.500001783371,8|0,0:0|0:0,0:0:0:0:
270,193,121402,2,0,P|224:201|181:183,1,93.500001783371,2|0,0:0|0:0,0:0:0:0:
41,177,121739,2,0,B|31:230|31:230|61:306|61:306|50:363,2,187.000003566742,2|2|8,0:0|0:0|0:0,0:0:0:0:
182,11,122751,1,0,0:0:0:0:
432,71,123088,6,0,B|439:144|439:144|416:170,1,93.500001783371,2|0,0:0|0:0,0:0:0:0:
239,121,123425,2,0,B|232:194|232:194|255:220,1,93.500001783371,2|0,0:0|0:0,0:0:0:0:
501,318,123762,2,0,B|411:316|342:363|342:363|220:332,1,280.500005350113,8|0,0:0|0:0,0:0:0:0:
31,283,124436,2,0,P|24:237|39:193,1,93.500001783371,2|0,0:0|0:0,0:0:0:0:
242,72,124773,2,0,P|248:117|233:161,1,93.500001783371,2|0,0:0|0:0,0:0:0:0:
32,60,125110,1,8,0:0:0:0:
18,88,125447,5,8,0:0:0:0:
169,323,125615,1,8,0:0:0:0:
373,85,125784,6,0,B|389:55|449:39|487:100|470:205|307:153,1,280.500005350113,6|0,0:0|0:0,0:0:0:0:
117,53,126458,2,0,L|144:163,1,93.500001783371,8|0,0:0|0:0,0:0:0:0:
49,286,126795,2,0,L|157:317,1,93.500001783371,2|0,0:0|0:0,0:0:0:0:
395,221,127132,2,0,B|277:254|277:254|208:232,2,187.000003566742,2|2|8,0:0|0:0|0:0,0:0:0:0:
179,77,128144,1,0,0:0:0:0:
132,293,128312,1,0,0:0:0:0:
165,49,128481,6,0,L|274:68,1,93.500001783371,2|0,0:0|0:0,0:0:0:0:
465,48,128818,2,0,L|372:31,1,93.500001783371,2|0,0:0|0:0,0:0:0:0:
124,144,129155,2,0,L|233:163,1,93.500001783371,8|0,0:0|0:0,0:0:0:0:
424,143,129492,2,0,L|331:126,1,93.500001783371
98,165,129829,6,0,P|89:211|107:253,1,93.500001783371,6|0,0:0|0:0,0:0:0:0:
446,249,130166,2,0,P|454:203|436:161,1,93.500001783371,2|0,0:0|0:0,0:0:0:0:
80,161,130503,2,0,P|70:211|91:257,1,93.500001783371,8|0,0:0|0:0,0:0:0:0:
463,253,130840,2,0,P|473:203|452:157,1,93.500001783371,2|0,0:0|0:0,0:0:0:0:
163,58,131177,6,0,P|247:96|335:78,1,187.000003566742,6|0,0:0|0:0,0:0:0:0:
56,144,131683,1,0,0:0:0:0:
121,303,131851,2,0,P|164:287|211:279,1,93.500001783371,8|0,0:0|0:0,0:0:0:0:
363,205,132189,2,0,P|406:220|453:228,1,93.500001783371,2|0,0:0|0:0,0:0:0:0:
223,37,132526,2,0,B|199:87|230:126|230:126|262:170|240:213,2,187.000003566742,2|2|8,0:0|0:0|0:0,0:0:0:0:
33,222,133537,1,0,0:0:0:0:
268,351,133874,6,0,L|246:239,1,93.500001783371,2|0,0:0|0:0,0:0:0:0:
331,37,134211,2,0,L|312:128,1,93.500001783371,2|0,0:0|0:0,0:0:0:0:
114,156,134548,2,0,L|205:174,1,93.500001783371,8|0,0:0|0:0,0:0:0:0:
428,219,134885,2,0,L|336:237,1,93.500001783371
49,66,135222,6,0,P|4:145|30:232,2,187.000003566742,2|2|8,0:0|0:0|0:0,0:0:0:0:
205,174,136065,1,0,0:0:0:0:
205,174,136233,2,0,L|114:156,1,93.500001783371,2|0,0:0|0:0,0:0:0:0:
377,43,136571,6,0,P|422:53|457:83,1,93.500001783371,6|0,0:0|0:0,0:0:0:0:
135,43,136908,2,0,P|89:53|54:83,1,93.500001783371,2|0,0:0|0:0,0:0:0:0:
457,83,137245,2,0,P|481:122|485:168,1,93.500001783371,2|0,0:0|0:0,0:0:0:0:
55,83,137582,2,0,P|30:122|26:168,1,93.500001783371,2|0,0:0|0:0,0:0:0:0:
485,168,137919,2,0,P|474:213|444:248,1,93.500001783371,2|0,0:0|0:0,0:0:0:0:
27,168,138256,2,0,P|37:213|67:248,1,93.500001783371,2|0,0:0|0:0,0:0:0:0:
352,191,138593,5,2,0:0:0:0:
207,107,138762,1,2,0:0:0:0:
207,276,138930,1,2,0:0:0:0:
352,191,139099,1,2,0:0:0:0:
88,89,139267,5,8,0:0:0:0:
325,56,139436,1,8,0:0:0:0:
144,212,139604,1,8,0:0:0:0:
325,56,139773,1,8,0:0:0:0:
341,353,139941,5,8,0:0:0:0:
68,256,140110,1,8,0:0:0:0:
352,191,140278,1,8,0:0:0:0:
68,256,140447,1,8,0:0:0:0:
260,0,140616,5,12,0:0:0:0:
256,192,140784,12,0,149717,0:0:0:0:
