osu file format v14

[General]
AudioFilename: audio.mp3
AudioLeadIn: 0
PreviewTime: 50433
Countdown: 0
SampleSet: None
StackLeniency: 0.7
Mode: 0
LetterboxInBreaks: 0
WidescreenStoryboard: 1

[Editor]
DistanceSpacing: 1.3
BeatDivisor: 4
GridSize: 4
TimelineZoom: 1.6

[Metadata]
Title:Yuugure
TitleUnicode:夕暮れ
Artist:THE ROLLING GIRLS
ArtistUnicode:THE ROLLING GIRLS
Creator:searchingfor
Version:Normal
Source:ローリング☆ガールズ
Tags:小澤亜李 Ozawa Ari 日高里菜 Hidaka Rina 種田梨沙 Taneda Risa 花守ゆみり Hanamori Yumiri THE BLUE HEARTS
BeatmapID:993243
BeatmapSetID:449448

[Difficulty]
HPDrainRate:4
CircleSize:3.5
OverallDifficulty:4
ApproachRate:5
SliderMultiplier:1.3
SliderTickRate:1

[Events]
//Background and Video events
0,0,"B.jpg",0,0
//Break Periods
//Storyboard Layer 0 (Background)
//Storyboard Layer 1 (Fail)
//Storyboard Layer 2 (Pass)
//Storyboard Layer 3 (Foreground)
//Storyboard Sound Samples

[TimingPoints]
1745,491.803278688525,4,1,0,43,1,0
17482,-100,4,1,0,36,0,0
50925,-100,4,1,0,51,0,1
56826,-100,4,1,0,46,0,0
58794,-100,4,1,0,57,0,1
62728,-100,4,1,0,46,0,0
66663,-100,4,1,0,36,0,0
100105,-100,4,1,0,51,0,1
106007,-100,4,1,0,46,0,0
107974,-100,4,1,0,57,0,1
111908,-100,4,1,0,46,0,0
115843,491.803278688525,4,1,0,43,1,0

[HitObjects]
132,100,1745,6,0,P|112:168|140:228,1,130
196,276,2482,1,0,0:0:0:0:
252,212,2728,2,0,B|284:196|284:196|404:212,1,130
272,340,3712,2,0,P|200:344|160:300,1,130
108,244,4449,1,0,0:0:0:0:
188,220,4695,2,0,L|196:132,2,65
320,116,5679,6,0,P|337:177|308:236,1,130
248,296,6417,1,0,0:0:0:0:
220,216,6663,2,0,B|180:212|180:212|164:260|100:272,1,130
100,184,7400,1,0,0:0:0:0:
156,120,7646,2,0,P|176:72|268:56,1,130
332,56,8384,1,0,0:0:0:0:
284,128,8630,2,0,L|288:200,2,65
116,148,9613,6,0,P|96:208|140:276,1,130
188,324,10351,1,0,0:0:0:0:
240,256,10597,2,0,B|264:228|264:228|376:236,1,130
380,68,11581,2,0,B|336:68|336:68|320:120|328:156,1,130
348,236,12318,1,0,0:0:0:0:
268,212,12564,2,0,P|188:192|132:216,1,130
284,300,13548,6,0,P|364:320|420:296,1,130
456,236,14285,1,0,0:0:0:0:
380,200,14531,2,0,B|348:180|348:180|360:80,1,130
188,88,15515,6,0,L|200:12,2,65
120,136,16253,1,0,0:0:0:0:
196,168,16499,2,0,P|256:204|316:188,1,130
384,148,17236,1,0,0:0:0:0:
332,80,17482,6,0,P|272:44|212:60,1,130
140,96,18220,1,0,0:0:0:0:
200,152,18466,2,0,L|192:228,1,65
272,248,18958,2,0,L|264:324,2,65
344,208,19695,2,0,B|380:188|380:188|372:84,2,130
260,220,20925,5,0,0:0:0:0:
260,220,21171,2,0,L|168:212,2,65
328,168,21908,1,0,0:0:0:0:
384,228,22154,2,0,B|408:252|408:252|400:352,1,130
316,344,22892,2,0,L|320:276,1,65
268,212,23384,1,0,0:0:0:0:
312,140,23630,2,0,P|248:132|192:176,1,130
124,208,24367,6,0,L|48:220,1,65
72,304,24859,2,0,L|136:293,1,65
200,240,25351,1,0,0:0:0:0:
264,296,25597,2,0,P|332:300|376:256,1,130
300,216,26335,2,0,B|284:180|284:180|300:88,1,130
308,8,27072,1,0,0:0:0:0:
228,40,27318,6,0,L|136:32,2,65
296,92,28056,2,0,P|312:160|280:216,1,130
236,280,28794,2,0,L|248:352,1,65
328,364,29285,2,0,P|400:368|440:328,1,130
476,256,30023,5,0,0:0:0:0:
400,216,30269,2,0,L|396:128,1,65
316,128,30761,2,0,L|313:63,1,65
232,40,31253,2,0,P|164:28|116:68,1,130
68,132,31990,2,0,B|92:164|92:164|88:256,1,130
172,256,32728,2,0,L|176:176,1,65
156,108,33220,6,0,P|224:84|284:104,1,130
292,268,34204,2,0,L|296:196,1,65
212,192,34695,2,0,L|216:120,1,65
300,116,35187,2,0,B|328:92|328:92|432:104,1,130
476,168,35925,2,0,B|456:188|456:188|472:252|448:308,1,130
376,324,36663,1,0,0:0:0:0:
240,224,37154,6,0,B|200:224|176:248|176:248|128:244|108:212,1,130
80,152,37892,2,0,L|12:144,2,65
116,76,38630,2,0,L|180:83,1,65
252,132,39122,2,0,P|316:124|364:76,1,130
416,16,39859,2,0,B|444:40|444:40|436:140,1,130
380,196,40597,6,0,L|375:266,1,65
372,344,41089,1,0,0:0:0:0:
304,292,41335,2,0,P|230:296|185:248,1,130
256,208,42072,2,0,P|205:169|143:177,1,130
108,256,42810,1,0,0:0:0:0:
32,220,43056,6,0,B|-4:196|-4:196|4:92,1,130
80,76,43794,2,0,P|160:56|200:80,1,130
256,140,44531,2,0,L|328:144,1,65
380,208,45023,6,0,L|452:212,2,65
324,272,45761,2,0,P|256:312|200:288,1,130
156,236,46499,2,0,L|68:244,1,65
88,156,46990,2,0,L|152:150,1,65
236,168,47482,2,0,P|236:128|216:96,1,65
308,96,47974,2,0,P|295:66|297:34,2,65
376,252,48958,6,0,P|328:304|260:304,1,130
196,268,49695,1,0,0:0:0:0:
256,208,49941,2,0,L|260:136,1,65
176,124,50433,2,0,L|172:188,1,65
196,268,50925,6,0,P|248:296|312:276,1,130
376,216,51663,2,0,B|352:184|352:184|360:80,1,130
276,84,52400,2,0,L|272:168,1,65
188,160,52892,2,0,L|184:244,2,65
192,76,53630,2,0,B|224:52|224:52|332:60,1,130
392,96,54367,1,0,0:0:0:0:
308,244,54859,6,0,P|264:296|200:288,1,130
128,264,55597,1,0,0:0:0:0:
188,204,55843,2,0,L|180:120,2,65
260,248,56581,1,0,0:0:0:0:
320,188,56826,2,0,B|424:192|424:192|400:160,1,130
268,76,57810,2,0,B|164:72|164:72|188:104,1,130
192,260,58794,6,0,L|188:332,2,65
256,204,59531,1,0,0:0:0:0:
308,272,59777,2,0,B|344:296|344:296|452:284,1,130
484,224,60515,1,0,0:0:0:0:
416,176,60761,6,0,L|420:108,1,65
336,92,61253,2,0,L|332:156,1,65
376,232,61745,2,0,P|320:276|260:264,1,130
188,232,62482,1,0,0:0:0:0:
120,184,62728,6,0,B|80:160|80:160|76:104|112:68,1,130
168,32,63466,1,0,0:0:0:0:
236,84,63712,2,0,L|320:80,2,65
312,236,64695,2,0,L|308:304,2,65
244,184,65433,1,0,0:0:0:0:
188,120,65679,2,0,L|192:52,2,65
304,244,66663,6,0,B|344:224|344:224|344:176|328:128,1,130
292,64,67400,1,0,0:0:0:0:
216,100,67646,2,0,L|136:92,1,65
140,176,68138,2,0,L|204:182,1,65
284,156,68630,2,0,P|288:220|240:268,1,130
168,296,69367,1,0,0:0:0:0:
152,128,69859,2,0,L|80:120,2,65
216,72,70597,6,0,B|276:48|276:100|368:72,1,130
400,140,71335,1,0,0:0:0:0:
320,164,71581,2,0,B|324:208|368:224|368:224|352:252|356:292,1,130
332,352,72318,1,0,0:0:0:0:
268,300,72564,2,0,L|192:296,2,65
316,228,73302,2,0,P|352:176|328:96,1,130
256,116,74040,6,0,L|244:196,1,65
236,264,74531,1,0,0:0:0:0:
164,220,74777,2,0,P|108:224|48:168,1,130
128,140,75515,2,0,L|140:76,1,65
224,84,76007,2,0,L|212:148,1,65
260,216,76499,6,0,P|296:228|344:220,2,65
220,292,77236,2,0,P|160:312|112:268,1,130
100,188,77974,2,0,B|128:148|128:148|116:48,2,130
48,252,79204,1,0,0:0:0:0:
132,260,79449,6,0,L|200:272,1,65
244,204,79941,1,0,0:0:0:0:
316,248,80187,2,0,P|388:256|416:200,1,130
392,132,80925,2,0,L|400:64,1,65
316,56,81417,2,0,L|308:120,2,65
152,96,82400,6,0,B|96:91|96:91|80:139|96:187,1,130
112,244,83138,1,0,0:0:0:0:
184,200,83384,2,0,P|224:196|256:212,1,65
300,268,83876,2,0,P|330:277|362:272,1,65
424,332,84367,2,0,P|404:292|416:204,1,130
476,152,85105,2,0,L|480:68,1,65
312,96,85843,6,0,L|308:160,1,65
224,160,86335,2,0,L|220:224,2,65
284,100,87072,1,0,0:0:0:0:
348,156,87318,2,0,P|416:164|472:112,1,130
392,80,88056,1,0,0:0:0:0:
392,80,88302,2,0,B|404:112|404:112|400:216,1,130
340,268,89040,2,0,P|276:268|224:316,1,130
144,332,89777,6,0,L|76:324,2,65
160,248,90515,2,0,P|132:192|160:120,1,130
236,144,91253,2,0,L|244:232,2,65
288,76,91990,1,0,0:0:0:0:
288,76,92236,2,0,P|312:44|404:40,1,130
444,104,92974,2,0,B|464:132|464:132|452:240,1,130
376,264,93712,1,0,0:0:0:0:
224,192,94204,6,0,L|156:188,2,65
292,240,94941,2,0,P|368:240|396:188,1,130
404,116,95679,2,0,L|412:48,1,65
328,44,96171,2,0,L|320:108,1,65
244,144,96663,1,0,0:0:0:0:
176,96,96908,2,0,P|120:76|56:112,1,130
96,184,97646,2,0,L|168:176,1,65
244,160,98138,6,0,B|268:184|268:184|256:292,1,130
180,312,98876,1,0,0:0:0:0:
128,248,99122,2,0,L|48:236,2,65
220,108,100105,6,0,L|284:117,2,65
136,88,100843,2,0,B|100:112|100:112|104:224,1,130
184,224,101581,2,0,L|188:300,1,65
260,328,102072,2,0,P|312:312|336:316,1,65
408,320,102564,1,0,0:0:0:0:
452,248,102810,2,0,B|484:220|484:220|476:120,1,130
408,84,103548,1,0,0:0:0:0:
244,116,104040,6,0,P|176:108|112:152,1,130
64,196,104777,1,0,0:0:0:0:
148,208,105023,2,0,L|156:276,1,65
240,260,105515,2,0,L|232:195,1,65
224,112,106007,2,0,P|288:96|352:156,1,130
236,264,106990,2,0,P|172:280|108:220,1,130
184,92,107974,6,0,L|180:20,2,65
156,172,108712,1,0,0:0:0:0:
240,152,108958,2,0,B|272:176|272:176|384:160,1,130
444,148,109695,1,0,0:0:0:0:
412,228,109941,6,0,P|436:280|404:356,1,130
352,292,110679,1,0,0:0:0:0:
288,240,110925,2,0,P|220:232|188:288,1,130
140,348,111663,1,0,0:0:0:0:
92,280,111908,6,0,B|72:248|72:248|84:144,1,130
152,108,112646,1,0,0:0:0:0:
228,144,112892,2,0,L|292:132,1,65
308,216,113384,2,0,L|244:228,1,65
160,208,113876,6,0,B|136:184|136:184|144:80,1,130
220,52,114613,1,0,0:0:0:0:
280,108,114859,2,0,P|324:112|352:144,1,65
312,204,115351,2,0,P|268:200|240:168,1,65
