osu file format v14

[General]
AudioFilename: audio.mp3
AudioLeadIn: 0
PreviewTime: 50433
Countdown: 0
SampleSet: Normal
StackLeniency: 0.7
Mode: 0
LetterboxInBreaks: 0
WidescreenStoryboard: 0

[Editor]
DistanceSpacing: 1.2
BeatDivisor: 4
GridSize: 4
TimelineZoom: 1.6

[Metadata]
Title:Yuugure
TitleUnicode:夕暮れ
Artist:THE ROLLING GIRLS
ArtistUnicode:THE ROLLING GIRLS
Creator:searchingfor
Version:Hard
Source:ローリング☆ガールズ
Tags:小澤亜李 Ozawa Ari 日高里菜 Hidaka Rina 種田梨沙 Taneda Risa 花守ゆみり Hanamori Yumiri THE BLUE HEARTS
BeatmapID:964425
BeatmapSetID:449448

[Difficulty]
HPDrainRate:6
CircleSize:4
OverallDifficulty:6
ApproachRate:7
SliderMultiplier:1.4
SliderTickRate:2

[Events]
//Background and Video events
0,0,"B.jpg",0,0
//Break Periods
//Storyboard Layer 0 (Background)
//Storyboard Layer 1 (Fail)
//Storyboard Layer 2 (Pass)
//Storyboard Layer 3 (Foreground)
//Storyboard Sound Samples

[TimingPoints]
1745,491.803278688525,4,1,0,43,1,0
17482,-100,4,1,0,36,0,0
50925,-100,4,1,0,51,0,1
56826,-100,4,1,0,46,0,0
57810,-66.6666666666667,4,1,0,46,0,0
58794,-100,4,1,0,57,0,1
62728,-100,4,1,0,46,0,0
66663,-100,4,1,0,36,0,0
100105,-100,4,1,0,51,0,1
106007,-100,4,1,0,46,0,0
106990,-66.6666666666667,4,1,0,46,0,0
107974,-100,4,1,0,57,0,1
111908,-100,4,1,0,46,0,0
115843,491.803278688525,4,1,0,43,1,0

[HitObjects]
152,248,1745,6,0,B|188:224|188:224|284:236,1,140
344,296,2482,1,0,0:0:0:0:
384,224,2728,2,0,L|388:144,1,70
311,58,3220,2,0,L|308:128,1,70
304,172,3589,1,0,0:0:0:0:
304,172,3712,6,0,P|240:196|168:152,1,140
136,96,4449,1,0,0:0:0:0:
216,68,4695,2,0,L|296:76,1,70
421,134,5187,2,0,L|352:128,1,70
272,160,5679,6,0,P|244:232|280:296,1,140
344,320,6417,1,0,0:0:0:0:
376,240,6663,2,0,B|404:216|404:216|516:232,1,140
428,80,7646,2,0,B|400:104|400:104|288:88,1,140
216,76,8384,1,0,0:0:0:0:
248,156,8630,2,0,P|244:196|256:232,1,70
335,320,9122,2,0,P|340:285|332:252,1,70
188,276,9613,6,0,P|120:304|80:260,1,140
80,176,10351,1,0,0:0:0:0:
116,100,10597,2,0,L|200:104,1,70
301,175,11089,2,0,L|232:172,1,70
360,236,11581,6,0,B|340:196|340:196|352:96,1,140
364,20,12318,1,0,0:0:0:0:
284,52,12564,2,0,P|240:60|208:56,1,70
83,117,13056,2,0,P|117:109|152:112,1,70
268,196,13548,6,0,B|260:248|260:248|292:288|360:272,1,140
420,300,14285,1,0,0:0:0:0:
488,252,14531,2,0,L|492:168,1,70
413,66,15023,2,0,L|420:136,1,70
340,156,15515,6,0,P|284:168|236:152,1,105
204,136,16007,2,0,L|134:143,1,70
340,156,16499,2,0,P|332:212|344:244,1,70
460,212,16990,2,0,P|468:156|456:124,1,70
376,52,17482,6,0,P|284:44|260:84,1,140
248,156,18220,1,0,0:0:0:0:
332,152,18466,2,0,L|336:236,1,70
388,288,18958,1,0,0:0:0:0:
512,232,19204,1,0,0:0:0:0:
472,304,19449,1,0,0:0:0:0:
428,216,19695,1,0,0:0:0:0:
428,216,20187,6,0,P|436:140|380:88,1,140
312,88,20925,1,0,0:0:0:0:
228,88,21171,1,0,0:0:0:0:
276,216,21417,1,0,0:0:0:0:
208,168,21663,1,0,0:0:0:0:
336,160,21908,1,0,0:0:0:0:
336,160,22154,6,0,P|416:148|452:104,1,140
364,72,22892,1,0,0:0:0:0:
428,16,23138,1,0,0:0:0:0:
284,52,23384,1,0,0:0:0:0:
284,52,23630,2,0,B|236:40|236:40|140:56,1,140
140,140,24367,2,0,L|140:216,1,70
264,290,24859,6,0,L|264:220,1,70
204,160,25351,1,0,0:0:0:0:
340,184,25597,2,0,P|412:196|468:136,1,140
384,120,26335,2,0,B|409:155|409:155|412:260,1,140
416,336,27072,1,0,0:0:0:0:
292,272,27318,2,0,L|204:284,2,70
332,200,28056,2,0,P|340:120|300:72,1,140
232,116,28794,2,0,L|245:184,1,70
148,116,29285,6,0,B|168:222|168:222|136:212,1,140
60,184,30023,1,0,0:0:0:0:
132,296,30269,2,0,P|202:300|248:244,1,140
276,172,31007,1,0,0:0:0:0:
332,236,31253,2,0,L|424:244,2,70
196,196,31990,2,0,B|148:172|148:172|156:68,1,140
232,113,32728,2,0,L|236:44,1,70
308,152,33220,6,0,B|348:184|348:236|348:236|308:264,1,140
240,304,33958,1,0,0:0:0:0:
180,244,34204,2,0,L|100:240,1,70
44,188,34695,1,0,0:0:0:0:
20,268,34941,1,0,0:0:0:0:
124,160,35187,2,0,P|124:96|72:40,1,140
48,124,35925,2,0,L|196:96,1,140
263,132,36663,2,0,P|297:121|321:97,1,70
200,188,37154,6,0,B|200:244|176:260|176:260|180:300|212:320,1,140
272,360,37892,1,0,0:0:0:0:
336,304,38138,1,0,0:0:0:0:
420,324,38384,1,0,0:0:0:0:
320,220,38630,2,0,L|304:132,1,70
336,304,39122,2,0,P|272:296|228:236,1,140
216,156,39859,2,0,P|148:141|87:172,1,140
260,228,40597,6,0,L|268:308,2,70
336,192,41335,2,0,P|360:124|316:60,1,140
204,80,42072,2,0,P|180:148|224:212,1,140
280,252,42810,1,0,0:0:0:0:
211,203,43056,2,0,L|139:223,2,70
288,168,43794,2,0,B|300:128|300:128|280:31,1,140
200,48,44531,2,0,P|152:60|116:52,1,70
204,180,45023,6,0,P|169:178|136:189,2,70
256,248,45761,2,0,P|324:288|392:260,1,140
444,216,46499,2,0,L|448:128,1,70
368,116,46990,2,0,B|324:132|324:132|260:116,1,105
228,104,47482,2,0,P|220:144|236:188,1,70
119,263,47974,2,0,L|188:248,1,70
336,256,48466,2,0,L|268:272,1,70
226,171,48958,6,0,P|230:119|222:87,1,70
216,60,49326,1,0,0:0:0:0:
216,60,49449,2,0,L|300:56,1,70
348,112,49941,1,0,0:0:0:0:
360,196,50187,1,0,0:0:0:0:
284,164,50433,1,0,0:0:0:0:
428,148,50679,1,0,0:0:0:0:
292,248,50925,6,0,P|276:296|280:336,2,70
248,176,51663,2,0,P|176:160|128:208,1,140
104,280,52400,1,0,0:0:0:0:
48,216,52646,1,0,0:0:0:0:
188,268,52892,2,0,L|268:280,1,70
324,332,53384,1,0,0:0:0:0:
380,272,53630,2,0,P|404:196|376:132,1,140
304,136,54367,2,0,P|260:144|228:132,1,70
120,188,54859,6,0,P|116:252|172:300,1,140
252,312,55597,1,0,0:0:0:0:
384,236,55843,1,0,0:0:0:0:
300,244,56089,1,0,0:0:0:0:
260,128,56335,1,0,0:0:0:0:
336,168,56581,1,0,0:0:0:0:
224,204,56826,6,0,P|156:220|164:196,1,140
224,204,57810,6,0,P|148:216|164:196,1,210.000008010865
312,128,58794,5,0,0:0:0:0:
396,120,59040,1,0,0:0:0:0:
364,256,59285,1,0,0:0:0:0:
424,200,59531,1,0,0:0:0:0:
292,212,59777,2,0,B|240:204|240:204|144:232,1,140
80,268,60515,1,0,0:0:0:0:
96,140,60761,6,0,P|87:106|91:71,1,70
180,140,61253,2,0,P|186:105|205:76,1,70
144,216,61745,2,0,P|204:264|272:244,1,140
340,220,62482,1,0,0:0:0:0:
340,220,62728,6,0,B|380:180|380:180|384:132|336:84,1,140
284,56,63466,1,0,0:0:0:0:
224,112,63712,2,0,P|180:116|148:100,1,70
20,146,64204,2,0,P|55:141|88:152,1,70
164,188,64695,6,0,B|180:220|180:220|168:288,1,105
156,328,65187,2,0,P|208:340|252:328,1,70
300,304,65679,1,0,0:0:0:0:
356,240,65925,1,0,0:0:0:0:
380,320,66171,1,0,0:0:0:0:
272,220,66417,1,0,0:0:0:0:
187,179,66663,6,0,P|156:165|121:162,1,70
252,124,67154,2,0,L|256:32,1,70
340,44,67646,2,0,B|372:16|372:16|368:136,1,140
444,152,68384,1,0,0:0:0:0:
292,160,68630,2,0,P|252:156|220:132,1,70
144,152,69122,1,0,0:0:0:0:
76,200,69367,2,0,B|100:240|156:236|156:236|132:260|132:292,1,140
196,332,70105,2,0,L|276:336,1,70
356,248,70597,6,0,B|332:188|390:179|356:84,1,140
312,44,71335,1,0,0:0:0:0:
248,96,71581,2,0,L|172:92,2,70
316,144,72318,1,0,0:0:0:0:
243,183,72564,2,0,P|177:172|129:220,1,140
217,265,73302,2,0,P|284:275|331:228,1,140
412,196,74040,5,0,0:0:0:0:
360,44,74285,1,0,0:0:0:0:
360,128,74531,1,0,0:0:0:0:
288,88,74777,2,0,P|296:180|336:208,1,140
380,272,75515,2,0,B|360:308|360:308|248:296,1,140
180,312,76253,1,0,0:0:0:0:
112,264,76499,6,0,L|104:168,2,70
240,252,77236,2,0,B|228:136|228:136|260:156,1,140
332,164,77974,2,0,P|376:172|412:148,1,70
360,88,78466,2,0,P|300:84|248:156,1,140
272,220,79204,1,0,0:0:0:0:
192,196,79449,6,0,L|120:208,2,70
252,136,80187,2,0,P|273:78|217:21,1,140
154,63,80925,2,0,L|171:134,1,70
160,216,81417,1,0,0:0:0:0:
154,63,81663,1,0,0:0:0:0:
256,120,81908,1,0,0:0:0:0:
256,120,82400,6,0,P|188:134|128:101,1,140
84,28,83138,1,0,0:0:0:0:
128,101,83384,2,0,P|116:165|124:189,1,70
179,289,83876,2,0,P|188:255|184:221,1,70
264,193,84367,2,0,P|336:181|400:221,1,140
456,268,85105,1,0,0:0:0:0:
348,296,85351,2,0,P|336:224|376:160,1,140
220,84,86335,5,0,0:0:0:0:
140,108,86581,1,0,0:0:0:0:
224,212,86826,1,0,0:0:0:0:
140,192,87072,1,0,0:0:0:0:
280,144,87318,2,0,B|336:140|336:140|376:176|368:232,1,140
428,276,88056,1,0,0:0:0:0:
284,276,88302,2,0,L|214:279,2,70
184,200,89040,2,0,P|119:175|52:192,1,140
228,271,89777,6,0,P|226:306|237:339,2,70
308,248,90515,2,0,P|344:184|316:112,1,140
268,60,91253,2,0,P|233:61|200:50,1,70
56,78,91745,2,0,P|90:77|124:88,1,70
192,140,92236,1,0,0:0:0:0:
192,140,92482,2,0,B|172:184|172:184|208:240|188:296,1,140
280,280,93220,2,0,P|314:286|348:280,1,70
275,196,93712,2,0,P|310:189|340:171,1,70
204,152,94204,6,0,P|136:144|80:200,1,140
160,220,94941,2,0,B|196:244|196:244|312:220,1,140
356,172,95679,2,0,P|390:176|420:193,1,70
284,132,96171,2,0,L|288:56,2,70
204,160,96908,2,0,P|184:224|244:276,1,140
308,304,97646,2,0,L|311:373,1,70
360,240,98138,6,0,L|356:170,1,70
352,128,98507,1,0,0:0:0:0:
352,128,98630,2,0,P|292:136|264:120,1,70
216,84,99122,1,0,0:0:0:0:
128,204,99367,1,0,0:0:0:0:
256,236,99613,1,0,0:0:0:0:
204,172,99859,1,0,0:0:0:0:
184,280,100105,6,0,L|172:352,2,70
256,232,100843,2,0,P|312:216|360:280,1,140
404,344,101581,2,0,L|473:347,1,70
404,260,102072,2,0,P|448:252|480:224,2,70
348,196,102810,2,0,B|316:160|316:160|324:60,1,140
240,64,103548,2,0,P|200:68|164:92,1,70
116,140,104040,6,0,P|120:240|72:276,1,140
108,348,104777,1,0,0:0:0:0:
176,300,105023,2,0,B|208:272|208:272|320:292,1,140
376,136,106007,6,0,P|395:80|336:83,1,140
370,138,106991,6,0,P|417:70|335:83,1,210.000008010865
344,252,107974,6,0,P|288:264|228:200,1,140
160,168,108712,1,0,0:0:0:0:
123,38,108958,1,0,0:0:0:0:
233,130,109204,1,0,0:0:0:0:
92,116,109449,1,0,0:0:0:0:
140,276,109941,6,0,P|180:312|268:312,1,140
344,284,110679,1,0,0:0:0:0:
364,144,110925,1,0,0:0:0:0:
264,244,111171,1,0,0:0:0:0:
400,220,111417,1,0,0:0:0:0:
280,160,111663,1,0,0:0:0:0:
188,280,111908,6,0,P|147:225|164:160,1,140
220,100,112646,1,0,0:0:0:0:
276,160,112892,2,0,L|344:148,1,70
449,227,113384,2,0,L|380:224,1,70
296,240,113876,5,0,0:0:0:0:
151,211,114122,1,0,0:0:0:0:
232,187,114367,1,0,0:0:0:0:
124,290,114613,1,0,0:0:0:0:
168,132,114859,2,0,P|196:80|256:64,1,105
280,68,115351,2,0,L|356:76,1,70
