osu file format v14

[General]
AudioFilename: audio.mp3
AudioLeadIn: 56
PreviewTime: 99613
Countdown: 0
SampleSet: None
StackLeniency: 0.7
Mode: 0
LetterboxInBreaks: 0
WidescreenStoryboard: 0

[Editor]
Bookmarks: 17482,33220,50925,66662,82400,100105,123711,129613
DistanceSpacing: 1
BeatDivisor: 2
GridSize: 4
TimelineZoom: 1

[Metadata]
Title:Yuugure
TitleUnicode:夕暮れ
Artist:THE ROLLING GIRLS
ArtistUnicode:THE ROLLING GIRLS
Creator:Pata-Mon
Version:wkyik's Normal
Source:ローリング☆ガールズ
Tags:Rizia kawaiwkyik 小澤亜李 Ozawa Ari 日高里菜 Hidaka Rina 種田梨沙 Taneda Risa 花守ゆみり Hanamori Yumiri THE BLUE HEARTS Anime IN tv size
BeatmapID:939142
BeatmapSetID:433666

[Difficulty]
HPDrainRate:2.5
CircleSize:3
OverallDifficulty:3.5
ApproachRate:4
SliderMultiplier:1
SliderTickRate:1

[Events]
//Background and Video events
0,0,"BG.jpg",0,0
//Break Periods
//Storyboard Layer 0 (Background)
//Storyboard Layer 1 (Fail)
//Storyboard Layer 2 (Pass)
//Storyboard Layer 3 (Foreground)
//Storyboard Sound Samples

[TimingPoints]
1744.69278346499,491.803278688525,4,3,0,60,1,0
50925,-100,4,3,0,60,0,1
66662,-100,4,3,0,60,0,0
100105,-100,4,3,0,60,0,1
123711,-100,4,3,0,60,0,0

[Colours]
Combo1 : 255,191,0
Combo2 : 18,159,255
Combo3 : 127,223,31
Combo4 : 239,31,31

[HitObjects]
100,120,1744,6,0,L|216:108,1,100,4|2,0:2|0:0,0:0:0:0:
248,100,2482,2,0,P|264:144|260:216,1,100,4|4,0:0|0:0,0:0:0:0:
252,244,3220,1,2,0:0:0:0:
228,340,3711,6,0,P|272:324|344:328,1,100,4|2,0:0|0:0,0:0:0:0:
372,344,4449,2,0,L|488:328,1,100,4|4,0:0|0:0,0:0:0:0:
508,296,5187,1,2,0:0:0:0:
488,196,5679,6,0,P|492:152|468:88,1,100,4|2,0:0|0:0,0:0:0:0:
436,68,6416,2,0,L|324:88,1,100,4|4,0:0|0:0,0:0:0:0:
288,96,7154,1,2,0:0:0:0:
196,52,7646,6,0,P|168:36|88:40,1,100,4|2,0:0|0:0,0:0:0:0:
80,80,8384,1,0,0:0:0:0:
84,128,8629,2,0,P|112:144|192:140,1,100,4|2,0:0|0:0,0:0:0:0:
272,112,9613,6,0,L|280:232,1,100,4|2,0:0|0:0,0:0:0:0:
320,240,10351,2,0,L|312:360,1,100,4|4,0:0|0:0,0:0:0:0:
276,376,11088,1,2,0:0:0:0:
184,332,11580,6,0,P|152:316|72:328,1,100,4|2,0:0|0:0,0:0:0:0:
56,356,12318,2,0,L|44:240,1,100,4|4,0:0|0:0,0:0:0:0:
40,208,13056,1,2,0:0:0:0:
8,112,13547,6,0,P|56:108|104:132,1,100,4|2,0:0|0:0,0:0:0:0:
144,160,14285,2,0,L|256:152,1,100,4|4,0:0|0:0,0:0:0:0:
292,148,15023,1,2,0:0:0:0:
392,140,15515,6,0,L|380:28,2,100,4|2|4,0:0|0:0|0:0,0:0:0:0:
424,176,16744,2,0,L|420:244,1,50,4|2,0:0|0:0,0:0:0:0:
460,320,17482,6,0,B|412:336|364:312|364:312|316:288|264:310,1,200,4|4,0:2|0:0,0:0:0:0:
180,356,18957,1,2,0:0:0:0:
84,328,19449,5,4,0:0:0:0:
84,328,19695,2,0,L|76:264,1,50,0|2,0:0|0:0,0:0:0:0:
68,228,20187,2,0,P|112:240|176:244,1,100,4|4,0:0|0:0,0:0:0:0:
216,240,20925,1,2,0:0:0:0:
284,164,21416,6,0,P|292:116|272:56,1,100,4|2,0:0|0:0,0:0:0:0:
240,36,22154,2,0,P|192:28|132:48,1,100,4|4,0:0|0:0,0:0:0:0:
108,80,22892,1,2,0:0:0:0:
20,128,23384,5,0,0:0:0:0:
20,128,23629,2,0,L|24:192,1,50,0|2,0:0|0:0,0:0:0:0:
40,224,24121,2,0,L|24:332,1,100,4|4,0:0|0:0,0:0:0:0:
40,372,24859,1,2,0:0:0:0:
132,336,25351,6,0,P|168:332|232:356,2,100,4|2|4,0:0|0:0|0:0,0:0:0:0:
92,308,26580,2,0,L|100:248,1,50,4|2,0:0|0:0,0:0:0:0:
140,168,27318,6,0,P|144:132|120:68,2,100,4|2|4,0:0|0:0|0:0,0:0:0:0:
168,208,28547,2,0,L|232:200,1,50,4|2,0:0|0:0,0:0:0:0:
312,236,29285,6,0,P|352:244|428:224,1,100,4|2,0:0|0:0,0:0:0:0:
484,164,30269,2,0,P|492:124|472:48,1,100,4|2,0:0|0:0,0:0:0:0:
404,4,31252,5,4,0:0:0:0:
404,4,31498,2,0,L|336:16,1,50,0|2,0:0|0:0,0:0:0:0:
320,48,31990,2,0,P|264:32|208:36,1,100,4|4,0:0|0:0,0:0:0:0:
176,48,32728,1,2,0:0:0:0:
76,32,33220,6,0,L|84:144,1,100,4|2,0:2|0:0,0:0:0:0:
156,200,34203,2,0,L|148:312,1,100,4|2,0:0|0:0,0:0:0:0:
236,348,35187,5,4,0:0:0:0:
236,348,35433,2,0,L|285:344,1,50,0|2,0:0|0:0,0:0:0:0:
336,356,35925,2,0,P|384:376|448:368,1,100,4|4,0:0|0:0,0:0:0:0:
476,352,36662,2,0,L|472:236,1,100,2|4,0:0|0:0,0:0:0:0:
480,152,37646,5,2,0:0:0:0:
472,52,38138,2,0,P|424:68|392:104,1,100,4|2,0:0|0:0,0:0:0:0:
340,192,39121,5,4,0:0:0:0:
340,192,39367,2,0,P|348:244|348:264,1,50,0|2,0:0|0:0,0:0:0:0:
340,292,39859,2,0,L|232:284,1,100,4|4,0:0|0:0,0:0:0:0:
192,280,40597,1,2,0:0:0:0:
112,340,41088,6,0,P|96:308|104:232,1,100,4|2,0:0|0:0,0:0:0:0:
120,200,41826,2,0,P|125:150|106:105,1,100,4|4,0:0|0:0,0:0:0:0:
68,72,42564,1,2,0:0:0:0:
148,8,43056,6,0,L|260:12,1,100,4|2,0:0|0:0,0:0:0:0:
284,44,43793,2,0,L|383:40,1,100,4|4,0:0|0:0,0:0:0:0:
432,36,44531,1,2,0:0:0:0:
504,108,45023,6,0,P|512:148|492:216,1,100,4|2,0:0|0:0,0:0:0:0:
464,240,45761,2,0,L|348:252,1,100,4|4,0:0|0:0,0:0:0:0:
316,256,46498,1,2,0:0:0:0:
268,344,46990,6,0,P|240:356|168:348,1,100,4|2,0:0|0:0,0:0:0:0:
132,320,47728,1,4,0:0:0:0:
96,288,47974,2,0,P|47:278|0:294,2,100,4|2|4,0:0|0:0|0:2,0:0:0:0:
172,224,49449,5,2,0:0:0:0:
156,124,49941,2,0,L|144:56,1,50,4|2,0:0|0:0,0:0:0:0:
188,48,50433,2,0,L|211:-16,1,50,2|4,0:0|0:0,0:0:0:0:
256,0,50925,6,0,P|308:-3|352:17,1,100,4|2,0:0|0:0,0:0:0:0:
392,44,51662,2,0,L|400:156,1,100,4|4,0:0|0:0,0:0:0:0:
404,192,52400,1,2,0:0:0:0:
428,288,52892,6,0,P|408:304|332:308,1,100,4|2,0:0|0:0,0:0:0:0:
288,308,53629,2,0,L|276:376,1,50,4|4,0:0|0:0,0:0:0:0:
180,336,54367,2,0,L|72:320,2,100,2|4|2,0:0|0:0|0:0,0:0:0:0:
216,300,55597,1,4,0:0:0:0:
216,300,55843,2,0,P|216:256|176:200,1,100,4|2,0:0|0:0,0:0:0:0:
236,120,56826,6,0,P|192:108|84:212,2,200,4|4|4,0:2|0:2|0:2,0:0:0:0:
336,104,59285,6,0,L|385:96,1,50,2|4,0:0|0:0,0:0:0:0:
436,88,59777,2,0,P|424:144|416:204,1,100,4|10,0:0|0:0,0:0:0:0:
480,268,60761,6,0,P|452:292|428:308,1,50,0|4,0:0|0:0,0:0:0:0:
416,344,61252,2,0,P|388:320|364:304,1,50,0|2,0:0|0:0,0:0:0:0:
328,300,61744,2,0,P|280:316|228:324,1,100,4|10,0:0|0:0,0:0:0:0:
140,364,62728,6,0,P|90:356|43:340,1,100,4|2,0:0|0:0,0:0:0:0:
56,240,63711,2,0,L|0:236,2,50,4|8|2,0:0|0:0|0:0,0:0:0:0:
84,144,64695,6,0,P|80:108|112:48,1,100,4|2,0:0|0:0,0:0:0:0:
148,24,65433,1,2,0:0:0:0:
196,32,65679,2,0,L|248:28,2,50,4|8|2,0:0|0:0|0:0,0:0:0:0:
244,120,66662,6,0,L|343:112,1,100,4|2,0:2|0:0,0:0:0:0:
400,196,67646,2,0,L|300:203,1,100,4|2,0:0|0:0,0:0:0:0:
248,288,68629,5,4,0:0:0:0:
248,288,68875,2,0,L|240:352,1,50,0|2,0:0|0:0,0:0:0:0:
204,372,69367,2,0,L|104:364,1,100,4|4,0:0|0:0,0:0:0:0:
56,360,70105,1,2,0:0:0:0:
20,268,70597,5,4,0:0:0:0:
96,204,71088,1,2,0:0:0:0:
180,260,71580,2,0,P|224:272|288:264,1,100,4|2,0:0|0:0,0:0:0:0:
316,232,72318,1,0,0:0:0:0:
364,248,72564,6,0,L|376:304,2,50,4|0|2,0:0|0:0|0:0,0:0:0:0:
436,180,73547,2,0,L|424:124,2,50,4|0|2,0:0|0:0|0:0,0:0:0:0:
340,152,74531,6,0,P|304:136|236:144,1,100,4|2,0:0|0:0,0:0:0:0:
200,160,75269,2,0,L|188:52,1,100,4|4,0:0|0:0,0:0:0:0:
164,16,76006,1,2,0:0:0:0:
100,92,76498,6,0,L|0:103,1,100,4|2,0:0|0:0,0:0:0:0:
20,148,77236,2,0,P|28:180|36:252,1,100,4|4,0:0|0:0,0:0:0:0:
40,296,77974,1,2,0:0:0:0:
140,280,78466,5,4,0:0:0:0:
224,336,78957,1,2,0:0:0:0:
324,320,79449,2,0,P|364:312|432:332,1,100,4|2,0:0|0:0,0:0:0:0:
464,352,80187,1,0,0:0:0:0:
512,336,80433,6,0,L|508:224,1,100,4|2,0:0|0:0,0:0:0:0:
456,152,81416,2,0,L|464:88,2,50,4|2|2,0:0|0:0|0:0,0:0:0:0:
424,192,82154,1,0,2:0:0:0:
424,192,82400,6,0,P|380:180|312:188,1,100,4|2,0:0|0:0,0:0:0:0:
284,212,83138,1,4,0:0:0:0:
240,236,83384,2,0,P|227:187|231:138,1,100,4|2,0:0|0:0,0:0:0:0:
252,40,84367,5,4,0:0:0:0:
252,40,84613,2,0,L|180:48,1,50,0|2,0:0|0:0,0:0:0:0:
156,60,85105,2,0,B|108:52|108:52|48:68,1,100,4|4,0:0|0:0,0:0:0:0:
12,80,85843,1,2,0:0:0:0:
12,180,86334,6,0,B|60:188|60:188|120:172,1,100,4|2,0:0|0:0,0:0:0:0:
204,148,87318,2,0,L|192:260,1,100,4|2,0:0|0:0,0:0:0:0:
228,340,88302,5,4,0:0:0:0:
228,340,88547,2,0,L|284:332,1,50,0|2,0:0|0:0,0:0:0:0:
328,328,89039,2,0,P|368:324|432:352,1,100,4|4,0:0|0:0,0:0:0:0:
464,376,89777,1,2,0:0:0:0:
508,284,90269,6,0,L|504:176,1,100,4|2,0:0|0:0,0:0:0:0:
476,140,91006,2,0,P|448:128|360:140,1,100,4|4,0:0|0:0,0:0:0:0:
340,160,91744,1,2,0:0:0:0:
252,208,92236,6,0,P|202:214|155:198,1,100,4|2,0:0|0:0,0:0:0:0:
112,172,92974,2,0,L|115:271,1,100,4|4,0:0|0:0,0:0:0:0:
120,320,93711,1,2,0:0:0:0:
208,372,94203,5,4,0:0:0:0:
292,316,94695,1,2,0:0:0:0:
292,316,94941,2,0,P|344:312|400:340,1,100,4|4,0:0|0:0,0:0:0:0:
424,364,95679,2,0,L|436:260,1,100,2|4,0:0|0:0,0:0:0:0:
452,168,96662,6,0,P|464:128|504:84,2,100,2|4|2,0:0|0:0|0:0,0:0:0:0:
416,264,98138,6,0,B|368:248|368:248|308:268,1,100,4|2,0:0|0:0,0:0:0:0:
232,308,99121,2,0,L|232:360,2,50,4|2|2,0:0|0:0|0:0,0:0:0:0:
140,264,100105,6,0,P|104:272|32:248,1,100,4|2,0:2|0:0,0:0:0:0:
28,208,100843,1,4,0:0:0:0:
52,164,101088,2,0,P|88:156|160:180,1,100,4|2,0:0|0:0,0:0:0:0:
236,220,102072,6,0,L|252:120,1,100,4|2,0:0|0:0,0:0:0:0:
264,72,102810,2,0,P|300:88|364:104,1,100,4|4,0:0|0:0,0:0:0:0:
408,104,103547,1,2,0:0:0:0:
448,196,104039,6,0,P|399:207|353:227,1,100,4|2,0:0|0:0,0:0:0:0:
256,248,105023,2,0,P|268:312|272:360,1,100,4|2,0:0|0:0,0:0:0:0:
172,356,106006,6,0,P|132:320|-4:336,2,200,4|4|4,0:2|0:2|0:2,0:0:0:0:
272,376,108466,5,2,0:0:0:0:
272,376,108711,1,2,0:0:0:0:
272,376,108957,2,0,L|288:252,1,100,4|10,0:0|0:0,0:0:0:0:
380,252,109941,6,0,L|391:152,1,100,4|2,0:0|0:0,0:0:0:0:
372,108,110679,1,2,0:0:0:0:
324,120,110925,2,0,P|275:127|227:112,1,100,4|10,0:0|0:0,0:0:0:0:
164,36,111908,5,0,0:0:0:0:
88,100,112400,2,0,L|12:108,2,50
152,180,113384,2,0,L|140:300,1,100,10|4,0:0|0:0,0:0:0:0:
208,356,114367,5,2,0:0:0:0:
296,308,114859,2,0,L|367:316,2,50,4|8|4,0:0|0:0|0:0,0:0:0:0:
232,232,115843,6,0,P|272:212|344:220,1,100,4|2,0:0|0:0,0:0:0:0:
372,232,116580,1,2,0:0:0:0:
420,244,116826,2,0,L|412:124,1,100,4|10,0:0|0:0,0:0:0:0:
476,64,117810,6,0,P|436:44|364:52,1,100,4|2,0:0|0:0,0:0:0:0:
336,68,118547,1,2,0:0:0:0:
300,104,118793,2,0,L|200:97,1,100,4|10,0:0|0:0,0:0:0:0:
104,128,119777,6,0,P|96:76|96:8,2,100,4|2|4,0:0|0:0|0:0,0:0:0:0:
76,168,121006,1,8,0:0:0:0:
84,216,121252,1,10,0:0:0:0:
96,316,121744,6,0,L|200:304,1,100,4|2,0:0|0:0,0:0:0:0:
244,296,122482,1,6,0:0:0:0:
292,292,122728,2,0,P|342:292|386:314,1,100,8|10,0:0|0:0,0:0:0:0:
256,192,123711,12,6,125679,0:0:0:0:
208,144,127154,6,0,B|256:128|256:128|304:144,1,100,8|4,0:0|0:2,0:0:0:0:
