osu file format v14

[General]
AudioFilename: audio.mp3
AudioLeadIn: 56
PreviewTime: 99613
Countdown: 0
SampleSet: None
StackLeniency: 0.6
Mode: 0
LetterboxInBreaks: 0
WidescreenStoryboard: 0

[Editor]
Bookmarks: 17482,33220,50925,66662,82400,100105,108957,123711,129613
DistanceSpacing: 2
BeatDivisor: 2
GridSize: 4
TimelineZoom: 1

[Metadata]
Title:Yuugure
TitleUnicode:夕暮れ
Artist:THE ROLLING GIRLS
ArtistUnicode:THE ROLLING GIRLS
Creator:Pata-Mon
Version:Rolling
Source:ローリング☆ガールズ
Tags:Rizia kawaiwkyik 小澤亜李 Ozawa Ari 日高里菜 Hidaka Rina 種田梨沙 Taneda Risa 花守ゆみり Hanamori Yumiri THE BLUE HEARTS Anime IN tv size
BeatmapID:938044
BeatmapSetID:433666

[Difficulty]
HPDrainRate:5
CircleSize:3.8
OverallDifficulty:7
ApproachRate:7.6
SliderMultiplier:1.7
SliderTickRate:1

[Events]
//Background and Video events
0,0,"BG.jpg",0,0
//Break Periods
//Storyboard Layer 0 (Background)
//Storyboard Layer 1 (Fail)
//Storyboard Layer 2 (Pass)
//Storyboard Layer 3 (Foreground)
//Storyboard Sound Samples

[TimingPoints]
1744.69278346499,491.803278688525,4,3,0,60,1,0
33588,-100,4,3,0,5,0,0
33711,-100,4,3,0,60,0,0
37523,-100,4,3,0,5,0,0
37646,-100,4,3,0,60,0,0
50925,-90.9090909090909,4,3,0,60,0,1
55228,-90.9090909090909,4,3,0,5,0,1
55351,-90.9090909090909,4,3,0,60,0,1
57195,-90.9090909090909,4,3,0,5,0,1
57318,-90.9090909090909,4,3,0,60,0,1
58179,-90.9090909090909,4,3,0,5,0,1
58302,-90.9090909090909,4,3,0,60,0,1
60638,-90.9090909090909,4,3,0,5,0,1
60761,-90.9090909090909,4,3,0,60,0,1
63097,-90.9090909090909,4,3,0,5,0,1
63220,-90.9090909090909,4,3,0,60,0,1
64572,-90.9090909090909,4,3,0,5,0,1
64695,-90.9090909090909,4,3,0,60,0,1
66662,-100,4,3,0,60,0,0
70966,-100,4,3,0,5,0,0
71088,-100,4,3,0,60,0,0
82769,-100,4,3,0,5,0,0
82892,-100,4,3,0,60,0,0
97523,-100,4,3,0,5,0,0
97646,-100,4,3,0,60,0,0
98015,-100,4,3,0,5,0,0
98138,-100,4,3,0,60,0,0
100105,-90.9090909090909,4,3,0,60,0,1
104408,-90.9090909090909,4,3,0,5,0,1
104531,-90.9090909090909,4,3,0,60,0,1
106375,-90.9090909090909,4,3,0,5,0,1
106498,-90.9090909090909,4,3,0,60,0,1
107359,-90.9090909090909,4,3,0,5,0,1
107482,-90.9090909090909,4,3,0,60,0,1
109818,-90.9090909090909,4,3,0,5,0,1
109941,-90.9090909090909,4,3,0,60,0,1
112277,-90.9090909090909,4,3,0,5,0,1
112400,-90.9090909090909,4,3,0,60,0,1
117687,-90.9090909090909,4,3,0,5,0,1
117810,-90.9090909090909,4,3,0,60,0,1
120146,-90.9090909090909,4,3,0,5,0,1
120269,-90.9090909090909,4,3,0,60,0,1
123711,-100,4,3,0,60,0,0

[Colours]
Combo1 : 255,191,0
Combo2 : 18,159,255
Combo3 : 127,223,31
Combo4 : 239,31,31

[HitObjects]
232,328,1744,6,0,P|200:251|230:174,1,170,4|2,0:0|0:0,0:0:0:0:
328,121,2482,1,4,0:0:0:0:
311,250,2728,2,0,P|387:286|471:294,1,170,4|2,0:0|0:0,0:0:0:0:
247,83,3711,6,0,P|162:90|86:126,1,170,4|2,0:0|0:0,0:0:0:0:
0,196,4449,1,4,0:0:0:0:
151,276,4695,2,0,P|184:248|207:213,1,85,4|0,0:0|2:0,0:0:0:0:
247,83,5187,1,2,0:0:0:0:
151,276,5679,6,0,P|224:319|308:325,1,170,4|2,0:0|0:0,0:0:0:0:
407,277,6416,1,4,0:0:0:0:
281,140,6662,2,0,P|208:96|124:90,1,170,4|2,0:0|0:0,0:0:0:0:
40,357,7646,6,0,P|117:323|182:269,1,170,4|2,0:0|0:0,0:0:0:0:
253,183,8384,1,4,0:0:0:0:
291,286,8629,1,4,0:0:0:0:
182,269,8875,1,0,2:0:0:0:
360,199,9121,2,0,P|403:204|441:221,1,85,2|0,0:0|2:0,0:0:0:0:
290,286,9613,6,0,P|206:277|131:239,1,170,4|2,0:0|0:0,0:0:0:0:
212,162,10351,1,4,0:0:0:0:
290,286,10597,2,0,P|305:325|307:367,1,85,4|0,0:0|2:0,0:0:0:0:
212,162,11088,2,0,P|196:122|194:80,1,85,2|0,0:0|2:0,0:0:0:0:
355,138,11580,6,0,P|345:221|290:285,1,170,4|2,0:0|0:0,0:0:0:0:
170,264,12318,1,4,0:0:0:0:
212,162,12564,2,0,L|127:174,1,85,4|0,0:0|2:0,0:0:0:0:
254,60,13056,1,2,0:0:0:0:
322,147,13302,1,0,2:0:0:0:
144,75,13547,6,0,L|59:87,2,85,4|0|2,0:0|2:0|0:0,0:0:0:0:
254,60,14285,1,4,0:0:0:0:
279,202,14531,1,4,0:0:0:0:
143,152,14777,1,0,2:0:0:0:
311,124,15023,1,2,0:0:0:0:
214,259,15269,1,0,2:0:0:0:
365,219,15515,5,4,0:0:0:0:
331,324,15761,1,0,2:0:0:0:
311,123,16006,2,0,P|278:151|259:188,1,85,2|4,0:0|0:0,0:0:0:0:
251,356,16498,1,4,0:0:0:0:
160,215,16744,1,0,2:0:0:0:
316,277,16990,1,2,0:0:0:0:
155,318,17236,1,0,2:0:0:0:
259,189,17482,5,4,0:0:0:0:
259,189,17974,1,2,0:0:0:0:
153,156,18220,1,4,0:0:0:0:
233,81,18466,2,0,P|271:61|312:51,1,85,4|0,0:0|0:0,0:0:0:0:
492,7,18957,2,0,P|454:26|413:37,1,85,2|0,0:0|0:0,0:0:0:0:
199,11,19449,5,4,0:0:0:0:
288,135,19695,1,0,0:0:0:0:
136,150,19941,1,2,0:0:0:0:
305,36,20187,1,4,0:0:0:0:
211,188,20433,2,0,P|183:220|144:234,1,85,4|0,0:0|2:0,0:0:0:0:
238,82,20925,2,0,P|265:50|305:36,1,85,2|0,0:0|2:0,0:0:0:0:
93,75,21416,6,0,P|51:65|14:44,2,85,4|0|2,0:0|0:0|0:0,0:0:0:0:
237,81,22154,2,0,P|278:90|315:111,2,85,4|4|0,0:0|0:0|2:0,0:0:0:0:
93,75,22892,1,2,0:0:0:0:
26,163,23138,1,0,0:0:0:0:
208,177,23384,6,0,P|254:249|279:330,1,170,4|2,0:0|0:0,0:0:0:0:
279,330,24121,1,4,0:0:0:0:
385,298,24367,2,0,P|425:285|467:282,1,85,4|0,0:0|2:0,0:0:0:0:
304,222,24859,1,2,0:0:0:0:
198,254,25105,1,0,0:0:0:0:
321,113,25351,5,4,0:0:0:0:
304,222,25597,2,0,P|264:207|232:179,1,85,0|2,0:0|0:0,0:0:0:0:
407,183,26088,1,4,0:0:0:0:
390,291,26334,2,0,P|316:331|237:309,1,170,4|2,0:0|0:0,0:0:0:0:
26,186,27318,5,4,0:0:0:0:
157,65,27564,1,0,0:0:0:0:
197,239,27810,1,2,0:0:0:0:
128,164,28056,1,4,0:0:0:0:
280,221,28302,2,0,L|196:238,1,85,4|0,0:0|2:0,0:0:0:0:
309,122,28793,1,2,0:0:0:0:
308,121,29285,6,0,P|372:175|375:257,1,170,4|2,0:0|0:0,0:0:0:0:
280,221,30022,1,4,0:0:0:0:
416,105,30269,2,0,P|440:140|454:180,1,85,4|0,0:0|0:0,0:0:0:0:
401,352,30761,1,2,0:0:0:0:
401,352,31006,1,0,0:0:0:0:
280,221,31252,5,4,0:0:0:0:
291,330,31498,2,0,P|249:326|207:330,1,85,0|2,0:0|0:0,0:0:0:0:
97,352,31990,1,4,0:0:0:0:
218,221,32236,1,4,0:0:0:0:
207,330,32482,1,0,2:0:0:0:
118,174,32728,1,2,0:0:0:0:
44,256,32974,1,0,2:0:0:0:
207,330,33220,6,0,P|263:361|326:371,1,127.5,4|0,0:0|0:0,0:0:0:0:
365,332,33711,2,0,L|450:332,1,85,2|4,0:0|0:0,0:0:0:0:
286,252,34203,2,0,L|201:252,1,85,4|0,0:0|2:0,0:0:0:0:
415,154,34695,1,2,0:0:0:0:
388,252,34941,1,0,0:0:0:0:
326,103,35187,6,0,P|243:115|166:152,1,170,4|2,0:0|0:0,0:0:0:0:
138,277,35925,1,4,0:0:0:0:
231,363,36170,2,0,P|314:350|391:313,1,170,4|2,0:0|0:0,0:0:0:0:
40,130,37154,6,0,P|103:136|162:159,1,127.5,4|0,0:0|0:0,0:0:0:0:
210,187,37646,1,2,0:0:0:0:
105,221,37892,1,4,0:0:0:0:
210,76,38138,1,4,0:0:0:0:
105,42,38384,1,0,0:0:0:0:
290,0,38629,1,2,0:0:0:0:
210,76,38875,1,0,0:0:0:0:
394,33,39121,6,0,P|400:76|415:115,1,85,4|0,0:0|2:0,0:0:0:0:
501,283,39613,1,2,0:0:0:0:
407,225,39859,1,4,0:0:0:0:
421,359,40105,2,0,P|378:358|339:343,1,85,4|0,0:0|2:0,0:0:0:0:
208,223,40597,1,2,0:0:0:0:
208,223,40843,1,0,0:0:0:0:
377,171,41088,5,4,0:0:0:0:
304,88,41334,2,0,L|222:112,1,85,0|2,0:0|0:0,0:0:0:0:
66,146,41826,2,0,L|147:170,2,85,4|4|0,0:0|0:0|2:0,0:0:0:0:
65,306,42564,2,0,L|146:281,1,85,2|0,0:0|2:0,0:0:0:0:
329,322,43056,6,0,P|334:280|329:238,1,85,4|0,0:0|0:0,0:0:0:0:
286,65,43547,1,2,0:0:0:0:
189,134,43793,2,0,P|220:163|258:180,1,85,4|4,0:0|0:0,0:0:0:0:
396,207,44285,1,0,2:0:0:0:
286,65,44531,1,2,0:0:0:0:
508,319,45023,5,4,0:0:0:0:
476,204,45269,2,0,P|438:187|396:179,1,85,0|2,0:0|0:0,0:0:0:0:
220,141,45761,2,0,P|259:159|301:167,1,85,4|4,0:0|0:0,0:0:0:0:
476,204,46252,1,0,0:0:0:0:
301,167,46498,1,2,0:0:0:0:
378,236,46744,1,0,0:0:0:0:
357,338,46990,5,4,0:0:0:0:
487,250,47236,1,0,2:0:0:0:
487,250,47359,1,0,2:0:0:0:
487,250,47482,1,2,0:0:0:0:
346,182,47728,1,4,0:0:0:0:
357,337,47974,2,0,P|314:335|274:321,1,85,4|0,0:0|2:0,0:0:0:0:
263,165,48466,2,0,P|305:167|345:181,1,85,2|0,0:0|2:0,0:0:0:0:
165,250,48957,5,4,0:0:0:0:
189,116,49203,1,0,2:0:0:0:
37,297,49449,1,2,0:0:0:0:
61,163,49695,1,0,2:0:0:0:
165,250,49941,1,4,0:0:0:0:
85,29,50187,1,2,0:0:0:0:
316,70,50433,1,2,0:0:0:0:
189,116,50679,2,0,P|182:95|179:74,1,42.5,4|0,0:0|2:0,0:0:0:0:
172,20,50925,6,0,P|127:7|80:6,1,93.5000028533936,4|0,0:0|0:0,0:0:0:0:
316,70,51416,1,2,0:0:0:0:
189,116,51662,1,4,0:0:0:0:
333,166,51908,2,0,P|378:179|425:180,1,93.5000028533936,4|0,0:0|2:0,0:0:0:0:
189,116,52400,1,2,0:0:0:0:
316,70,52646,1,0,0:0:0:0:
235,243,52892,5,4,0:0:0:0:
189,116,53138,1,0,0:0:0:0:
362,197,53384,1,2,0:0:0:0:
315,70,53629,2,0,P|361:61|407:70,1,93.5000028533936,4|4,0:0|0:0,0:0:0:0:
362,197,54121,1,0,2:0:0:0:
189,116,54367,2,0,P|143:124|97:115,1,93.5000028533936,2|0,0:0|2:0,0:0:0:0:
280,163,54859,6,0,P|278:232|249:295,1,140.25000428009,4|0,0:0|0:0,0:0:0:0:
209,334,55351,1,2,0:0:0:0:
114,195,55597,1,4,0:0:0:0:
280,163,55843,2,0,P|321:183|355:215,1,93.5000028533936,4|0,0:0|0:0,0:0:0:0:
499,258,56335,2,0,P|478:299|446:333,1,93.5000028533936,2|0,0:0|0:0,0:0:0:0:
220,378,56826,6,0,P|183:322|116:329,1,140.25000428009,4|0,0:0|0:0,0:0:0:0:
86,376,57318,1,2,0:0:0:0:
336,57,57810,2,0,P|373:2|440:9,1,140.25000428009,4|0,0:0|0:0,0:0:0:0:
471,56,58302,1,2,0:0:0:0:
27,208,58793,5,4,0:0:0:0:
145,132,59039,1,0,0:0:0:0:
32,48,59285,2,0,P|10:89|4:135,1,93.5000028533936,2|4,0:0|0:0,0:0:0:0:
183,35,59777,2,0,P|229:36|274:50,1,93.5000028533936,4|0,0:0|2:0,0:0:0:0:
467,124,60269,2,0,P|430:183|377:228,1,140.25000428009,2|0,0:0|0:0,0:0:0:0:
326,250,60761,5,4,0:0:0:0:
187,267,61006,1,4,0:0:0:0:
309,111,61252,1,2,0:0:0:0:
309,111,61498,1,4,0:0:0:0:
170,127,61744,2,0,P|123:122|80:104,1,93.5000028533936,4|4,0:0|0:0,0:0:0:0:
187,267,62235,1,10,0:0:0:0:
187,267,62481,1,0,0:0:0:0:
326,250,62728,6,0,P|331:180|351:113,1,140.25000428009,4|0,0:0|0:0,0:0:0:0:
374,63,63220,1,2,0:0:0:0:
261,161,63466,1,4,0:0:0:0:
402,210,63711,1,4,0:0:0:0:
213,240,63957,1,8,0:0:0:0:
281,61,64203,2,0,P|212:48|143:61,1,140.25000428009,2|0,0:0|0:0,0:0:0:0:
95,88,64695,5,4,0:0:0:0:
52,221,64941,1,4,0:0:0:0:
56,16,65187,1,2,0:0:0:0:
231,122,65433,1,4,0:0:0:0:
95,88,65679,1,4,0:0:0:0:
134,223,65925,1,8,0:0:0:0:
278,64,66170,2,0,P|303:103|300:149,1,93.5000028533936,2|0,0:0|2:0,0:0:0:0:
210,258,66662,6,0,P|248:277|290:283,1,85,4|0,0:0|0:0,0:0:0:0:
449,174,67154,1,2,0:0:0:0:
409,286,67400,1,4,0:0:0:0:
330,172,67646,2,0,P|298:143|262:120,1,85,4|0,0:0|2:0,0:0:0:0:
92,62,68138,1,2,0:0:0:0:
148,176,68384,1,0,0:0:0:0:
205,4,68629,6,0,P|218:45|216:87,1,85,4|0,0:0|0:0,0:0:0:0:
156,262,69121,1,2,0:0:0:0:
244,195,69367,1,4,0:0:0:0:
232,341,69613,2,0,P|155:372|79:341,1,170,4|2,0:0|0:0,0:0:0:0:
156,262,70351,1,0,2:0:0:0:
14,169,70597,6,0,P|18:105|43:47,1,127.5,4|0,0:0|0:0,0:0:0:0:
79,89,71088,2,0,P|114:112|155:121,1,85,2|4,0:0|0:0,0:0:0:0:
290,141,71580,1,4,0:0:0:0:
189,48,71826,1,0,0:0:0:0:
379,38,72072,1,2,0:0:0:0:
290,141,72318,1,0,0:0:0:0:
501,155,72564,6,0,P|469:182|430:200,1,85,4|0,0:0|0:0,0:0:0:0:
379,38,73056,1,2,0:0:0:0:
290,141,73302,1,4,0:0:0:0:
238,15,73547,2,0,P|197:3|154:0,1,85,4|0,0:0|2:0,0:0:0:0:
290,141,74039,1,2,0:0:0:0:
176,175,74285,1,0,0:0:0:0:
324,255,74531,5,4,0:0:0:0:
210,288,74777,2,0,P|168:299|126:300,1,85,0|2,0:0|0:0,0:0:0:0:
324,255,75269,2,0,P|365:244|407:243,2,85,4|4|0,0:0|0:0|2:0,0:0:0:0:
126,300,76006,1,2,0:0:0:0:
469,364,76498,5,4,0:0:0:0:
407,243,76744,2,0,P|377:213|339:193,1,85,0|2,0:0|0:0,0:0:0:0:
296,323,77236,1,4,0:0:0:0:
206,219,77482,2,0,P|204:177|216:136,1,85,4|0,0:0|2:0,0:0:0:0:
296,323,77974,1,2,0:0:0:0:
15,152,78466,6,0,P|84:103|164:77,1,170,4|2,0:0|0:0,0:0:0:0:
233,164,79203,1,4,0:0:0:0:
274,61,79449,1,4,0:0:0:0:
342,148,79695,1,0,0:0:0:0:
442,4,79941,1,2,0:0:0:0:
354,71,80187,1,0,0:0:0:0:
456,114,80433,5,4,0:0:0:0:
442,4,80679,1,0,0:0:0:0:
342,147,80925,2,0,P|305:169|264:182,1,85,2|4,0:0|0:0,0:0:0:0:
129,188,81416,1,4,0:0:0:0:
286,85,81662,1,2,0:0:0:0:
296,272,81908,1,2,0:0:0:0:
265,182,82154,1,0,2:0:0:0:
221,330,82400,6,0,P|157:326|96:307,1,127.5,4|0,0:0|0:0,0:0:0:0:
47,282,82892,1,2,0:0:0:0:
163,229,83138,1,4,0:0:0:0:
58,155,83384,2,0,P|88:125|126:106,1,85,4|0,0:0|0:0,0:0:0:0:
296,31,83875,2,0,P|266:60|228:79,1,85,2|0,0:0|0:0,0:0:0:0:
319,222,84367,6,0,P|341:257|350:299,1,85,4|0,0:0|0:0,0:0:0:0:
244,155,84859,1,2,0:0:0:0:
203,276,85105,1,4,0:0:0:0:
319,222,85351,2,0,P|361:211|403:212,1,85,4|0,0:0|2:0,0:0:0:0:
203,276,85843,2,0,P|161:286|119:285,1,85,2|0,0:0|2:0,0:0:0:0:
214,143,86334,6,0,P|226:102|248:65,1,85,4|0,0:0|0:0,0:0:0:0:
294,236,86826,1,2,0:0:0:0:
215,143,87072,1,4,0:0:0:0:
370,177,87318,2,0,P|391:140|403:99,1,85,4|0,0:0|0:0,0:0:0:0:
294,236,87810,1,2,0:0:0:0:
422,279,88056,1,0,0:0:0:0:
250,334,88302,6,0,P|166:346|82:342,1,170,4|2,0:0|0:0,0:0:0:0:
123,221,89039,1,4,0:0:0:0:
82,100,89285,2,0,P|123:93|165:100,1,85,4|0,0:0|2:0,0:0:0:0:
330,178,89777,1,2,0:0:0:0:
280,70,90023,1,0,0:0:0:0:
398,80,90269,5,4,0:0:0:0:
330,177,90515,2,0,P|311:216|302:257,1,85,0|2,0:0|0:0,0:0:0:0:
298,383,91006,1,4,0:0:0:0:
184,303,91252,2,0,P|143:290|101:286,1,85,4|0,0:0|2:0,0:0:0:0:
247,160,91744,2,0,P|287:172|329:176,1,85,2|0,0:0|2:0,0:0:0:0:
470,257,92236,6,0,P|486:218|492:176,1,85,4|0,0:0|0:0,0:0:0:0:
474,9,92728,1,2,0:0:0:0:
377,104,92974,2,0,P|334:108|294:120,2,85,4|4|0,0:0|0:0|2:0,0:0:0:0:
216,168,93711,1,2,0:0:0:0:
484,327,94203,5,4,0:0:0:0:
216,168,94695,1,2,0:0:0:0:
333,99,94941,2,0,P|339:57|358:19,1,85,4|4,0:0|0:0,0:0:0:0:
469,99,95432,1,0,0:0:0:0:
331,212,95679,1,2,0:0:0:0:
439,242,95925,1,0,0:0:0:0:
282,339,96170,5,4,0:0:0:0:
390,309,96416,1,0,0:0:0:0:
196,269,96662,2,0,P|157:250|116:242,1,85,2|4,0:0|0:0,0:0:0:0:
284,149,97154,2,0,P|333:107|390:80,1,127.5,4|0,0:0|0:0,0:0:0:0:
395,134,97646,2,0,P|416:195|450:249,1,127.5,4|0,0:0|0:0,0:0:0:0:
491,286,98138,5,4,0:0:0:0:
338,276,98384,1,0,2:0:0:0:
338,276,98506,1,0,2:0:0:0:
338,276,98629,1,2,0:0:0:0:
395,134,98875,1,4,0:0:0:0:
255,196,99121,1,4,0:0:0:0:
485,149,99367,1,2,0:0:0:0:
275,44,99613,1,2,0:0:0:0:
255,195,99859,2,0,P|250:216|243:236,1,42.5,4|0,0:0|2:0,0:0:0:0:
211,187,100105,6,0,P|169:169|130:142,1,93.5000028533936,4|0,0:0|0:0,0:0:0:0:
0,6,100597,1,2,0:0:0:0:
14,145,100843,1,4,0:0:0:0:
141,50,101088,2,0,P|140:96|130:142,1,93.5000028533936,4|0,0:0|2:0,0:0:0:0:
316,92,101580,2,0,P|316:45|326:0,1,93.5000028533936,2|0,0:0|2:0,0:0:0:0:
347,189,102072,5,4,0:0:0:0:
347,189,102318,1,0,0:0:0:0:
442,19,102564,1,2,0:0:0:0:
483,153,102810,1,4,0:0:0:0:
353,97,103056,2,0,P|342:142|347:189,1,93.5000028533936,4|0,0:0|2:0,0:0:0:0:
442,19,103547,1,2,0:0:0:0:
442,19,103793,1,0,3:0:0:0:
251,57,104039,6,0,P|226:122|217:191,1,140.25000428009,4|0,0:0|0:0,0:0:0:0:
221,246,104531,2,0,P|174:251|129:240,1,93.5000028533936,2|4,0:0|0:0,0:0:0:0:
308,178,105023,2,0,P|354:173|399:184,1,93.5000028533936,4|0,0:0|2:0,0:0:0:0:
206,102,105515,1,2,0:0:0:0:
206,102,105761,1,0,2:0:0:0:
399,183,106006,6,0,P|395:253|376:321,1,140.25000428009
350,370,106498,1,2,0:0:0:0:
0,191,106990,2,0,P|3:121|22:53,1,140.25000428009,4|0,0:0|0:0,0:0:0:0:
49,4,107482,1,2,0:0:0:0:
398,182,107974,6,0,P|444:175|485:152,1,93.5000028533936,4|0,0:0|0:0,0:0:0:0:
254,78,108466,1,2,0:0:0:0:
309,248,108711,1,2,0:0:0:0:
365,78,108957,1,4,0:0:0:0:
220,184,109203,1,4,0:0:0:0:
199,5,109449,2,0,P|133:26|80:70,1,140.25000428009,10|0,0:0|0:0,0:0:0:0:
52,120,109941,5,4,0:0:0:0:
176,86,110187,1,4,0:0:0:0:
1,39,110433,1,2,0:0:0:0:
47,214,110679,1,2,0:0:0:0:
175,86,110925,2,0,P|215:60|260:50,1,93.5000028533936,4|4,0:0|0:0,0:0:0:0:
113,164,111416,1,10,0:0:0:0:
266,181,111662,1,0,0:0:0:0:
97,269,111908,6,0,B|75:374|43:378|31:338,1,140.25000428009,4|0,0:0|0:0,0:0:0:0:
25,283,112400,1,2,0:0:0:0:
215,324,112646,1,2,0:0:0:0:
145,187,112892,1,4,0:0:0:0:
145,187,113138,1,4,0:0:0:0:
334,227,113384,2,0,P|358:268|368:313,1,93.5000028533936,10|0,0:0|2:0,0:0:0:0:
215,324,113875,5,4,0:0:0:0:
215,324,114121,1,4,0:0:0:0:
258,157,114367,1,2,0:0:0:0:
92,204,114613,1,8,0:0:0:0:
259,247,114859,1,4,0:0:0:0:
212,80,115105,1,8,0:0:0:0:
166,247,115351,2,0,P|212:253|259:246,1,93.5000028533936,4|0,0:0|2:0,0:0:0:0:
119,93,115843,6,0,P|95:52|62:19,1,93.5000028533936,4|0,0:0|0:0,0:0:0:0:
68,226,116334,1,2,0:0:0:0:
62,19,116580,1,2,0:0:0:0:
195,119,116826,1,4,0:0:0:0:
195,119,117072,1,4,0:0:0:0:
213,323,117318,2,0,B|316:288|343:320|340:331,1,140.25000428009,10|0,0:0|0:0,0:0:0:0:
322,384,117810,5,4,0:0:0:0:
429,320,118056,1,4,0:0:0:0:
213,323,118302,1,2,0:0:0:0:
318,134,118547,1,2,0:0:0:0:
321,285,118793,1,4,0:0:0:0:
189,213,119039,1,4,0:0:0:0:
393,153,119285,1,10,0:0:0:0:
321,285,119531,1,0,0:0:0:0:
260,80,119777,6,0,P|194:61|126:75,1,140.25000428009,4|0,0:0|0:0,0:0:0:0:
81,108,120269,1,2,0:0:0:0:
304,116,120515,1,2,0:0:0:0:
189,213,120761,1,4,3:0:0:0:
162,64,121006,1,8,3:0:0:0:
298,225,121252,1,10,0:0:0:0:
90,262,121498,1,0,0:0:0:0:
262,307,121744,5,4,0:0:0:0:
90,352,121990,1,4,0:0:0:0:
262,217,122236,1,2,0:0:0:0:
60,136,122482,1,6,0:0:0:0:
154,256,122728,1,8,0:0:0:0:
116,42,122974,1,8,0:0:0:0:
30,256,123220,1,10,0:0:0:0:
154,256,123466,1,0,0:0:0:0:
92,363,123711,5,0,2:0:0:0:
92,363,125679,5,6,0:0:0:0:
248,41,127154,1,8,0:0:0:0:
92,363,127646,5,4,0:0:0:0:
256,192,127769,12,0,129613,2:0:0:0:
